osu file format v8

[General]
AudioFilename: Aural Planet Costa Del Nymphos.mp3
AudioLeadIn: 0
PreviewTime: 59233
Countdown: 0
SampleSet: Soft
StackLeniency: 0.7
Mode: 0
LetterboxInBreaks: 1

[Editor]
DistanceSpacing: 0
BeatDivisor: 4
GridSize: 8

[Metadata]
Title:Costa Del Nymphos
Artist:Aural Planet
Creator:La Cataline
Version:Easy
Source:
Tags:psymbient Natteke

[Difficulty]
HPDrainRate:3
CircleSize:4
OverallDifficulty:3
ApproachRate:4
SliderMultiplier:0.8
SliderTickRate:1

[Events]
//Background and Video events
0,0,"abstract_wave-75.jpg"
//Break Periods
//Storyboard Layer 0 (Background)
//Storyboard Layer 1 (Fail)
//Storyboard Layer 2 (Pass)
//Storyboard Layer 3 (Foreground)
//Storyboard Sound Samples
//Background Colour Transformations
3,100,0,0,0

[TimingPoints]
167,461.538461538462,4,2,0,40,1,0
27859,-200,4,2,0,30,0,0
57859,-100,4,2,0,0,0,0
58320,-200,4,2,0,30,0,0
58782,-100,4,2,0,0,0,0
59243,-100,4,2,1,30,0,0
88320,-100,4,2,1,0,0,0
88782,-100,4,2,1,50,0,0
145782,-100,4,2,1,0,0,0

[Colours]
Combo1 : 183,225,249
Combo2 : 21,180,255
Combo3 : 128,128,255
SliderBorder : 145,145,145

[HitObjects]
136,96,44474,2,0,B|193:68|320:120|376:96,1,240,2|0
376,176,48167,2,0,B|318:203|192:152|136:176,1,240,2|0
144,256,51859,6,0,C|200:240|256:256|312:240|376:264,1,240,2|0
368,184,55551,2,0,C|312:168|256:184|200:168|136:192,1,240,2|0
264,88,59243,6,0,B|328:56|384:88,1,120,4|4
328,192,60628,2,0,B|328:240,2,40,2|0|4
256,288,61782,2,0,B|256:216,2,60,4|4|2
176,288,62936,6,0,B|120:320|56:288,1,120,4|4
120,184,64320,2,0,B|120:136,2,40,2|0|4
120,64,65474,2,0,B|192:48|248:72,1,120,4|2
240,152,66628,6,0,B|264:232|384:216|416:304,1,240,4|2
360,360,68474,2,0,B|336:280|216:296|184:208,1,240,4|2
184,128,70320,6,0,B|248:104|304:128,1,120,4|4
256,240,71705,2,0,B|256:336,1,80,2|4
256,200,72859,2,4,B|328:200,2,60,4|4|2
176,200,74013,6,0,B|160:248|168:296,1,80,4|2
168,320,74705,2,0,B|224:344|288:328,1,120,4|2
288,248,75859,1,4
288,128,76551,2,0,B|288:64,1,60,4|4
240,200,77705,6,0,B|192:216|144:208,1,80,4|2
168,168,78397,2,0,B|112:192|48:176,1,120,4|2
50,176,79551,1,4
134,91,80243,1,4
218,175,80936,1,2
232,256,81397,6,0,B|176:288|115:255,2,120,4|4|2
176,200,83243,2,0,B|232:168|293:201,2,120,4|4|2
256,192,85090,12,4,86936
256,64,88782,5,4
312,120,89243,1,2
312,120,89474,2,0,B|348:180|312:232,1,120,4|2
256,176,90628,2,0,B|136:176,2,120,4|4|10
256,256,92474,5,4
256,256,92936,1,2
256,256,93166,2,0,B|192:280|128:256,1,120,4|2
72,216,94320,2,0,B|47:149|79:85,2,120,4|4|10
120,280,96166,6,0,B|136:256|224:280|240:256,2,120,4|4|2
112,200,98013,2,0,B|128:176|216:200|232:176,2,120,4|4|10
96,120,99859,6,0,B|96:32|176:32,1,120,4|4
192,152,101243,1,2
192,152,101705,2,0,B|192:240|112:240,1,120,4|4
128,238,103090,1,4
200,280,103551,6,0,B|312:200,1,120,4|4
320,96,104936,2,0,B|240:152,1,80,2|4
160,216,106090,2,0,B|104:264,2,60,4|0|10
240,216,107243,6,0,B|304:240|368:216,1,120,4|4
304,112,108628,1,2
304,112,109090,2,0,B|368:88|432:112,1,120,4|4
424,232,110474,1,2
424,232,110936,6,0,B|368:224|296:232,1,120,4|4
264,136,112320,1,2
264,136,112782,2,0,B|320:144|392:136,1,120,4|4
320,256,114166,6,0,B|360:272,2,40,10|0|4
256,304,115090,1,2
256,304,115320,1,4
192,256,115782,1,0
192,256,116013,1,2
192,176,116474,2,0,B|120:136|24:184,1,160,4|0
192,152,118320,6,0,B|248:152,2,40,4|0|2
112,152,119243,2,0,B|56:232|112:312,1,160,0|4
185,301,120628,2,0,B|225:309,1,40,2|4
209,229,121320,2,0,B|257:237,1,40,2|12
248,155,122013,6,0,B|192:155,2,40,4|0|2
328,155,122936,2,0,B|384:235|328:315,1,160,0|4
254,304,124320,2,0,B|214:312,1,40,2|4
230,232,125013,2,0,B|182:240,1,40,2|12
272,232,125705,6,0,B|272:80|120:80,1,240,4|2
126,80,127551,1,4
144,160,128013,2,0,B|128:208,4,40,2|4|0|2|12
224,160,129397,6,0,B|224:312|376:312,1,240,4|2
369,311,131243,1,4
368,232,131705,2,0,B|384:176,2,40,2|4|2
408,232,132397,2,0,B|424:176,2,40,2|12|2
448,248,133090,6,0,B|395:277|344:328,1,120,4|4
248,264,134474,1,2
248,264,134936,2,0,B|352:200|448:112,1,240,4|4
368,80,136782,6,0,B|312:64|240:80,1,120,4|4
249,198,138166,1,2
249,198,138628,2,0,B|185:214|113:190,2,120,4|4|6
249,278,140474,6,0,B|369:358|481:270,1,240,4|2
472,360,142320,2,0,B|392:240|480:128,1,240,4|10
473,136,144166,6,0,B|377:72|265:192|153:120,1,320,4|0
