osu file format v5

[General]
AudioFilename: Audition - Yo! DJ!.mp3
AudioLeadIn: 0
PreviewTime: -1
Countdown: 1
SampleSet: Normal
StackLeniency: 0.7
Mode: 0
LetterboxInBreaks: 1

[Metadata]
Title:Yo! DJ!
Artist:Audition
Creator:KinGSquiLL
Version:Easy
Source:
Tags:

[Difficulty]
HPDrainRate:5
CircleSize:5
OverallDifficulty:5
SliderMultiplier:1.4
SliderTickRate:1

[Events]
//Background and Video events
0,0,"Wallpaper_By_SteE14.jpg"
//Break Periods
//Storyboard Layer 0 (Background)
//Storyboard Layer 1 (Failing)
//Storyboard Layer 2 (Passing)
//Storyboard Layer 3 (Foreground)
//Storyboard Sound Samples
//Background Colour Transformations
3,100,255,255,255

[TimingPoints]
0,444.444444444444,4,1,0,100,1

[Colours]
Combo1 : 255,128,128
Combo2 : 128,128,255
Combo3 : 255,128,0
Combo4 : 0,0,255
Combo5 : 0,0,0

[HitObjects]
192,192,5333,1,8
288,224,5777,1,8
192,160,7111,1,8
256,224,7555,1,8
416,64,8444,1,8
192,160,9333,1,8
256,224,10222,1,8
160,128,11111,1,8
128,224,11555,1,8
224,96,12444,1,8
128,160,12888,1,8
256,224,13777,1,8
128,128,14666,1,8
224,256,15555,1,8
256,160,16444,5,8
320,256,16888,1,8
192,288,17333,1,8
96,160,18222,1,8
224,256,19555,1,8
128,160,19999,1,8
256,160,20444,1,8
256,160,20888,1,8
192,288,21333,1,8
128,160,21777,1,8
288,160,22222,5,8
288,256,22666,1,8
160,256,23111,1,8
64,192,23555,1,8
352,224,23999,1,8
224,160,24444,1,8
96,160,24888,1,8
224,288,25333,1,8
320,224,25777,1,8
192,128,26222,1,8
256,96,26666,1,8
352,160,27111,1,8
352,160,27555,5,8
160,224,27999,1,8
160,128,28444,1,8
256,128,28888,5,8
224,192,29333,1,8
320,224,29777,1,8
256,288,30222,1,8
160,256,30666,1,8
320,224,31111,1,8
192,160,31555,1,8
288,192,31999,1,8
288,256,32444,1,8
96,96,32888,1,8
256,192,33111,12,8,35666
352,256,36444,5,8
224,256,36888,1,8
128,192,37777,5,0
224,160,38666,5,0
256,224,39111,1,0
352,256,39555,1,0
192,256,40444,1,0
160,160,40888,1,0
224,192,41333,1,0
320,256,42222,1,0
96,320,42666,1,0
128,224,43111,1,0
256,192,43999,1,0
320,288,44444,1,0
384,224,44888,1,0
160,224,45777,1,0
288,256,46333,1,8
256,192,46888,12,8,49222
192,256,49777,5,0
224,224,50222,1,0
160,160,50666,1,0
256,160,51111,1,0
256,192,51999,5,8
128,224,52444,1,0
256,192,52888,1,0
288,256,53333,1,0
224,288,53777,1,0
128,224,54222,1,0
224,160,54666,1,0
288,256,55555,5,8
192,288,55999,1,0
288,320,56444,1,0
192,160,56888,1,0
320,192,57333,1,0
288,224,57777,1,0
224,288,58222,1,0
288,224,59111,5,8
224,192,59555,1,0
288,128,59999,1,0
256,224,60444,1,0
192,256,60888,1,0
320,256,61333,1,0
224,192,61777,1,0
320,224,62666,5,8
224,224,63111,1,0
352,256,63555,1,0
224,288,63999,1,0
192,160,64444,1,0
288,128,64888,1,0
288,224,65333,1,0
256,192,66222,5,8
192,224,66666,1,0
256,160,67111,1,0
160,128,67555,1,0
320,160,68000,1,0
288,288,68444,1,0
160,256,68888,1,0
352,256,69777,5,8
320,224,70222,1,0
192,256,70666,1,0
128,128,71111,1,0
256,128,71555,1,0
256,224,72000,1,0
352,224,72444,1,0
352,192,73333,5,8
256,96,73777,1,0
256,224,74222,1,0
192,256,74666,1,0
160,160,75111,1,0
320,160,75555,1,0
288,256,75999,1,0
352,224,76888,5,8
288,96,77333,1,0
320,160,77777,1,0
288,256,78666,5,8
320,224,78999,1,8
64,320,79999,1,8
320,192,80444,1,0
192,160,80888,1,0
160,288,81555,1,8
384,256,82222,5,8
320,224,82666,1,0
256,128,83111,1,0
192,96,83999,1,0
160,224,84444,1,0
384,224,85333,5,8
320,96,85777,1,0
224,224,86444,1,8
192,288,86777,1,8
192,224,87555,1,0
320,224,87999,1,0
192,96,88888,1,0
224,256,89777,1,0
288,224,90222,1,0
224,96,91111,1,0
256,192,91555,12,8,93333
224,96,93777,5,0
416,192,94666,5,8
192,224,95111,1,0
224,128,95555,1,0
320,128,95999,1,0
352,256,96444,1,0
192,288,96888,1,0
448,96,97777,5,8
256,160,98222,1,0
384,160,98666,1,0
320,256,99111,1,0
448,96,99999,5,8
256,128,100444,1,0
192,256,100888,1,0
320,224,101333,1,0
352,128,101777,1,0
192,128,102222,1,0
192,224,102666,1,0
352,224,103999,5,8
128,160,104444,1,0
224,256,104888,1,0
384,224,105333,1,0
224,128,105777,1,0
128,224,106222,1,0
256,224,106777,1,8
352,320,107333,1,8
320,256,107666,1,8
192,224,108444,1,0
224,128,109333,1,0
288,192,110222,1,0
352,224,111555,5,8
160,192,111999,1,0
320,128,112888,1,0
288,224,113777,1,0
160,192,114666,1,0
288,160,115555,1,0
160,256,116444,1,0
256,192,116888,12,8,122666
320,288,123555,5,8
320,192,123999,1,0
192,256,124444,1,0
288,288,124888,1,0
416,160,125777,1,8
384,192,126222,1,0
256,288,126666,1,0
160,224,127111,1,0
320,192,127999,5,8
224,288,128444,1,0
352,288,128888,1,0
160,192,129777,1,0
288,224,130222,1,0
256,320,130666,1,0
352,256,131555,5,8
320,192,132000,1,0
256,288,132444,1,0
224,160,133333,1,0
192,256,133777,1,0
288,256,134222,1,0
352,288,135111,5,8
192,192,135555,1,0
288,256,136000,1,0
128,160,136888,1,0
224,256,137777,1,0
320,192,138666,1,0
224,128,139555,1,0
320,320,140444,5,8
320,256,140888,1,0
320,160,141333,1,0
160,192,142222,1,0
192,256,142666,1,0
320,256,143111,1,0
224,128,144000,1,0
384,288,144444,5,8
288,256,144888,1,0
160,160,145777,1,0
320,160,146222,1,0
224,96,146666,1,0
320,256,147555,5,8
288,192,148444,1,0
192,288,149333,1,0
320,320,149777,1,0
320,160,150222,1,0
160,192,151111,1,0
224,288,151555,1,0
352,192,151999,5,8
256,160,152888,1,0
192,256,153333,1,0
320,224,154222,1,0
288,128,154666,1,0
96,160,155555,1,0
192,256,155999,1,0
416,192,156888,5,8
224,128,157333,1,0
352,128,158222,1,0
320,256,158666,1,0
160,192,159555,1,0
384,224,160444,5,8
320,128,160888,1,0
256,256,161777,1,0
128,192,162666,1,0
160,96,163111,1,0
256,192,163999,1,0
320,288,164444,1,0
192,320,164999,1,8
128,160,165333,5,8
352,192,165666,1,8
256,192,166111,1,8
256,192,166333,1,8
256,192,166777,1,8
256,192,167111,12,0,175111
128,128,175555,5,0
288,256,175999,1,0
352,160,176444,1,0
192,160,176888,1,0
256,128,177333,1,0
320,256,177777,1,0
192,288,178222,1,0
160,192,178666,1,0
320,192,179111,5,8
160,256,179555,1,0
64,288,179999,1,0
288,288,180444,1,0
192,160,180888,1,0
128,224,181333,1,0
288,256,182222,5,8
288,160,182666,1,0
448,160,183111,1,0
224,128,184444,1,4
192,224,185777,1,4
256,224,186222,1,4
320,256,187111,5,8
256,288,187999,1,4
192,192,188888,1,4
64,288,189777,1,4
64,160,190222,1,4
224,256,190666,1,4
320,224,191111,5,8
128,192,191555,1,4
224,256,192444,1,4
192,288,192888,1,4
256,192,193333,1,8
224,224,193555,1,8
256,192,193777,1,8
224,224,193999,1,8
256,192,194333,1,8
224,224,194666,1,8
256,192,194999,1,8
256,192,195333,1,8
256,192,195888,12,8,197777
64,128,198222,5,4
224,160,198666,1,4
320,224,199111,1,4
256,288,199999,5,8
160,224,200444,1,4
256,128,200888,1,4
64,224,201333,1,4
256,192,202222,12,4,204888
