osu file format v5

[General]
AudioFilename: Audition - Listen.mp3
AudioLeadIn: 0
PreviewTime: -1
Countdown: 1
SampleSet: Normal
StackLeniency: 0.7
Mode: 0
LetterboxInBreaks: 1

[Metadata]
Title:Listen
Artist:Audition
Creator:matii1994
Version:Normal
Source:
Tags:

[Difficulty]
HPDrainRate:5
CircleSize:5
OverallDifficulty:4
SliderMultiplier:1.4
SliderTickRate:2

[Events]
//Background and Video events
0,0,"339982e00766a35477756042e5ad39631229656573_full.jpg"
//Break Periods
2,90783,93356
2,127449,128273
//Storyboard Layer 0 (Background)
//Storyboard Layer 1 (Failing)
//Storyboard Layer 2 (Passing)
//Storyboard Layer 3 (Foreground)
4,3,1,"339982e00766a35477756042e5ad39631229656573_full.jpg",320,240 M,0,2,2,320,240,320,240
//Storyboard Sound Samples
//Background Colour Transformations
3,100,163,162,255

[TimingPoints]
0,666.666666666667,4,1,0,100,1,0

[Colours]
Combo1 : 0,128,255
Combo2 : 0,128,192
Combo3 : 255,255,0
Combo4 : 0,255,0

[HitObjects]
256,192,11083,1,4
192,192,12833,1,8
192,160,13500,1,0
192,128,14083,1,8
224,128,14666,1,0
256,96,15333,1,8
288,96,15916,1,0
320,96,16583,1,8
352,96,17166,1,0
384,128,17750,1,8
384,160,18333,1,0
384,192,19000,1,8
384,224,19583,1,0
320,256,20166,1,0
256,256,20750,1,0
192,256,21416,1,8
160,224,22083,1,0
160,192,22666,1,8
192,192,23250,1,0
224,192,23916,1,8
256,192,24166,1,0
288,192,24500,2,0,L|416:192,1,122.5,0|8
448,192,25666,1,0
480,192,26333,5,8
480,160,26666,1,0
480,96,26916,2,8,L|352:96,1,122.5,0|8
320,96,28083,1,0
256,96,28750,1,8
192,96,29416,1,0
160,96,30000,1,8
160,160,30583,1,0
160,224,31250,1,8
192,224,31833,1,0
256,224,32416,1,8
288,224,33000,1,0
352,224,33666,1,8
352,192,34250,1,0
352,128,34916,1,8
288,128,35500,1,0
256,128,36166,1,8
288,128,36750,1,0
352,128,37333,1,8
384,128,38000,1,0
448,128,38583,1,8
448,160,39250,1,0
448,224,39750,6,0,L|352:128|352:128,1,122.5
320,192,40666,1,0
288,192,41000,1,8
288,192,41250,1,0
256,192,41583,1,0
192,160,42250,1,8
160,160,42833,1,0
128,128,43500,1,8
160,128,44083,1,0
224,96,44666,1,8
256,128,45333,1,0
256,192,45916,1,8
288,160,46500,1,0
320,96,47166,1,8
352,128,47750,1,0
352,160,48416,1,8
352,192,49000,1,0
320,224,49583,1,8
320,256,50250,1,0
320,320,50833,1,8
224,320,51333,2,0,L|96:320,1,122.5,8|8
96,288,52666,1,0
96,224,53250,1,8
96,160,53916,1,0
128,160,54500,5,8
160,160,55083,1,0
192,192,55666,1,8
224,192,56250,1,0
224,128,56916,1,8
288,128,57583,1,0
288,160,58166,1,8
320,192,58750,1,0
352,128,59416,1,8
384,192,60000,1,8
416,128,60583,1,8
448,192,61833,1,8
448,256,62416,1,0
384,224,63083,1,8
352,256,63666,1,0
352,256,64250,1,8
320,256,64916,1,0
288,256,65500,1,8
256,256,66083,1,0
224,256,66666,1,8
192,256,67333,1,0
160,256,67916,1,8
128,256,68500,1,0
96,256,69166,1,8
96,192,69750,1,8
96,192,70333,1,8
256,192,71000,12,4,71583
256,192,71916,5,0
256,192,72333,12,4,72833
256,192,73166,5,0
256,192,73500,12,4,74083
256,192,74333,5,0
256,192,74666,12,4,75333
256,192,75583,5,0
256,192,75916,12,4,76500
256,192,76833,5,0
256,192,77166,12,4,77750
256,192,78000,5,0
352,128,78333,5,8
128,96,79000,1,8
320,64,79583,1,8
192,64,80166,1,8
416,64,80833,1,8
256,192,81000,12,4,81417
256,192,81750,1,8
256,192,82000,12,4,82583
192,128,83000,1,8
256,192,83250,12,4,83916
416,64,84250,1,8
256,192,84500,12,4,85083
0,64,85416,1,8
256,192,85666,12,4,86333
96,64,86666,1,8
256,192,86916,12,4,87583
192,64,87833,1,8
288,64,88166,5,8
320,96,88750,1,8
256,128,89333,1,8
160,96,90000,1,8
64,64,90583,1,4
192,192,94916,5,8
224,192,95500,1,0
256,192,96083,1,8
288,192,96666,1,0
320,192,97333,1,8
352,192,97916,1,0
384,160,98500,1,0
384,96,99166,1,0
320,64,99750,1,8
288,64,100416,1,0
256,64,101000,1,8
256,96,101583,1,0
256,128,102250,5,8
256,192,102833,2,8,L|128:192,1,122.5
128,256,104083,2,0,L|256:256,1,122.5,0|8
288,256,105333,1,0
320,256,105916,1,8
352,256,106583,1,0
384,256,107166,1,8
384,224,107750,1,0
416,224,108333,1,8
384,192,108500,1,8
384,160,109000,1,0
416,160,109583,1,8
384,128,109750,1,8
384,64,110166,2,8,L|256:64,1,122.5,0|8
261,64,111083,1,8
224,64,111166,1,8
192,64,111416,1,8
128,64,112083,5,8
128,128,112666,1,8
128,192,113333,1,8
128,224,113583,1,8
128,224,113916,1,8
128,288,114500,1,8
160,288,114833,1,0
192,288,115083,1,8
224,288,115416,1,0
288,288,115666,1,8
288,192,116333,1,8
384,192,117000,5,8
352,256,117583,1,8
320,256,117833,1,0
288,224,118166,1,8
256,224,118500,1,0
192,224,118750,1,8
160,224,119083,1,0
96,224,119416,1,8
128,192,119916,1,0
96,192,120000,1,8
32,128,120500,1,8
64,128,120833,1,0
96,96,121250,5,8
128,96,121583,1,0
160,96,121833,1,8
192,128,122166,1,0
192,96,122416,1,8
224,128,122833,1,0
224,96,123083,1,8
256,128,123416,1,0
288,96,123666,1,8
320,160,124000,1,0
288,160,124250,1,8
256,160,124583,1,0
224,192,124916,1,8
256,224,125250,1,0
224,224,125500,1,8
224,256,125833,1,0
224,288,126083,2,8,L|352:288,2,122.5,0|8|0
256,192,129833,12,8,130416
256,192,130749,1,0
256,192,131083,12,8,131666
192,160,131916,1,0
256,192,132250,12,8,132833
320,160,133083,1,0
256,192,133416,12,8,134083
224,64,134333,1,0
256,192,134666,12,8,135250
320,64,135583,1,0
256,192,135833,12,8,136500
288,192,137083,5,0
256,192,137416,1,0
224,192,137750,1,0
192,192,138000,1,0
160,192,138333,1,0
128,192,138666,1,0
96,192,139000,1,0
256,192,139666,12,8,140166
256,192,140500,1,0
256,192,140833,12,8,141416
128,64,141666,1,0
256,192,142083,12,8,142666
352,64,142916,1,0
256,192,143250,12,8,143916
448,160,144166,1,0
256,192,144500,12,8,145083
256,192,145333,1,0
256,192,145666,12,8,146333
160,160,146583,1,0
256,192,146916,5,0
224,192,147166,1,0
224,192,147500,1,0
192,192,147833,1,0
160,192,148166,1,0
128,192,148500,1,0
96,192,148750,1,0
96,192,149083,1,0
64,192,149333,1,0
64,224,149666,1,0
64,256,149916,2,8,L|320:320,1,262.5
384,320,151500,1,0
384,320,151833,1,0
384,320,152416,2,8,L|448:64,1,262.5
447,65,153916,1,0
447,65,154250,1,0
383,63,154916,2,8,L|129:127,1,262.5
128,192,156750,1,0
160,192,157000,1,0
192,192,157333,1,0
224,192,157583,1,0
256,192,157916,1,0
288,192,158250,1,0
320,192,158583,1,0
352,192,158916,1,0
384,192,159166,5,0
448,256,159750,2,8,L|194:320,1,262.5
256,320,161333,1,0
256,320,161583,1,0
256,320,161916,1,0
288,320,162250,2,8,L|34:256,1,262.5
256,320,163750,1,0
256,320,164083,1,0
256,320,164333,1,0
96,192,164666,2,8,L|350:128,1,262.5
384,64,166583,1,0
352,64,166833,1,0
320,64,167166,1,0
288,64,167500,1,0
256,64,167750,1,0
224,64,168083,1,0
192,64,168333,1,0
160,64,168666,1,0
128,64,169000,1,0
