osu file format v5

[General]
AudioFilename: happy ending.mp3
AudioLeadIn: 0
PreviewTime: -1
Countdown: 1
SampleSet: Normal
StackLeniency: 0.7
Mode: 0
LetterboxInBreaks: 1

[Metadata]
Title:Happy Ending
Artist:Audition
Creator:Crazy Jay
Version:Hard
Source:
Tags:

[Difficulty]
HPDrainRate:0
CircleSize:5
OverallDifficulty:4
SliderMultiplier:1.4
SliderTickRate:0.5

[Events]
//Background and Video events
//Break Periods
//Storyboard Layer 0 (Background)
//Storyboard Layer 1 (Failing)
//Storyboard Layer 2 (Passing)
//Storyboard Layer 3 (Foreground)
//Storyboard Sound Samples
//Background Colour Transformations
3,100,163,162,255

[TimingPoints]
0,468.75,4,1,0,100,1

[HitObjects]
96,64,8320,1,0
192,64,8789,1,0
288,64,9257,1,0
352,64,9492,1,0
416,64,9726,1,0
416,128,9960,1,0
288,128,10429,1,0
160,128,10898,1,0
160,192,11132,2,0,C|96:192,4,35
160,256,11835,1,4
224,256,12070,5,0
224,160,12539,1,0
320,160,13007,1,0
320,224,13242,1,0
320,288,13476,1,0
384,288,13710,1,0
384,160,14179,1,0
320,160,14414,1,0
160,160,14882,1,4
64,320,15820,5,0
160,320,16289,1,0
256,320,16757,2,0,C|256:224,1,70
320,256,17226,1,0
384,256,17460,1,0
384,160,17929,1,0
288,160,18398,1,0
224,160,18632,2,4,C|128:160,2,70
96,160,19570,5,0
96,256,20039,1,0
192,256,20507,2,0,C|192:160,1,70
192,128,20976,1,0
192,64,21210,1,0
320,64,21679,1,0
320,160,22148,1,0
320,224,22382,2,4,C|224:224,2,70
416,352,23320,5,0
320,352,23789,1,0
224,352,24257,2,0,C|128:352,1,70
96,352,24726,1,0
96,288,24960,1,0
96,192,25429,1,0
96,96,25898,1,0
160,96,26132,2,4,C|256:96,2,70
256,96,27070,5,0
256,192,27539,1,0
160,192,28007,2,0,C|64:192,1,70
96,256,28476,1,0
96,320,28710,1,0
224,320,29179,1,0
320,320,29648,1,0
320,256,29882,2,4,C|320:160,2,70
416,256,30820,6,0,C|412:216|394:188|352:160,1,105
320,128,31523,1,0
271,91,31757,1,0
160,96,32226,1,0
64,96,32695,1,0
64,160,32929,1,0
64,224,33164,1,0
64,288,33398,2,0,C|109:321|148:305|184:319|192:288,1,140
256,320,34101,1,0
320,320,34335,1,0
384,320,34570,1,4
384,256,34804,5,0
384,192,35039,1,0
384,128,35273,2,0,C|320:128,1,35
288,128,35742,1,0
224,128,35976,1,0
160,128,36210,1,0
96,128,36445,1,0
96,192,36679,1,0
160,192,36914,1,0
224,192,37148,2,0,C|228:248|128:256,1,140
224,256,37851,1,0
288,256,38085,1,0
352,256,38320,1,4
352,160,38671,5,0
352,64,39140,1,0
256,64,39726,1,0
160,64,40195,2,0,C|127:68|96:96,3,70
96,192,41484,1,0
224,192,42070,1,0
320,192,42421,1,0
416,192,42773,1,0
416,256,43007,1,0
416,352,43476,1,4
352,352,43710,5,4
288,352,43945,1,4
224,352,44179,1,4
160,352,44414,1,0
96,352,44648,2,0,C|96:288,1,35
96,256,45000,1,4
256,352,45820,5,0
224,288,46289,2,0,C|192:288|192:288|192:256,1,70
192,192,46757,2,0,C|192:160|192:160|224:160,1,70
224,96,47226,2,0,C|320:96,1,70
320,0,47929,1,0
448,0,48398,1,0
448,64,48632,1,0
448,128,48867,1,0
384,128,49101,1,4
384,256,49570,5,0
320,320,50039,2,0,C|288:319|288:319|288:288,1,70
256,224,50507,2,0,C|219:225|224:288,1,70
224,320,50976,2,0,C|128:320,1,70
64,320,51679,1,0
64,192,52148,1,0
64,128,52382,1,0
64,64,52617,1,0
128,64,52851,1,4
224,64,53320,5,0
320,64,53789,2,0,C|352:65|352:65|352:96,1,70
352,160,54257,2,0,C|320:160|320:160|320:192,1,70
320,256,54726,2,0,C|224:256,1,70
192,256,55429,1,0
64,256,55898,1,0
64,192,56132,1,0
64,128,56367,1,0
128,128,56601,1,4
256,128,57070,5,0
320,96,57538,2,0,C|352:96|352:96|352:128,1,70
352,192,58007,2,0,C|384:192|384:192|384:224,1,70
384,288,58476,2,0,C|384:384,1,70
256,352,59179,1,0
160,352,59648,1,0
96,352,59882,1,0
32,352,60117,1,0
32,288,60351,1,4
32,192,60820,5,0
32,64,61289,1,0
160,64,61757,1,0
160,192,62226,1,0
288,192,62695,1,0
352,192,62929,1,0
416,192,63164,1,0
416,256,63398,1,4
416,128,64335,5,0
320,128,64804,1,0
256,128,65039,1,0
192,128,65273,1,0
128,128,65507,1,0
128,256,65859,1,0
224,256,66210,1,0
352,256,66679,1,4
448,256,67382,6,0,C|485:231|471:210|482:184|416:160,1,140
448,96,68320,1,0
320,96,68789,1,0
192,96,69257,1,0
64,96,69726,1,0
64,224,70195,1,0
128,224,70429,1,0
192,224,70664,1,0
192,288,70898,1,4
352,288,71835,5,0
352,192,72304,1,0
288,192,72539,1,0
224,192,72773,1,0
160,192,73007,1,0
160,96,73359,1,0
64,96,73710,1,0
64,192,73945,2,4,C|108:200|156:191|205:208|254:192|301:204|352:192,1,280
416,192,75117,5,0
416,64,75585,1,0
352,64,75820,1,0
256,64,76171,2,0,C|256:192,1,105
256,256,76757,1,0
192,256,77109,2,0,C|64:256,1,105
32,256,77695,1,0
32,160,78867,2,4,C|32:0,1,140
96,32,79570,6,0,C|224:32,1,105
192,96,80273,1,0
192,160,80507,2,0,C|192:288,1,105
256,256,81210,1,0
320,256,81445,1,4
416,256,82382,6,0,C|432:228|406:214|427:180|398:161|416:160,1,140
384,64,83320,1,0
256,64,83789,1,0
128,64,84257,1,0
128,192,84726,1,0
256,192,85195,1,0
256,256,85429,1,0
256,320,85664,1,0
320,320,85898,1,4
64,320,87070,6,0,C|64:192,1,105
64,128,87773,1,0
128,128,88007,2,0,C|256:128,1,105
288,128,88710,1,0
288,192,88945,1,4
352,192,89179,5,0
352,160,89296,1,0
352,128,89414,1,0
352,64,89648,1,0
320,64,89765,1,0
288,64,89882,1,0
224,64,90117,1,0
224,128,90351,1,0
224,192,90585,1,0
