osu file format v6

[General]
AudioFilename: Go Go.mp3
AudioLeadIn: 3000
PreviewTime: -1
Countdown: 3
SampleSet: Normal
StackLeniency: 0.7
Mode: 0
LetterboxInBreaks: 1

[Editor]
Bookmarks: -358
DistanceSpacing: 0.5
BeatDivisor: 8
GridSize: 8

[Metadata]
Title:Go Go
Artist:Audition
Creator:Flammatron1996
Version:Hard
Source:Audition
Tags:

[Difficulty]
HPDrainRate:4
CircleSize:6
OverallDifficulty:6
SliderMultiplier:1.5
SliderTickRate:1

[Events]
//Background and Video events
//Break Periods
2,40101,51751
2,91301,102951
2,155400,166951
//Storyboard Layer 0 (Background)
//Storyboard Layer 1 (Fail)
//Storyboard Layer 2 (Pass)
//Storyboard Layer 3 (Foreground)
//Storyboard Sound Samples
//Background Colour Transformations
3,100,163,162,255

[TimingPoints]
1.5,400,4,1,0,100,1,0
134401,-50,4,1,0,100,0,0
136001,-100,4,1,0,100,0,0
147201,-50,4,1,0,100,0,0
148801,-100,4,1,0,100,0,0
153601,-200,4,1,0,100,0,0
155201,-100,4,1,0,100,0,0

[HitObjects]
160,128,1,1,0
224,128,201,1,0
288,128,401,1,0
352,128,601,1,0
256,64,801,1,8
256,96,901,1,8
256,128,1001,1,8
256,160,1101,1,8
256,192,1201,1,8
256,224,1301,1,8
256,256,1401,1,8
256,288,1501,1,8
256,320,1601,6,0,B|224:352|224:288|192:320,1,75
192,288,2001,2,0,B|224:256|224:320|256:288,1,75
352,288,2601,1,0
256,192,2801,1,0
160,96,3001,1,0
64,192,3201,6,0,B|96:160|96:224,1,75
64,256,3601,2,0,B|96:256|96:224|128:224,1,75
160,288,4201,1,0
256,192,4401,1,0
352,96,4601,1,0
352,192,4801,6,0,B|320:160|320:224,3,75
256,64,5801,1,0
256,320,6001,1,0
256,192,6201,1,0
128,192,6401,5,0
256,128,6601,1,0
352,192,6801,1,0
256,256,7001,1,0
192,192,7401,1,0
320,192,7601,1,0
256,192,7801,1,0
224,96,8001,6,0,B|256:64,3,75
320,64,9001,2,0,B|352:96|320:128|384:128,1,75
384,160,9401,1,0
160,192,9601,6,0,B|160:160|160:160|192:160|192:160|192:128,1,75
192,192,10001,2,0,B|192:160|192:160|224:160|224:160|224:128,1,75
96,128,10601,1,0
96,160,10801,2,0,B|96:192|96:192|128:192,1,75
224,192,11201,5,0
256,160,11401,1,0
256,224,11601,1,0
224,256,11801,2,0,B|256:224|256:288|288:256,1,75
288,192,12201,1,0
352,192,12401,1,0
416,192,12601,1,0
256,208,12801,12,4,14001
160,160,14401,5,8
192,160,14601,2,8,B|160:192|224:224,1,75,8|0
288,224,15001,1,8
256,192,15201,2,8,B|192:192|224:96,1,75,8|8
160,128,15601,1,0
192,96,15801,2,0,B|320:96,1,75,8|0
320,64,16201,2,0,B|384:96|320:128,1,75,8|0
288,160,16601,1,8
224,160,16801,1,8
256,192,17001,2,0,B|224:224|288:224|256:256,1,75,8|0
256,288,17401,1,8
256,352,17601,6,8,B|224:320|256:288|288:320,1,75,8|8
288,352,18001,1,0
320,352,18201,2,8,B|352:320|320:288|288:320,1,75
288,352,18601,1,8
288,320,18801,2,0,B|288:224,1,75,0|8
128,64,19201,5,0
160,64,19301,1,0
192,64,19401,1,0
224,64,19501,1,0
256,64,19601,1,0
288,64,19701,1,0
320,64,19801,1,0
352,64,19901,1,0
352,96,20001,1,0
352,128,20101,1,0
384,128,20201,1,0
416,128,20301,1,0
416,160,20401,1,0
416,192,20501,1,0
416,224,20601,1,0
384,224,20701,1,0
352,224,20801,5,8
320,224,21001,2,8,B|352:192|288:160,1,75,8|0
224,160,21401,1,8
256,192,21601,2,8,B|320:192|288:288,1,75,8|8
352,256,22001,1,0
320,288,22201,2,0,B|192:288,1,75,8|0
192,320,22601,2,0,B|128:288|192:256,1,75,8|0
224,224,23001,1,8
288,224,23201,1,8
256,192,23401,2,0,B|288:160|224:160|256:128,1,75,8|0
256,96,23801,1,8
288,160,24001,6,0,B|384:160|352:160,2,75,8|8|0
256,160,24601,1,8
224,160,24801,2,8,B|128:160,2,75,8|8|0
256,160,25401,1,8
256,128,25601,5,0
256,96,25701,1,0
256,64,25801,1,0
288,64,25901,1,0
320,64,26001,1,0
352,96,26101,1,0
384,128,26201,1,0
384,160,26301,1,0
384,192,26401,1,0
352,192,26501,1,0
320,192,26601,1,0
288,192,26701,1,0
288,160,26801,1,0
288,128,26901,1,0
288,96,27001,1,0
256,96,27101,1,0
256,128,27201,5,8
256,160,27401,2,0,B|288:192|256:224|224:192,1,75,8|0
256,256,27801,1,8
256,288,28001,2,0,B|224:320|256:352|288:320,1,75,0|8
256,352,28401,1,0
128,192,28601,2,8,B|128:160|160:128|192:128|224:160|224:192,1,150
175,195,29201,1,0
224,224,29401,2,8,B|224:256|256:288|288:288|320:256|320:224,1,150,8|0
272,223,30001,1,8
320,96,30401,2,8,B|320:64|288:32,2,75,8|8|0
320,128,31001,2,8,B|320:192|352:224|384:192,2,150
288,128,32001,5,0
256,96,32101,1,0
224,128,32201,1,0
192,96,32301,1,0
160,128,32401,1,0
128,96,32501,1,0
96,128,32601,1,0
96,160,32701,1,0
128,192,32801,1,0
160,224,32901,1,0
192,256,33001,1,0
224,256,33101,1,0
256,256,33201,1,0
288,256,33301,1,0
288,224,33401,1,0
256,192,33501,1,0
224,192,33601,6,0,B|160:192|192:160|224:128,1,75,8|8
224,128,34001,1,0
256,128,34201,1,8
288,128,34401,2,0,B|352:128|320:160|288:192,1,75,8|8
288,192,34801,1,0
256,192,35001,1,8
224,192,35201,6,8,B|160:224,2,75,0|8|0
224,160,35801,1,8
192,160,36001,2,0,B|160:96|128:192,1,75
128,192,36401,1,8
96,224,36601,1,8
224,288,36801,6,8,B|256:256|288:288|320:288,1,75
320,288,37201,1,0
320,256,37401,1,8
288,256,37601,2,8,B|256:224|224:256,1,75
224,224,38001,1,0
224,192,38201,1,8
224,160,38401,5,0
224,128,38501,1,0
256,96,38601,1,0
288,64,38701,1,0
320,64,38801,1,0
352,64,38901,1,0
384,96,39001,1,0
416,128,39101,1,0
416,160,39201,1,0
416,192,39301,1,0
416,224,39401,1,0
384,256,39501,1,0
352,256,39601,1,0
320,256,39701,1,0
288,224,39801,1,0
256,192,39901,1,0
416,160,52801,6,8,B|320:160,1,75
256,160,53401,1,8
192,160,53601,2,8,B|96:160,1,75
256,208,54401,12,4,55601
128,96,56001,6,8,B|128:64|160:32|192:64|192:96,1,75
192,128,56601,1,8
192,160,56801,2,8,B|192:192|224:224|256:192|256:160,1,75
256,128,57401,1,8
256,208,57601,12,4,58801
288,160,59201,6,8,B|384:160|352:160,2,75,8|8|0
256,160,59801,1,8
224,160,60001,2,8,B|128:160,2,75,8|8|0
256,208,60801,12,4,62001
160,192,62401,6,8,B|160:160|192:128|224:96,1,75
192,96,62801,2,0,B|192:64|224:32|256:32,1,75,0|8
256,32,63201,2,8,B|288:96,2,75,8|8|0
256,208,64001,12,4,65201
192,192,65601,6,8,B|128:192|128:160,1,75
128,128,66001,1,0
128,96,66201,1,8
128,64,66401,2,8,B|160:32|192:32|224:32,1,75
224,64,66801,1,0
256,96,67001,1,8
256,128,67201,2,0,B|192:160,2,75,0|8|0
288,96,67801,1,8
320,64,68001,2,8,B|352:32|384:64,2,75,8|8|0
288,96,68601,1,8
320,96,68801,6,8,B|288:128|352:128,2,75,8|8|0
320,32,69401,2,0,B|288:0|288:64|256:32,1,75,8|8
224,32,69801,2,8,B|168:68|384:96|192:128,1,150,8|8
192,128,70401,6,0,B|160:160,1,37.5
165,154,70601,2,0,B|160:192,1,37.5
160,191,70801,2,0,B|192:224,1,37.5
186,218,71001,2,0,B|224:224,1,37.5
223,223,71201,2,0,B|256:192,1,37.5
250,197,71401,2,0,B|256:160,1,37.5
255,160,71601,2,0,B|224:128,1,37.5
229,133,71801,2,0,B|192:128,1,37.5
320,192,72001,6,0,B|384:192|384:224,1,75,8|8
384,256,72401,1,0
384,288,72601,1,8
384,320,72801,2,8,B|352:352|320:352|288:352,1,75
288,320,73201,1,0
256,288,73401,1,8
256,256,73601,2,0,B|320:224,2,75,0|8|0
224,288,74201,1,8
192,320,74401,2,8,B|160:352|128:320,2,75,8|8|0
224,288,75001,1,8
192,192,75201,6,8,B|192:160|224:128,3,75,8|8|0|8
320,192,76001,2,8,B|320:160|288:128,3,75,8|8|0|8
256,160,76801,5,0
256,192,76901,1,0
256,224,77001,1,0
256,256,77101,1,0
256,288,77201,1,0
256,320,77301,1,0
256,352,77401,1,0
224,352,77501,1,0
192,352,77601,1,0
160,352,77701,1,0
160,320,77801,1,0
160,288,77901,1,0
160,256,78001,1,0
128,256,78101,1,0
96,256,78201,1,0
96,224,78301,1,0
128,128,78401,6,8,B|160:128|192:160|192:192,1,75
192,192,78801,1,0
192,224,79001,2,0,B|192:256|224:288|256:288,1,75,8|0
256,288,79401,2,0,B|288:288|320:256|320:224,1,75,8|0
320,224,79801,2,0,B|320:192|288:160|256:160,1,75,8|0
256,160,80201,2,0,B|224:160|192:128|192:96,1,75,8|0
192,96,80601,2,0,B|192:64|160:32|128:32,1,75,8|0
128,32,81001,2,8,B|96:32|64:64|64:96,1,75,8|8
160,256,81601,6,8,B|160:224|160:192|192:224,1,75
224,224,82001,1,0
256,224,82201,2,8,B|256:192|256:160|288:128|320:96,2,150
352,96,83201,6,0,B|352:160,1,37.5
352,160,83401,1,0
352,192,83501,1,0
352,224,83601,2,0,B|352:288,1,37.5
352,288,83801,1,0
352,320,83901,1,0
352,352,84001,2,0,B|288:352,1,37.5
288,352,84101,1,0
256,352,84201,1,0
224,352,84301,2,0,B|160:352,1,37.5
160,352,84501,1,0
128,352,84601,1,0
96,352,84701,1,0
256,192,84801,6,0,B|256:224|288:224|288:192|288:160|256:160|224:160,2,75,8|8|0
224,192,85401,1,8
192,192,85601,2,8,B|152:155|104:254|137:235,1,75
128,256,86001,1,0
128,288,86201,2,0,B|154:362|207:220,1,75,8|0
184,259,86601,2,0,B|198:197|236:272,1,75,8|0
245,297,87001,1,8
255,333,87201,2,0,B|320:320|219:237,1,75,8|8
237,247,87601,1,0
217,211,87801,1,8
160,192,88001,5,8
160,160,88201,2,0,B|160:128|192:96|224:128,1,75,8|0
240,118,88601,1,8
288,128,88801,2,0,B|331:139|331:171|283:216|299:203,1,75,8|8
288,224,89201,1,0
256,224,89401,1,8
192,224,89601,5,0
192,256,89701,1,0
160,256,89801,1,0
160,224,89901,1,0
128,224,90001,1,0
128,256,90101,1,0
96,256,90201,1,0
96,224,90301,1,0
96,192,90401,1,0
128,192,90501,1,0
160,192,90601,1,0
192,192,90701,1,0
192,160,90801,1,0
160,160,90901,1,0
128,160,91001,1,0
96,160,91101,1,0
96,192,104001,6,0,B|128:160|128:160|160:192,1,75,8|8
160,224,104601,1,8
192,256,104801,2,8,B|224:288|224:288|256:256,1,75
256,208,105601,12,4,106801
256,160,107201,6,0,B|160:160,2,75,8|8|0
256,192,107801,1,8
256,224,108001,2,0,B|352:224,2,75,8|8|0
256,256,108601,1,8
256,208,108801,12,4,110001
192,256,110401,6,8,B|158:258|200:291|208:255|174:247|170:282|213:277|188:255|187:268|219:265|192:247|162:266|178:284|207:276|201:258|186:257|172:282|202:284|192:270|177:270|184:279|193:278|195:271|196:259|187:259|174:259|169:262,1,75
256,256,111001,1,8
320,256,111201,2,8,B|354:258|312:291|304:255|338:247|342:282|299:277|324:255|325:268|293:265|320:247|350:266|334:284|305:276|311:258|326:257|340:282|310:284|320:270|335:270|328:279|319:278|317:271|316:259|325:259|338:259|343:262,1,75
256,208,112001,12,0,113201
256,256,113601,6,0,B|224:256|192:256|192:224|192:192,1,75
256,192,114201,1,0
256,256,114401,2,0,B|288:256|320:256|320:224|320:192,1,75
256,208,115201,12,0,116401
192,192,116801,5,0
224,192,117001,1,0
224,256,117401,1,0
256,256,117601,1,0
288,256,117801,1,0
256,208,118401,12,0,119601
256,160,120001,5,0
224,160,120201,2,0,B|224:128|192:128|160:128|128:160,1,75
128,160,120601,1,0
96,192,120801,2,0,B|64:192|32:192|32:160|32:128,1,75
32,128,121401,1,0
32,96,121601,5,0
64,96,121701,1,0
96,96,121801,1,0
128,96,121901,1,0
160,96,122001,1,0
192,96,122101,1,0
224,96,122201,1,0
256,96,122301,1,0
288,96,122401,1,0
320,96,122501,1,0
352,96,122601,1,0
384,96,122701,1,0
416,96,122801,1,0
448,96,122901,1,0
480,96,123001,1,0
512,96,123101,1,0
512,160,123201,6,0,B|512:224|448:192,1,75
416,160,123801,2,0,B|384:128|352:128|320:160,3,75
256,208,124801,12,0,126001
96,192,126401,5,0
128,192,126601,2,0,B|160:192|160:160|128:128,1,75
96,128,127001,1,0
64,160,127201,1,0
32,192,127401,1,0
32,224,127601,1,0
32,256,127801,1,0
64,256,128001,5,0
96,256,128101,1,0
96,288,128201,1,0
128,288,128301,1,0
128,256,128401,1,0
160,256,128501,1,0
160,288,128601,1,0
192,288,128701,1,0
192,256,128801,1,0
224,256,128901,1,0
224,288,129001,1,0
256,288,129101,1,0
256,256,129201,1,0
288,256,129301,1,0
288,288,129401,1,0
320,288,129501,1,0
320,256,129601,6,0,B|320:160,1,75
320,160,130001,1,0
320,128,130201,1,0
320,96,130401,2,0,B|288:160|288:96|256:128,1,75
224,128,130801,1,0
192,160,131001,2,0,B|160:128|192:192|128:192,1,75
128,160,131401,2,0,B|192:160|160:96|192:128,1,75
192,96,131801,1,0
224,96,132001,2,0,B|224:192|288:96,1,75
288,128,132401,1,0
320,128,132601,1,0
352,128,132801,6,0,B|416:128|416:160,1,75
416,192,133201,1,0
416,224,133401,1,0
416,256,133601,2,0,B|416:288|320:288,1,75
320,288,134001,1,0
288,288,134201,1,0
256,288,134401,2,0,B|224:352|224:352|192:288|192:288|160:352|160:352|128:288|128:288|96:352|96:352|64:288|64:288|32:352|32:352|0:288,2,562.5
256,256,136001,6,0,B|224:192|96:224,1,150
64,192,136601,1,0
64,160,136801,2,0,B|64:64,1,75
96,64,137201,1,0
128,64,137401,2,0,B|128:128|192:96,1,75
192,128,137801,1,0
224,160,138001,2,0,B|288:160|256:224,1,75
288,224,138401,1,0
320,256,138601,2,0,B|288:288|224:256,1,75
224,256,139001,1,0
192,224,139201,6,0,B|192:192|128:192,2,75
160,224,139801,1,0
128,256,140001,2,0,B|64:256|64:288,2,75
128,288,140601,1,0
224,192,140801,2,0,B|288:192,15,37.5
320,256,142401,5,0
320,224,142601,1,0
320,160,143001,2,0,B|320:96|224:96|224:160,1,150
224,192,143801,2,0,B|224:256|128:256|128:192,1,150
128,160,144601,2,0,B|128:96|256:64,1,150
235,69,145201,1,0
320,192,145601,6,0,B|320:224|384:256,1,75
368,291,146201,2,0,B|288:256|274:178,1,150
256,160,147001,1,0
160,96,147201,2,0,B|160:128,1,18.75
160,96,147301,2,0,B|160:128,1,18.75
160,96,147401,2,0,B|160:128,1,18.75
160,96,147501,2,0,B|160:128,1,18.75
160,96,147601,2,0,B|160:128,1,18.75
160,96,147701,2,0,B|160:128,1,18.75
160,96,147801,2,0,B|160:128,1,18.75
160,96,147901,2,0,B|160:128,1,18.75
160,96,148001,2,0,B|160:128,1,18.75
160,96,148101,2,0,B|160:128,1,18.75
160,96,148201,2,0,B|160:128,1,18.75
160,96,148301,2,0,B|160:128,1,18.75
160,96,148401,2,0,B|160:128,1,18.75
160,96,148501,2,0,B|160:128,1,18.75
160,96,148601,2,0,B|160:128,1,18.75
256,128,148801,5,0
256,160,149001,2,0,B|320:192|224:224,1,75
224,224,149401,1,0
192,224,149601,2,0,B|128:224|192:288,1,75
192,288,150001,2,0,B|288:288,1,75
160,320,150601,2,0,B|256:320,1,75
256,320,151001,2,0,B|320:320|288:256,1,75
288,224,151401,1,0
256,192,151601,2,0,B|160:192,1,75
192,192,152201,2,0,B|96:224|256:256,1,150
288,256,152801,1,0
320,224,153001,2,0,B|352:192|192:160,1,150
96,160,153601,6,0,B|96:192,16,18.75
256,192,168001,5,0
320,192,168201,1,0
384,192,168401,1,0
384,128,168601,1,0
352,128,168701,1,0
288,128,168901,1,0
224,128,169101,1,0
192,128,169201,1,0
128,128,169401,1,0
96,128,169501,1,0
96,192,169601,1,0
96,256,169801,1,0
96,320,170001,1,0
160,320,170201,1,0
160,288,170301,1,0
160,224,170501,1,0
160,160,170701,1,0
160,128,170801,1,0
160,64,171001,1,0
160,32,171101,1,0
192,32,171201,1,0
224,64,171401,1,0
256,96,171601,1,0
288,128,171801,1,0
304,146,171901,1,0
337,176,172101,1,0
384,224,172301,1,0
403,239,172401,1,0
385,290,172601,1,0
370,307,172701,1,0
352,352,172801,1,0
320,288,173001,1,0
288,352,173201,1,0
256,288,173401,1,0
224,320,173501,1,0
160,288,173701,1,0
160,224,173901,1,0
160,192,174001,1,0
224,192,174201,1,0
256,192,174401,6,0,B|256:96,1,75
256,117,174801,2,0,B|192:64,1,75
198,69,175101,2,0,B|96:64,1,75
123,65,175501,1,0
128,96,175601,1,0
128,160,175801,1,0
128,192,175901,1,0
128,224,176001,2,0,B|96:256|160:288,1,75
148,282,176401,2,0,B|192:288|192:352,1,75
191,336,176701,2,0,B|224:384|256:320,1,75
248,333,177101,1,0
288,320,177201,1,0
288,256,177401,1,0
288,224,177501,1,0
288,192,177601,2,0,B|224:192|224:192|224:160,1,75
224,180,178001,2,0,B|224:128|224:128|256:128,1,75
246,128,178301,2,0,B|320:128|320:128|320:96,1,75
320,126,178701,1,0
352,128,178801,1,0
384,160,179001,1,0
384,192,179101,1,0
384,224,179201,2,0,B|448:256|352:288,1,75
384,274,179601,1,0
320,288,179801,1,0
288,288,179901,2,0,B|224:256|288:224,1,75
257,214,180201,1,0
256,192,180301,1,0
256,160,180401,1,0
256,128,180501,1,0
256,96,180601,1,0
256,64,180701,1,0
192,64,180801,5,0
320,64,181001,1,0
192,128,181201,1,0
320,128,181401,1,0
256,208,181601,12,0,181651
256,208,181701,12,0,181751
256,208,181801,12,0,181851
256,208,181901,12,0,181951
256,208,182001,12,0,182051
256,208,182101,12,0,182151
256,208,182201,12,0,182251
256,208,182301,12,0,182351
256,208,182401,12,0,182451
