osu file format v5

[General]
AudioFilename: Elec Bossa.mp3
AudioLeadIn: 0
PreviewTime: 131556
Countdown: 0
SampleSet: Soft

[Metadata]
Title:Elec Bossa
Artist:Audition
Creator:Ash
Version:Sharp

[Difficulty]
HPDrainRate:7
CircleSize:4
OverallDifficulty:7
SliderMultiplier:1.5
SliderTickRate:2

[Events]
//Background and Video events
0,0,"paradisex.jpg"
//Break Periods
//Storyboard Layer 0 (Background)
//Storyboard Layer 1 (Failing)
//Storyboard Layer 2 (Passing)
//Storyboard Layer 3 (Foreground)
//Storyboard Sound Samples
//Background Colour Transformations
3,100,161,160,252

[TimingPoints]
805,487.812102466556,4,2,0,100

[Colours]
Combo1 : 0,0,0
Combo2 : 128,0,0
Combo3 : 0,0,70
Combo4 : 0,81,119
Combo5 : 64,0,64

[HitObjects]
0,192,4707,1,2
256,192,8609,1,2
512,192,12512,1,2
296,160,16414,6,0,B|408:32,1,150
336,16,17390,6,0,B|238:129,1,150
128,128,18365,1,0
128,128,18609,1,0
0,192,19585,1,0
3,192,19829,2,2,L|79:193|104:192,1,75
128,192,20561,6,0,L|304:192,1,150
352,192,21536,2,0,L|102:192,1,225
256,192,23488,1,2
256,192,23732,1,2
256,192,23976,1,2
216,192,24951,6,0,L|304:192,2,75
256,64,25926,1,0
256,128,26414,1,0
256,192,26902,1,0
256,256,27390,1,0
208,320,27878,1,0
256,376,28366,5,0
304,320,28853,5,0
32,192,30317,6,0,B|152:88|240:317|461:187,1,450
448,192,32268,5,0
384,192,32512,1,0
320,192,32756,1,0
192,192,33244,1,0
128,192,33488,1,0
64,192,33731,1,0
64,128,34219,5,0
128,128,34463,1,0
192,128,34707,1,0
256,192,35195,1,0
216,320,36171,6,0,L|291:320,4,75
64,320,37634,5,2
64,192,38122,1,2
64,64,38610,1,2
192,64,39097,1,2
256,152,39341,5,2
256,256,40561,5,0
304,256,40805,1,0
352,256,41049,1,0
448,256,41536,1,0
448,160,42024,1,0
448,64,42512,1,0
448,64,42756,2,0,B|408:136|480:136|432:208,2,150
256,192,44219,12,0,45683
512,0,47634,5,4
416,0,48000,1,0
312,56,48366,1,2
256,56,48610,1,0
160,56,48976,1,0
96,144,49341,1,2
96,192,49585,1,0
96,280,49951,1,0
168,360,50317,1,2
216,360,50561,1,0
312,360,50927,1,0
392,288,51293,1,2
392,240,51537,1,4
328,192,51902,1,2
256,192,52268,1,4
128,192,53732,5,2
0,320,54220,5,2
0,192,54707,5,2
0,64,55195,5,6
128,64,55683,6,0,L|128:200,1,112.5
128,320,56415,2,2,L|216:320,3,75
448,320,57634,5,0
320,192,58000,1,0
192,64,58366,1,0
192,192,58732,1,0
192,320,59098,1,0
128,320,59342,1,0
64,320,59586,5,2
64,224,59951,1,2
64,128,60317,1,2
160,128,60561,2,0,B|176:216|264:152|256:256,1,150
312,272,61293,2,0,B|368:312,1,37.5
376,320,61659,1,0
480,320,62025,5,2
480,256,62268,1,2
480,192,62512,1,2
480,128,62756,1,2
480,64,63000,1,6
344,64,63488,6,0,L|200:64,1,112.5
228,64,64220,2,0,L|32:192,1,225
40,216,65439,2,0,L|144:288,1,112.5
200,312,66171,2,0,L|344:312,1,112.5
368,256,66903,1,2
368,256,67025,1,2
368,192,67391,5,0
368,128,67634,1,0
368,64,67878,1,0
304,96,68122,1,0
304,160,68366,1,0
240,128,68610,1,2
176,128,68854,1,2
112,128,69098,1,2
56,88,70317,5,6
8,88,70561,5,6
32,128,70805,5,6
64,256,71781,5,0
128,256,72025,1,0
192,256,72269,1,0
256,352,72756,1,0
256,256,73244,1,0
256,160,73732,1,0
224,64,74220,1,0
296,64,74708,2,0,L|192:64,1,75
256,192,76171,12,0,78122
256,0,78854,5,6
256,192,79586,1,6
256,384,80318,1,6
512,192,82757,5,6
256,192,83488,1,6
0,192,84220,1,6
0,0,86659,5,6
256,192,87391,1,6
512,384,88123,1,6
352,96,89586,5,2
160,96,90074,1,2
256,192,90562,1,6
256,192,92513,5,2
160,288,93001,1,2
352,288,93488,1,6
448,224,94464,6,0,B|448:160,3,37.5
448,161,95074,1,0
384,160,95440,2,2,B|311:127|224:88,1,150
32,224,96415,6,0,B|96:288,3,75
160,288,97391,1,2
224,224,97635,1,2
288,288,97879,1,2
352,224,98123,1,2
408,296,98367,6,0,B|448:248,3,37.5
432,267,98977,1,0
456,240,99342,2,2,B|340:248|336:168,1,150
136,80,100318,6,0,B|136:160,3,75
136,208,101293,1,2
104,264,101537,1,2
168,264,101781,1,2
136,312,102025,1,2
184,312,102269,6,0,B|256:312,3,37.5
296,295,102879,1,0
351,244,103245,2,2,B|258:196|248:96,1,150
61,34,104220,6,0,B|64:104|56:104,3,37.5
60,96,104830,1,0
60,131,105074,1,0
60,131,105196,2,2,B|107:208|208:208,1,150
368,296,106172,6,0,B|282:296,3,75
216,296,107147,1,2
160,240,107391,1,2
160,352,107635,1,2
104,296,107879,1,2
104,296,108123,6,0,B|56:248,3,37.5
48,232,108733,1,0
59,188,108977,1,0
59,188,109098,2,4,B|128:64|256:32|376:64|288:72,1,300
256,320,112025,5,4
256,192,113977,5,4
256,64,115928,5,4
328,0,117879,5,2
256,0,118367,1,2
184,0,118855,2,2,B|72:0,1,75
40,40,119343,2,2,B|112:120,1,75
136,144,119830,5,4
192,200,120318,1,2
136,256,120806,2,2,B|64:328,1,75
48,376,121294,2,2,B|160:376,1,75
208,376,121782,5,4
290,375,122269,1,2
376,376,122757,2,2,B|464:376,1,75
432,304,123245,2,2,B|368:240,1,75
320,200,123733,5,4
368,144,124221,1,2
416,88,124708,2,2,B|488:16,1,75
403,0,125196,2,2,B|315:0,1,75
256,0,125684,1,4
256,192,125928,12,0,130563
320,192,131538,5,6
192,192,132026,5,6
320,192,132514,5,6
192,192,133002,5,6
