osu file format v5

[General]
AudioFilename: Catch.mp3
AudioLeadIn: 0
PreviewTime: -1
Countdown: 0
SampleSet: Soft
StackLeniency: 0.7
Mode: 0
EditorBookmarks: 9166,16750,17250,18000,18250,18500,19000,21250,22250,22500,23000,25250,26250,26500,27000,29250,30250,30500,31000,33250,33875,34250,34750,35500,36000,36625,37750,38250,38500,38875,39500,41000,41375,42750,43500,44875,46250,46625,47500,49000,49750,50250,51250,51750,53000,57750,58500,59000,59500,60000,65000,65375,65750,66000,67750,68250,69500,70750,73500,74250,75500,76250,77500,78750,79250,89125,90500,90625,92500,92625,93500,94250,94500,95250,95500,96250,96500,96750,98250,98625,100250,100750,101250,101750,102250,103000,103500,104000,104250,104750,106250,106750,107500,107750,108250,108750,109250,109750,110250,111000,111500,112000,112500,113000,113750,114250,115000,115750,116250,116500,117000,121750,122500,124000,129000,129500,131000,131375,132250,133500,135000,137000,137500,139000,139500,142250,142750,145250,161000,161375,163000,163500,165500,166000,166500,167000,169500,170250,171375,172125,173500,174000,174250,174750,177000,181500,182000,182250,182750,185500,186250,187375,188125,189500,190000,190500,191000

[Metadata]
Title:Catch
Artist:Audition
Creator:LKT
Version:Normal

[Difficulty]
HPDrainRate:4
CircleSize:5
OverallDifficulty:4
SliderMultiplier:1.4
SliderTickRate:2

[Events]
//Background and Video events
0,0,"Catch-BG.jpg"
//Break Periods
2,79200,87940
2,143200,159440
//Storyboard Layer 0 (Background)
//Storyboard Layer 1 (Failing)
//Storyboard Layer 2 (Passing)
//Storyboard Layer 3 (Foreground)
//Storyboard Sound Samples
//Background Colour Transformations
3,100,163,162,255

[TimingPoints]
0,500,4,1,1,50
14870,500,4,2,1,50
89120,500,4,1,1,50
97250,500,4,2,1,50

[Colours]
Combo1 : 176,34,141
Combo2 : 95,18,92
Combo3 : 166,83,172

[HitObjects]
256,160,9500,1,0
96,64,11500,1,0
192,64,12000,1,0
288,64,12500,1,0
384,160,13500,5,0
288,160,14000,1,0
192,160,14500,1,0
160,64,15250,5,0
288,32,16000,1,0
384,96,16750,2,0,C|448:256,1,140
416,288,17500,5,0
320,288,18000,2,0,C|224:288,1,70
192,288,18500,2,0,C|123:288|64:224,1,140
73,177,19250,1,0
75,63,20000,1,0
192,64,20750,1,0
288,64,21250,6,0,C|321:140|412:194|448:288,1,280
416,320,22500,2,0,C|256:320,1,140
224,320,23250,1,0
96,192,24000,1,0
96,96,24500,1,0
288,32,25250,6,0,C|233:108|240:196|192:288,1,280
224,320,26500,2,0,C|384:320,1,140
384,288,27250,1,0
384,160,28000,1,0
256,160,28750,1,0
128,160,29250,6,0,C|126:256|183:316|288:320,1,280
288,256,30500,2,0,C|288:96,1,140
288,64,31250,1,0
384,128,32000,1,0
384,224,32500,1,0
288,96,33250,6,0,C|248:159|251:200|224:256,1,175
128,256,34250,1,0
64,256,34500,1,0
224,320,35500,6,0,C|330:283|384:208|384:96,1,315
256,96,37250,5,0
160,160,37750,2,0,C|256:288,1,140
288,224,38500,2,0,C|352:128,1,105
230,192,39500,6,0,C|128:192,2,70
280,193,40250,2,0,C|352:193,2,70
255,241,41000,1,4
384,256,41375,6,0,C|384:160,1,70
384,128,41875,1,0
320,128,42125,2,0,C|128:128,1,175
160,256,43500,6,0,C|320:256,1,140
352,256,44250,2,0,C|352:64,1,175
288,96,45250,5,0
192,96,45750,1,0
128,96,46000,1,0
128,160,46250,2,0,C|128:288,1,105
128,320,46875,1,0
230,192,47500,6,0,C|128:192,2,70
280,193,48250,2,0,C|352:193,2,70
255,241,49000,1,4
224,352,49750,6,0,C|64:288,1,140
128,256,50500,2,0,C|167:160|256:64,1,210
320,128,51750,2,0,C|416:128,2,70
320,192,52500,2,0,C|416:192,2,70
320,256,53250,1,0
256,256,53625,1,0
192,256,54000,1,2
256,96,55250,5,2
192,96,55625,1,2
128,96,56000,1,2
428,76,57750,6,0,C|452:133|443:203|379:263,1,210
320,256,58750,1,2
255,256,59000,2,0,C|112:255,2,140
160,192,60500,1,0
160,128,60750,1,0
160,64,61000,1,0
224,64,61250,1,2
352,64,62000,1,2
352,128,62250,1,2
224,128,63000,1,2
160,128,63250,1,2
96,288,65000,6,0,C|226:288,1,105
256,320,65750,1,0
320,320,66000,1,0
384,320,66250,1,0
352,192,67000,5,0
272,145,67375,1,0
192,192,67750,1,0
128,192,68000,1,0
128,128,68250,1,0
128,288,69000,5,0
224,288,69500,2,0,C|292:296|352:256,1,140
352,192,70250,2,0,C|428:190|480:128,1,140
416,128,71000,1,0
320,128,71500,1,0
320,192,71750,1,0
352,288,72750,5,0
288,288,73000,1,0
192,288,73500,2,0,C|124:300|64:256,1,140
64,192,74250,1,0
128,96,74750,5,0
192,96,75000,1,0
224,192,75500,2,0,C|287:220|352:192,1,140
352,128,76250,1,0
256,96,77000,5,0
192,160,77500,2,0,C|223:226|320:224,1,140
352,224,78250,2,0,C|395:233|417:264|412:302|384:320,1,140
352,352,79000,1,4
352,32,89500,5,0
352,96,89750,1,0
352,160,90000,1,0
352,224,90250,1,0
352,288,90500,2,0,C|320:320,1,35
160,320,91500,5,0
160,256,91750,1,0
160,192,92000,1,0
160,128,92250,1,0
160,64,92500,2,0,C|192:32,1,35
320,64,93500,5,0
320,128,93750,1,0
320,192,94000,2,0,C|416:192,2,70
320,256,94750,1,0
256,256,95000,1,0
192,256,95250,1,0
192,192,95500,2,0,C|288:192,3,70
256,128,96500,1,0
256,64,96750,1,0
192,64,97000,1,4
128,128,97500,5,0
128,192,97750,1,0
192,192,98000,1,0
256,192,98250,2,0,C|320:183|384:224,1,140
416,192,99500,5,0
416,128,99750,1,0
352,128,100000,1,0
288,128,100250,2,0,C|128:128,1,140
270,320,101250,6,0,C|110:320,1,140
128,256,102000,1,0
128,192,102250,2,2,C|128:64,2,105
224,96,103500,6,0,C|224:0,2,70
224,160,104250,2,0,C|224:256,2,70
256,128,105000,1,4
256,352,105500,5,0
288,320,105750,1,0
320,288,106000,1,0
352,256,106250,2,0,C|402:208|416:128,1,140
352,64,107500,6,0,C|288:128,1,70
256,128,108000,1,0
204,112,108250,2,0,C|148:73|84:120,1,140
160,145,109250,6,0,C|160:305,1,140
224,288,110000,1,0
288,288,110250,2,2,C|288:160,2,105
384,288,111500,6,0,C|384:128,1,140
384,89,112250,1,0
314,89,112500,2,0,C|168:89,1,140
160,128,113750,6,0,C|256:256,1,140
256,288,114500,1,0
320,288,114750,1,0
384,288,115000,1,0
320,192,115750,6,0,C|160:192,1,140
128,192,116500,2,0,C|32:64,1,140
96,64,117250,1,0
160,64,117625,1,0
224,64,118000,1,2
352,256,119250,5,2
288,256,119625,1,2
224,256,120000,1,2
160,64,121750,6,0,C|207:112|224:179|288:224,1,210
352,224,122750,1,0
352,160,123000,1,0
256,160,123500,1,0
160,160,124000,1,0
160,64,124500,1,0
224,64,124750,1,0
288,64,125000,1,0
352,64,125250,1,2
352,192,126000,1,2
352,256,126250,1,2
224,256,127000,1,2
160,256,127250,1,2
192,64,129000,6,0,C|192:224,1,140
192,256,129750,1,0
256,256,130000,1,0
320,256,130250,1,0
384,96,131000,6,0,C|384:224,1,105
320,224,131750,1,0
256,224,132000,1,0
192,224,132250,1,0
192,32,133000,5,0
128,81,133500,2,0,C|128:241,1,140
192,224,134250,2,0,C|265:219|316:177|384:160,1,210
320,96,135500,1,0
256,96,135750,1,0
384,192,136625,5,0
288,192,137000,2,0,C|160:288,1,140
128,256,137750,1,0
128,192,138000,1,0
128,128,138250,1,0
224,128,138750,5,0
288,128,139000,2,0,C|324:180|320:256,1,140
256,256,139750,1,0
192,256,140000,1,0
192,192,140250,1,0
128,64,141000,5,0
224,64,141500,2,0,C|384:64,1,140
352,128,142250,2,0,C|288:256,1,140
352,256,143000,1,4
128,64,161000,6,0,C|256:64,1,105
288,64,161625,1,0
352,64,161875,1,0
416,64,162125,1,0
416,192,163000,6,0,C|256:192,1,140
224,192,163750,1,0
160,192,164000,1,0
96,192,164250,1,0
96,320,165000,5,0
224,320,165500,2,0,C|320:192,1,140
320,160,166250,1,0
308,110,166500,2,0,C|168:33,1,140
128,96,167500,1,0
128,160,167750,1,0
352,192,168750,5,0
288,192,169000,1,0
288,96,169500,2,0,C|185:72|96:128,1,210
96,224,170750,5,0
96,288,171000,1,0
192,288,171375,2,0,C|300:256|352:160,1,210
160,96,173000,5,0
160,224,173500,2,0,C|320:224,1,140
302,289,174250,2,0,C|142:289,1,140
96,288,175000,1,4
160,128,175625,5,2
256,128,176125,5,2
352,128,176625,5,2
352,224,177000,6,0,C|224:224,1,105
192,224,177625,1,0
192,288,177875,1,0
256,288,178125,1,0
448,288,179000,6,0,C|448:128,1,140
448,96,179750,1,0
384,96,180000,1,0
320,96,180250,1,0
320,224,181000,5,0
224,224,181500,2,0,C|224:64,1,140
160,85,182250,2,0,C|160:245,1,140
160,288,183000,1,0
256,288,183500,1,0
320,288,183750,1,0
96,160,184750,5,0
160,160,185000,1,0
256,160,185500,2,0,C|364:189|416:288,1,210
320,288,186750,5,0
256,288,187000,1,0
160,288,187500,2,0,C|83:216|96:96,1,210
192,96,189000,5,0
288,128,189500,2,0,C|288:288,1,140
288,320,190250,1,0
352,320,190500,2,4,C|352:160,1,140
