osu file format v5

[General]
AudioFilename: Audition - Canon Groove.mp3
AudioLeadIn: 0
PreviewTime: -1
Countdown: 1
SampleSet: Normal
StackLeniency: 0.7
Mode: 0
LetterboxInBreaks: 1

[Metadata]
Title:Canon Groove
Artist:Audition
Creator:DessaChan
Version:Normalicious
Source:Audition
Tags:Canon Groove Audition

[Difficulty]
HPDrainRate:5
CircleSize:5
OverallDifficulty:3
SliderMultiplier:1.4
SliderTickRate:1

[Events]
//Background and Video events
0,0,"jesusomega.jpg"
//Break Periods
2,41885,58937
//Storyboard Layer 0 (Background)
//Storyboard Layer 1 (Failing)
//Storyboard Layer 2 (Passing)
//Storyboard Layer 3 (Foreground)
//Storyboard Sound Samples
//Background Colour Transformations
3,100,163,162,255

[TimingPoints]
5400,571.428571428571,4,1,1,100,1

[Colours]
Combo1 : 255,255,255
Combo2 : 0,0,0
Combo3 : 255,128,0
Combo4 : 255,0,0

[HitObjects]
352,264,21399,2,0,B|245:202|297:311|214:334|132:240|96:320,1,280
40,32,23685,5,0
176,128,24256,1,0
440,336,25971,1,0
312,240,26542,1,0
64,328,28256,5,0
144,264,28828,1,0
440,312,30542,1,0
440,312,30828,1,0
440,312,31257,1,0
160,280,32828,5,0
160,176,33399,1,0
448,72,35114,1,0
344,72,35685,1,0
80,224,37399,5,0
80,120,37971,1,0
264,352,39685,5,0
344,336,39971,1,0
424,304,40257,1,0
424,304,40399,1,0
464,232,40685,1,0
448,128,41042,1,0
360,64,41399,1,0
272,56,41685,1,0
64,48,60257,5,0
160,72,60828,1,0
256,112,61400,1,0
304,200,61971,1,0
272,240,62257,1,0
232,264,62542,1,0
48,96,63971,5,0
96,88,64257,1,0
144,104,64542,1,0
192,120,64828,1,0
392,272,66257,5,0
392,272,66542,1,0
392,272,66828,1,0
392,272,67114,1,0
192,264,68257,5,0
144,248,68542,1,0
144,248,68828,1,0
96,224,69114,1,0
64,184,69400,5,0
304,96,70828,1,0
336,136,71113,1,0
296,168,71399,1,0
272,208,71685,1,0
48,80,73114,5,0
96,80,73399,1,0
120,120,73685,1,0
72,128,73971,1,0
272,272,75399,5,0
272,272,75685,1,0
320,248,75971,1,0
352,208,76257,1,0
168,112,77399,5,0
120,136,77685,1,0
104,184,77971,1,0
120,232,78257,1,0
160,264,78542,1,4
256,192,80614,12,0,81899
248,88,82257,1,0
200,104,82542,1,0
152,104,82828,1,0
168,152,83114,1,0
408,72,84542,5,0
360,80,84828,1,0
312,88,85114,1,0
264,96,85399,6,0,L|182:143|232:328,2,280,0|0|0
368,264,89971,6,0,L|368:344,1,70,0|0
320,312,90542,2,0,L|320:232,1,70
272,224,91114,2,0,L|272:304,1,70
8,16,93685,5,0
72,72,93971,1,0
136,120,94256,1,0
208,160,94543,1,0
432,232,95686,2,0,B|472:248|470:254|421:263|421:263|428:277|453:278|477:286|477:299|464:309|443:298|416:291|390:298|393:305|395:307|399:310|401:312|400:312|424:312,1,210,0|0
336,280,96828,5,0
216,160,97399,1,0
16,16,99114,1,0
152,112,99685,1,0
480,336,101399,5,0
344,232,101971,1,0
40,48,103685,1,8
40,48,103971,1,8
40,176,104400,1,8
480,320,105971,5,0
312,312,106542,1,0
480,48,108257,1,0
344,144,108828,1,0
48,336,110542,5,0
184,232,111114,1,0
24,40,112828,1,8
72,104,113114,1,8
56,184,113399,1,8
56,184,113542,1,8
104,256,113828,1,8
184,184,114185,1,8
288,168,114542,1,8
280,248,114828,1,12
