osu file format v5

[General]
AudioFilename: AuditionCanCan.mp3
AudioLeadIn: 1000
PreviewTime: -1
Countdown: 1
SampleSet: Soft
StackLeniency: 0.4
Mode: 0
LetterboxInBreaks: 1
EditorBookmarks: 17406,41206,134006,159206,203706

[Metadata]
Title:Can Can
Artist:Audition
Creator:osu_CN_yaya
Version:Come on You CAN
Source:
Tags:

[Difficulty]
HPDrainRate:5
CircleSize:5
OverallDifficulty:7
SliderMultiplier:1.6
SliderTickRate:2

[Events]
//Background and Video events
0,0,"Abstract_by_Tahayari.jpg"
//Break Periods
2,101806,113906
//Storyboard Layer 0 (Background)
//Storyboard Layer 1 (Failing)
//Storyboard Layer 2 (Passing)
//Storyboard Layer 3 (Foreground)
//Storyboard Sound Samples
//Background Colour Transformations
3,100,163,162,255

[TimingPoints]
3,400,4,2,1,70,1
15606,-100,4,1,0,70,0
227506,-100,4,2,1,0,0

[Colours]
Combo1 : 0,255,255
Combo2 : 46,201,46
Combo3 : 128,128,192
Combo4 : 255,165,74

[HitObjects]
40,96,2803,2,0,B|96:16,1,80
128,96,3203,2,0,B|184:176,1,80,2|0
216,96,3603,2,0,B|256:24,1,80
296,96,4003,2,0,B|352:184,1,80,2|0
376,96,4403,2,0,B|464:96,1,80
456,176,4803,2,8,B|288:176,2,160
424,248,5803,1,0
384,248,5903,1,0
344,248,6003,6,0,B|288:168,1,80
256,248,6403,2,0,B|200:328,1,80,2|0
168,248,6803,2,0,B|128:176,1,80
88,248,7203,2,0,B|32:336,1,80,2|0
88,248,7603,2,0,B|176:248,1,80
168,248,8003,2,8,B|200:160|144:80,2,160
248,248,9003,1,0
288,248,9103,1,0
328,248,9203,6,0,B|376:248,2,40
408,248,9603,2,0,B|456:248,2,40,2|0|2
408,168,10003,2,0,B|456:168,2,40
328,168,10403,2,0,B|376:168,2,40,2|0|0
248,168,10803,1,0
208,168,10903,1,0
168,168,11003,1,0
128,168,11103,1,0
88,168,11203,2,8,B|136:88|224:80,2,160
88,248,12203,1,0
128,248,12303,1,0
168,248,12403,6,2,B|352:248,1,160
392,200,13003,1,0
328,152,13203,2,2,B|160:152,1,160
112,96,13803,1,0
168,40,14003,2,4,B|336:40,3,160
384,96,15403,1,0
440,152,15603,5,2
384,208,15803,1,0
352,232,15903,1,0
320,208,16003,1,8
240,208,16203,1,0
208,184,16303,1,0
176,208,16403,1,0
96,208,16603,1,0
64,184,16703,1,0
96,160,16803,1,8
96,80,17003,1,0
176,80,17203,1,2
256,80,17403,5,0
288,56,17503,1,0
320,80,17603,1,8
400,80,17803,1,0
400,80,17903,1,0
400,80,18003,1,0
400,160,18203,1,0
368,184,18303,1,0
336,160,18403,1,8
256,160,18603,1,0
176,160,18803,1,2
96,160,19003,6,0,B|56:128,2,40,0|0|8
96,240,19403,2,0,B|48:288,2,40
176,240,19803,1,0
216,240,19903,1,0
256,240,20003,1,8
336,240,20203,1,0
416,240,20403,1,0
416,160,20603,1,0
448,136,20703,1,0
416,112,20803,1,8
344,72,21003,1,0
312,48,21103,1,0
272,40,21203,2,0,B|192:16|112:56,2,160,0|8|0
272,128,22203,5,0
312,128,22303,2,0,B|368:128,1,40,0|8
352,208,22603,1,0
312,208,22703,2,0,B|248:208,1,40
192,208,23003,1,0
152,208,23103,1,0
111,208,23203,1,8
112,128,23403,1,0
152,128,23503,1,0
192,128,23603,1,0
248,72,23803,6,0,B|280:40,2,40,0|0|8
328,72,24203,2,0,B|360:40,2,40
408,72,24603,2,0,B|440:40,2,40,0|0|8
488,72,25003,2,0,B|456:104,2,40
488,152,25403,5,0
448,152,25503,1,0
408,152,25603,2,0,B|312:152,1,80,8|0
288,152,25903,1,0
248,152,26003,2,0,B|136:152,1,80,0|0
128,152,26303,1,0
88,152,26403,2,0,B|0:152,1,80,8|0
32,120,26703,2,0,B|64:80,4,40
56,88,27203,2,0,B|224:88,3,160,12|8|8|8
256,192,28503,12,4,29803
256,192,30003,5,6
256,192,30103,12,4,31403
256,192,31603,5,6
256,192,31703,12,4,33003
152,128,33203,6,6,B|224:80|312:112,3,160
368,160,34603,1,0
416,224,34803,6,0,B|248:224,3,160
256,144,36203,5,0
280,112,36303,1,0
304,80,36403,2,0,B|472:80,3,160
424,152,37803,1,0
384,224,38003,2,0,B|272:224,1,80
248,160,38403,2,0,B|184:104,1,80
136,168,38803,2,0,B|64:248,1,80
152,264,39203,2,0,B|224:320,1,80
296,312,39603,2,0,B|384:312,3,80
424,248,40403,2,0,B|472:248,8,40
256,192,41303,12,6,43603
80,104,44203,5,0
120,104,44303,1,0
160,104,44403,2,0,B|264:104,1,80
320,104,44803,1,0
400,104,45003,1,0
400,144,45103,1,0
400,184,45203,2,0,B|400:232|336:232,3,80
264,232,46003,2,0,B|176:232,3,80
264,232,46803,1,0
264,232,46903,1,0
264,232,47003,1,0
264,232,47103,1,0
264,232,47203,1,0
344,232,47403,1,0
424,232,47603,6,0,B|360:168,1,80
312,120,48003,2,0,B|376:56,1,80
432,16,48403,2,0,B|496:80,1,80
424,120,48803,2,0,B|360:184,1,80
288,184,49203,2,0,B|248:200|208:184,3,80
248,112,50003,2,4,B|248:64,4,40
248,192,50603,1,0
208,264,50803,6,0,B|248:288|304:280,1,80
360,264,51203,2,0,B|408:232|408:200,1,80
416,120,51603,2,0,B|368:96|328:104,1,80
264,120,52003,2,0,B|216:144|208:184,1,80
136,208,52403,1,0
208,232,52603,1,0
280,200,52803,1,0
352,240,53003,1,0
424,200,53203,1,0
448,168,53303,1,0
440,128,53403,1,0
408,96,53503,1,0
368,96,53603,1,0
288,96,53803,1,0
208,96,54003,6,0,B|120:96,3,80
128,176,54803,2,0,B|232:176,3,80
256,112,55603,1,0
256,192,55803,1,0
256,272,56003,1,0
256,352,56203,1,0
176,328,56403,2,6,B|352:328,1,160
479,326,57203,5,0
480,56,57603,1,0
200,56,58003,1,0
200,328,58403,1,0
256,192,58803,5,0
272,160,58903,1,0
288,120,59003,1,0
304,80,59103,1,0
328,48,59203,2,0,B|376:40|416:72,1,80
472,104,59603,1,0
472,104,59803,1,0
472,104,60003,1,0
256,360,60403,5,0
56,192,60803,1,0
256,32,61203,1,0
456,192,61603,1,0
328,48,62003,5,0
288,48,62103,1,0
264,80,62203,1,0
256,120,62303,1,0
256,152,62403,2,0,B|352:152,1,80
336,72,62803,1,0
336,152,63003,1,0
336,232,63203,1,0
400,88,63603,6,0,B|464:168|392:264,1,160
112,296,64403,2,0,B|48:216|120:120,1,160
256,192,65203,2,0,B|256:96,1,80
336,112,65603,2,0,B|232:112,1,80
196,59,66003,2,0,B|268:123,1,80
256,112,66403,1,0
256,344,66803,6,0,B|424:344,1,160
256,40,67603,2,0,B|88:40,1,160
256,192,68403,1,0
256,192,68503,1,0
256,192,68603,1,0
256,192,68703,1,0
256,192,68803,1,0
336,192,69003,1,0
416,192,69203,2,0,B|408:144|352:120,3,80
416,192,70003,2,0,B|408:240|352:264,3,80
416,192,70803,1,0
336,192,71003,1,0
256,192,71203,1,0
176,192,71403,1,0
176,112,71603,2,0,B|264:112,1,80
336,112,72003,2,0,B|424:112,1,80
416,32,72403,5,0
424,72,72503,1,0
432,112,72603,1,2
432,192,72803,1,0
416,224,72903,1,0
400,256,73003,1,2
320,256,73203,1,0
304,216,73303,1,0
288,176,73403,1,2
312,96,73603,1,0
272,112,73703,1,0
232,128,73803,1,2
152,128,74003,2,4,B|104:128,6,40
152,208,74803,2,4,B|120:208,28,20
232,208,76403,6,0,B|408:208,1,160,0|8
392,128,77003,1,0
312,128,77203,2,0,B|224:128,1,80
232,48,77603,2,0,B|328:48,1,80,8|0
392,48,78003,2,0,B|480:48|480:160,2,160,0|8|0
320,88,79003,1,0
392,128,79203,1,8
320,168,79403,1,0
320,248,79603,6,0,B|488:248,2,160,0|8|0
248,216,80603,1,0
176,248,80803,1,8
104,216,81003,1,0
104,136,81203,6,0,B|192:136,1,80
264,136,81603,2,0,B|352:136,1,80,8|0
392,72,82003,1,0
456,120,82203,1,0
392,168,82403,1,8
456,208,82603,1,0
392,256,82803,6,0,B|224:256,1,160,0|8
168,200,83403,1,0
224,144,83603,2,0,B|320:144,3,80,0|0|8|0
384,144,84403,2,0,B|432:216|392:312,1,160,0|8
320,296,85003,1,0
240,296,85203,2,0,B|240:200,1,80
160,216,85603,2,0,B|160:312,1,80,8|0
240,296,86003,2,0,B|336:152,1,160,0|8
376,96,86603,1,0
296,96,86803,2,0,B|200:96,1,80
216,176,87203,2,0,B|312:176,1,80,8|0
296,96,87603,5,0
368,136,87803,1,0
296,176,88003,1,8
368,216,88203,1,0
296,256,88403,2,4,B|360:304|456:272,2,160,4|12|4
216,248,89403,5,0
144,216,89603,2,0,B|64:160,1,80,8|0
120,104,90003,2,0,B|208:104,3,80,0|0|8|0
280,104,90803,1,0
440,104,91203,1,8
368,248,91603,1,0
368,328,91803,1,0
368,248,92003,1,8
368,328,92203,1,0
296,288,92403,6,0,B|464:288,2,160,0|8|0
216,288,93403,1,0
256,216,93603,1,8
336,216,93803,1,0
416,216,94003,1,0
456,144,94203,2,0,B|368:144,1,80,0|8
296,144,94603,2,0,B|200:144,1,80
136,144,95003,2,0,B|224:144,1,80,0|8
296,144,95403,2,0,B|384:144,4,80,0|0|0|8|0
296,64,96403,5,0
376,64,96603,1,0
456,64,96803,2,0,B|456:152,1,80,8|0
376,144,97203,2,0,B|208:144,1,160,0|8
136,144,97803,1,0
136,224,98003,1,0
136,224,98103,1,0
216,224,98303,1,0
216,224,98403,1,8
296,224,98603,1,0
296,144,98803,6,0,B|352:208|312:312,1,160,0|8
240,296,99403,1,0
160,296,99603,1,0
120,296,99703,1,0
80,296,99803,1,0
80,216,100003,1,8
120,216,100103,1,0
160,216,100203,1,0
160,136,100403,5,0
200,120,100503,1,0
240,104,100603,1,0
280,96,100703,1,0
312,112,100803,1,8
344,136,100903,1,0
376,160,101003,1,0
408,184,101103,1,0
432,216,101203,2,0,B|432:304,2,80,0|0|14
256,48,114803,5,0
80,192,115203,1,0
256,328,115603,1,0
416,192,116003,1,0
272,192,116403,1,0
233,181,116503,1,0
198,159,116603,1,0
167,132,116703,1,0
157,98,116803,1,0
234,78,117003,1,0
313,78,117203,2,2,B|401:78,2,80
112,72,118003,5,0
216,304,118403,1,0
344,72,118803,1,0
440,296,119203,1,0
104,192,119603,1,0
192,88,119803,1,0
320,88,120003,1,0
408,192,120203,1,0
296,192,120403,2,2,B|208:192,2,80
256,56,121203,5,0
256,320,121603,1,0
424,128,122003,1,0
256,320,122403,1,0
384,88,122803,1,0
384,240,123003,1,0
280,160,123203,1,0
280,288,123403,1,0
144,200,123603,2,2,B|144:304,2,80
424,40,124403,6,0,B|480:200,1,160
328,256,125003,1,0
184,320,125203,2,0,B|120:160,1,160
179,113,125803,1,0
258,113,126003,1,0
337,115,126203,1,0
417,115,126403,1,0
496,115,126603,1,0
472,176,126803,6,0,B|376:176,1,80
328,192,127203,2,0,B|416:192,1,80
472,216,127603,2,0,B|384:216,1,80
328,240,128003,2,0,B|424:240,1,80
472,256,128403,2,0,B|384:256,1,80
328,280,128803,2,0,B|416:280,1,80
472,296,129203,2,0,B|384:296,1,80
328,320,129603,2,0,B|416:320,1,80
392,256,130003,5,0
312,256,130203,1,0
272,256,130303,1,0
232,256,130403,1,2
152,256,130603,1,0
72,256,130803,1,0
72,176,131003,1,0
112,176,131103,1,0
152,176,131203,1,2
232,176,131403,1,0
312,176,131603,5,0
312,176,131703,1,0
312,176,131803,1,0
312,176,131903,1,0
312,176,132003,1,0
312,176,132103,1,0
312,176,132203,1,0
312,176,132303,1,0
312,176,132403,2,0,B|344:176,28,20
392,176,134003,6,0,B|336:112,1,80
400,64,134403,2,0,B|464:136,1,80,8|0
464,200,134803,1,0
464,240,134903,1,0
424,304,135103,1,0
384,304,135203,1,8
304,304,135403,1,0
224,304,135603,6,0,B|136:304,1,80
64,304,136003,2,0,B|152:304,1,80,8|0
176,232,136403,1,0
216,232,136503,1,0
296,232,136703,1,0
296,192,136803,1,8
360,232,137003,1,0
440,232,137203,6,0,B|440:64,1,160,0|8
360,72,137803,1,0
280,72,138003,2,0,B|192:128,1,80
280,160,138403,2,0,B|368:192,1,80,8|0
400,256,138803,5,0
376,288,138903,1,0
344,304,139003,1,0
304,320,139103,1,0
264,328,139203,5,8
224,328,139303,1,0
192,304,139403,1,0
160,272,139503,1,0
136,240,139603,5,0
120,200,139703,1,0
120,160,139803,1,0
128,120,139903,1,0
144,88,140003,5,8
176,72,140103,1,0
216,72,140203,1,0
256,80,140303,1,0
296,88,140403,6,0,B|384:88,1,80
456,88,140803,2,0,B|384:160,1,80,8|0
336,192,141203,1,0
256,192,141403,1,0
336,192,141603,1,8
256,192,141803,1,0
176,192,142003,6,0,B|264:192,1,80
336,192,142403,2,0,B|240:192,1,80,8|0
256,104,142803,1,0
256,192,143003,1,0
256,104,143203,1,8
256,192,143403,1,0
256,272,143603,6,0,B|256:360,3,80,0|0|8|0
256,272,144403,1,0
256,192,144603,1,0
176,192,144803,1,8
256,192,145003,1,0
336,192,145203,6,0,B|424:192,1,80
416,112,145603,2,0,B|328:112,1,80,8|0
256,112,146003,2,0,B|80:112,1,160,0|8
96,32,146603,1,0
176,32,146803,6,0,B|176:128,1,80
256,112,147203,2,0,B|256:216,1,80,8|0
336,192,147603,1,0
336,112,147803,1,0
336,192,148003,1,8
336,112,148203,1,0
336,192,148403,2,0,B|336:280,1,80
416,192,148803,2,0,B|416:96,1,80,8|0
416,32,149203,2,0,B|328:32,3,80,0|0|8|0
256,32,150003,1,0
176,34,150203,1,0
96,32,150403,1,8
96,112,150603,1,0
94,191,150803,5,0
134,191,150903,1,0
214,191,151103,1,0
254,191,151203,1,8
333,191,151403,1,0
416,184,151603,6,0,B|448:184|456:152,3,40
448,128,152003,2,0,B|424:104|392:112,3,40,8|0|0|0
400,72,152403,2,0,B|368:72|344:104,3,40
320,96,152803,5,8
280,104,152903,1,0
240,120,153003,1,0
200,136,153103,1,0
160,136,153203,6,0,B|72:136,1,80
80,136,153603,2,0,B|80:40,1,80,8|0
80,56,154003,2,0,B|176:56,3,80,0|0|8|0
240,56,154803,2,0,B|328:56,1,80
400,56,155203,2,0,B|312:56,1,80,8|0
320,136,155603,2,0,B|320:232,1,80
400,216,156003,1,8
400,176,156103,1,0
400,136,156203,1,0
320,136,156403,5,0
280,136,156503,1,0
240,136,156603,1,0
240,216,156803,1,8
280,216,156903,1,0
320,216,157003,1,0
400,216,157203,2,0,B|456:216,2,40
400,136,157603,2,0,B|448:136,2,40,8|0|0
400,56,158003,6,0,B|344:56,1,40
320,56,158203,2,0,B|272:56,1,40
240,56,158403,2,0,B|184:56,1,40,8|0
160,56,158603,2,0,B|112:56,1,40
80,56,158803,2,0,B|24:56,2,40
80,136,159203,1,14
