osu file format v14

[General]
AudioFilename: 13 Between Heaven and Earth.mp3
AudioLeadIn: 0
PreviewTime: -1
Countdown: 1
SampleSet: Normal
StackLeniency: 0.7
Mode: 0
LetterboxInBreaks: 1
WidescreenStoryboard: 0

[Editor]
DistanceSpacing: 0.5
BeatDivisor: 6
GridSize: 4
TimelineZoom: 1

[Metadata]
Title:Between Heaven and Earth
TitleUnicode:Between Heaven and Earth
Artist:Audiomachine
ArtistUnicode:Audiomachine
Creator:Snyri-Kun
Version:Hard
Source:audiomachine
Tags:Audiomachine Powerfull Epic Music
BeatmapID:803696
BeatmapSetID:366203

[Difficulty]
HPDrainRate:6
CircleSize:4
OverallDifficulty:7
ApproachRate:8
SliderMultiplier:1.4
SliderTickRate:1

[Events]
//Background and Video events
0,0,"Epic wallpaper.jpg",0,0
//Break Periods
2,9098,10691
2,14415,16240
//Storyboard Layer 0 (Background)
//Storyboard Layer 1 (Fail)
//Storyboard Layer 2 (Pass)
//Storyboard Layer 3 (Foreground)
//Storyboard Sound Samples

[TimingPoints]
22539,693.621351943708,4,1,0,100,1,0
30863.0613415967,693.216872898686,4,1,0,100,1,0
44657.1391312671,692.84064665127,4,1,0,100,1,1

[HitObjects]
140,160,343,5,0,0:0:0:0:
232,68,574,1,0,0:0:0:0:
360,72,806,1,0,0:0:0:0:
416,184,1037,2,0,P|384:216|376:220,1,46.6666666666667
224,240,1499,1,0,0:0:0:0:
112,132,1730,5,0,0:0:0:0:
112,272,1962,2,0,P|124:292|152:300,1,46.6666666666667
288,288,2424,1,0,0:0:0:0:
388,200,2655,1,0,0:0:0:0:
320,80,2887,1,0,0:0:0:0:
192,96,3118,2,0,P|176:128|184:144,1,46.6666666666667
268,164,3580,2,0,P|272:196|260:208,1,46.6666666666667
180,220,4042,2,0,P|176:256|188:272,1,46.6666666666667
324,308,4504,1,0,0:0:0:0:
380,160,5892,5,0,0:0:0:0:
324,100,6123,2,0,L|304:80,2,23.3333333333333
380,160,6586,1,0,0:0:0:0:
328,256,6817,2,0,P|304:272|272:268,1,46.6666666666667
184,204,7279,1,0,0:0:0:0:
176,192,7395,1,0,0:0:0:0:
168,180,7511,1,0,0:0:0:0:
152,80,7742,2,0,P|176:64|208:72,1,46.6666666666667
320,104,8204,5,0,0:0:0:0:
404,180,8435,1,0,0:0:0:0:
352,272,8667,2,0,P|316:300|312:296,1,46.6666666666667
328,304,11441,5,0,0:0:0:0:
220,248,11672,1,0,0:0:0:0:
208,236,11788,1,0,0:0:0:0:
200,224,11904,1,0,0:0:0:0:
276,76,12135,5,0,0:0:0:0:
376,164,12366,1,0,0:0:0:0:
296,264,12597,1,0,0:0:0:0:
172,216,12828,2,0,P|148:208|140:188,1,46.6666666666667
224,68,13291,1,0,0:0:0:0:
348,124,13522,1,0,0:0:0:0:
464,264,13753,1,0,0:0:0:0:
344,288,13984,2,0,L|296:296,1,46.6666666666667
176,164,16990,5,0,0:0:0:0:
264,80,17221,1,0,0:0:0:0:
388,136,17453,1,0,0:0:0:0:
384,276,17684,2,0,L|336:304,1,46.6666666666667
232,240,18146,1,0,0:0:0:0:
156,140,18377,1,0,0:0:0:0:
272,76,18609,1,0,0:0:0:0:
292,72,18724,1,0,0:0:0:0:
308,68,18840,1,0,0:0:0:0:
376,136,19071,6,0,P|392:160|384:188,1,46.6666666666667
352,256,19533,2,0,L|320:296,1,46.6666666666667
300,224,20227,2,0,L|248:244,1,46.6666666666667
260,164,20921,2,0,L|200:144,1,46.6666666666667
132,128,22539,5,0,0:0:0:0:
276,84,22770,1,0,0:0:0:0:
292,88,22885,1,0,0:0:0:0:
308,92,23001,1,0,0:0:0:0:
404,236,23232,1,0,0:0:0:0:
292,264,23463,1,0,0:0:0:0:
272,264,23579,1,0,0:0:0:0:
256,256,23695,1,0,0:0:0:0:
308,68,23926,5,0,0:0:0:0:
152,112,24158,1,0,0:0:0:0:
156,252,24389,1,0,0:0:0:0:
304,272,24620,2,0,L|344:236,1,46.6666666666667
392,148,25082,1,0,0:0:0:0:
308,92,25313,5,0,0:0:0:0:
296,84,25429,1,0,0:0:0:0:
280,76,25544,1,0,0:0:0:0:
160,96,25776,2,0,P|132:124|136:144,2,46.6666666666667
204,136,28088,5,0,0:0:0:0:
200,144,28204,1,0,0:0:0:0:
196,152,28319,1,0,0:0:0:0:
148,232,28550,2,0,L|124:280,2,46.6666666666667
208,112,29244,1,0,0:0:0:0:
340,64,29475,1,0,0:0:0:0:
436,148,29707,1,0,0:0:0:0:
332,240,29938,2,0,P|312:272|288:272,1,46.6666666666667
200,216,30400,5,0,0:0:0:0:
192,208,30516,1,0,0:0:0:0:
184,200,30631,1,0,0:0:0:0:
176,192,30747,1,0,0:0:0:0:
168,184,30863,1,0,0:0:0:0:
124,80,33637,5,0,0:0:0:0:
136,72,33753,1,0,0:0:0:0:
152,64,33868,1,0,0:0:0:0:
312,64,34099,1,0,0:0:0:0:
376,168,34331,1,0,0:0:0:0:
312,268,34562,2,0,P|288:280|260:272,1,46.6666666666667
152,224,35024,5,0,0:0:0:0:
200,76,35255,1,0,0:0:0:0:
324,76,35487,1,0,0:0:0:0:
352,192,35718,2,0,P|360:236|360:256,2,46.6666666666667
236,68,36412,1,0,0:0:0:0:
160,124,39186,5,0,0:0:0:0:
280,60,39417,1,0,0:0:0:0:
296,64,39533,1,0,0:0:0:0:
308,72,39648,1,0,0:0:0:0:
352,168,39880,2,0,P|364:192|352:216,1,46.6666666666667
232,256,40342,1,0,0:0:0:0:
104,144,40573,1,0,0:0:0:0:
264,48,40804,1,0,0:0:0:0:
104,272,41036,1,0,0:0:0:0:
184,68,41267,1,0,0:0:0:0:
300,72,41498,6,0,P|336:80|340:96,2,46.6666666666667
304,148,42192,2,0,P|280:136|264:120,2,46.6666666666667
228,184,42885,2,0,P|248:212|268:208,2,46.6666666666667
168,68,44657,5,0,0:0:0:0:
296,72,44888,1,0,0:0:0:0:
400,148,45119,1,0,0:0:0:0:
380,268,45349,1,0,0:0:0:0:
236,272,45580,2,0,L|192:240,1,46.6666666666667
260,200,46042,2,0,L|216:148,1,46.6666666666667
304,136,46504,2,0,L|280:88,1,46.6666666666667
156,80,46966,5,0,0:0:0:0:
112,188,47197,2,0,P|100:220|120:240,1,46.6666666666667
232,292,47659,1,0,0:0:0:0:
248,288,47774,1,0,0:0:0:0:
268,280,47890,1,0,0:0:0:0:
336,140,48121,1,0,0:0:0:0:
184,64,48352,1,0,0:0:0:0:
112,184,48583,1,0,0:0:0:0:
120,200,48698,1,0,0:0:0:0:
132,212,48814,1,0,0:0:0:0:
272,300,49045,6,0,P|304:288|320:272,1,46.6666666666667
392,208,49507,2,0,P|404:184|400:160,1,46.6666666666667
368,72,49968,2,0,P|348:56|320:48,1,46.6666666666667
192,56,50430,1,0,0:0:0:0:
100,144,50661,1,0,0:0:0:0:
96,280,50892,1,0,0:0:0:0:
204,296,51123,1,0,0:0:0:0:
220,296,51239,1,0,0:0:0:0:
232,296,51354,1,0,0:0:0:0:
328,228,51585,5,0,0:0:0:0:
320,120,51816,2,0,P|304:96|272:92,1,46.6666666666667
172,76,52278,1,0,0:0:0:0:
212,236,52509,1,0,0:0:0:0:
356,264,52740,2,0,P|384:248|392:224,2,46.6666666666667
196,236,53433,1,0,0:0:0:0:
136,116,53664,5,0,0:0:0:0:
272,60,53895,1,0,0:0:0:0:
284,68,54010,1,0,0:0:0:0:
296,80,54125,1,0,0:0:0:0:
356,192,54356,2,0,P|368:220|356:248,1,46.6666666666667
280,304,54818,2,0,P|248:312|220:300,1,46.6666666666667
156,200,55280,5,0,0:0:0:0:
212,92,55511,1,0,0:0:0:0:
320,72,55742,1,0,0:0:0:0:
340,192,55973,1,0,0:0:0:0:
340,216,56089,1,0,0:0:0:0:
332,240,56204,1,0,0:0:0:0:
208,248,56435,6,0,L|160:240,1,46.6666666666667
216,168,56897,2,0,L|172:120,1,46.6666666666667
280,108,57359,2,0,L|256:52,2,46.6666666666667
344,232,58052,1,0,0:0:0:0:
164,272,58283,1,0,0:0:0:0:
112,136,58513,1,0,0:0:0:0:
240,80,58744,2,0,P|268:72|288:80,1,46.6666666666667
352,172,59206,5,0,0:0:0:0:
280,264,59437,1,0,0:0:0:0:
160,224,59668,1,0,0:0:0:0:
152,216,59784,1,0,0:0:0:0:
144,208,59899,1,0,0:0:0:0:
192,92,60130,2,0,P|216:84|244:92,1,46.6666666666667
348,152,60592,5,0,0:0:0:0:
264,272,60823,1,0,0:0:0:0:
140,224,61054,1,0,0:0:0:0:
128,208,61169,1,0,0:0:0:0:
128,188,61285,1,0,0:0:0:0:
