osu file format v9

[General]
AudioFilename: [Touhou Arrangement] Evans in Wonderland [Evans x Alice in Wonderland].mp3
AudioLeadIn: 1000
PreviewTime: 61077
Countdown: 1
SampleSet: Normal
StackLeniency: 0.7
Mode: 0
LetterboxInBreaks: 1

[Editor]
DistanceSpacing: 1
BeatDivisor: 4
GridSize: 8

[Metadata]
Title:Evans in Wonderland
Artist:Au
Creator:alvisto
Version:Standard
Source:Nico Nico Douga
Tags:Evans Beatmania IIDX DJ Yoshitaka Touhou Jubeat

[Difficulty]
HPDrainRate:3
CircleSize:4
OverallDifficulty:5
ApproachRate:5
SliderMultiplier:1.4
SliderTickRate:1

[Events]
//Background and Video events
0,0,"konachan-com-68314-alice_margatroid-touhou.jpg"
//Break Periods
//Storyboard Layer 0 (Background)
//Storyboard Layer 1 (Fail)
//Storyboard Layer 2 (Pass)
//Storyboard Layer 3 (Foreground)
//Storyboard Sound Samples
//Background Colour Transformations
3,100,163,162,255

[TimingPoints]
1426,324.324324324324,4,1,1,55,1,0
10507,-100,4,1,1,65,0,0
10831,-100,4,1,1,70,0,0
11236,-100,4,1,1,80,0,0
11480,-100,4,1,1,70,0,0
12128,-100,4,1,1,60,0,0
24453,-100,4,1,1,65,0,0
41236,-100,4,1,1,70,0,0
44236,-100,4,1,1,75,0,0
45695,-100,4,1,1,60,0,0
50236,-100,4,1,1,50,0,0
50885,-100,4,1,1,60,0,0
51614,-100,4,1,1,50,0,0
52182,-100,4,1,1,60,0,0
52912,-100,4,1,1,50,0,0
53479,-100,4,1,1,60,0,0
58506,-100,4,1,1,50,0,0
61263,-100,4,1,1,67,0,0
92236,-100,4,1,1,75,0,0
99777,-100,4,1,1,80,0,0

[Colours]
Combo1 : 215,167,68
Combo2 : 47,62,198
Combo3 : 204,61,40
Combo4 : 153,120,214

[HitObjects]
104,240,1426,2,0,B|72:136|128:24,2,210
232,296,2723,1,4
232,296,2885,2,4,B|296:320|360:264|464:288,1,210
439,283,3696,1,4
360,168,4020,6,0,B|304:184|256:152|240:96|264:48|312:24,2,210,4|0|0
248,248,5317,2,0,B|232:200|200:144,2,105
208,304,5966,5,0
144,336,6128,2,0,B|64:352,1,70
40,288,6453,2,0,B|32:208,1,70,0|4
96,96,6939,6,0,B|224:56|392:96,1,280,4|0
248,160,7912,1,4
248,160,8074,2,4,B|208:216|216:304|256:352|288:368,1,210
267,353,8885,1,4
360,248,9209,6,0,B|336:168|352:80,1,140,4|0
224,40,9858,2,0,B|240:112|184:184,1,140,4|0
56,208,10507,5,4
56,208,10669,1,4
256,256,11155,2,4,B|272:192|240:200|256:136,2,105
320,280,11804,6,0,B|360:224|376:128|336:48,2,210
184,248,13101,6,0,B|128:216|64:248,2,105
248,224,13750,2,0,B|232:144|256:80,1,140
120,56,14398,6,0,B|88:152|120:280,2,210
208,160,15696,1,4
208,160,15858,2,4,B|264:184|352:176|392:88,1,210
387,96,16669,1,4
248,64,16993,1,4
120,120,17317,6,0,B|104:192|112:264|160:352,1,210,4|0
216,336,17966,2,0,B|288:352,1,70
328,296,18290,6,0,B|304:240|320:184,2,105
392,272,18939,2,0,B|368:224|384:160|408:128,1,140
280,64,19588,6,0,B|304:120|264:176|200:160,1,140,4|0
88,120,20236,2,0,B|30:127|-4:194|36:241,1,140,4|0
168,272,20885,6,0,B|256:304,1,70
264,240,21209,2,0,B|336:248,1,70
352,184,21534,1,0
352,184,21696,2,0,B|424:176,1,70
408,112,22020,2,0,B|488:80,1,70
128,96,24777,6,0,B|96:168|112:264|144:320,2,210,4|0|0
192,128,25912,1,0
216,192,26074,2,0,B|320:224|440:176,2,210
272,152,27209,5,0
336,120,27371,2,0,B|368:224|320:336,2,210
288,72,28507,1,0
224,88,28669,6,0,B|192:160|216:232,1,140
96,304,29317,2,0,B|120:224|88:144,1,140
152,40,29966,6,0,B|256:64|392:32,2,210
176,104,31101,1,0
240,120,31263,6,0,B|256:232|192:336,2,210
304,96,32398,1,0
360,136,32561,5,0
448,328,33047,1,0
456,120,33534,1,0
456,120,33696,1,0
456,120,33858,5,0
256,56,34344,1,0
56,112,34831,1,0
16,168,34993,1,0
48,232,35155,5,4
120,224,35317,2,0,B|136:280|120:328|88:360,3,140,2|2|2|2
160,352,36453,5,4
216,312,36615,2,0,B|192:240|208:160,3,140,2|2|2|2
272,144,37750,5,4
240,80,37912,2,0,B|160:56|72:88,3,140,2|2|2|2
72,144,39047,6,0,B|56:224,1,70,4|2
120,336,39534,1,2
256,296,39858,1,2
392,312,40182,1,2
408,248,40344,6,0,B|432:176,2,70
384,112,40993,2,0,B|408:48,1,70
336,48,41317,2,0,B|304:136,1,70
240,128,41642,6,0,B|168:112,2,70
104,144,42290,2,0,B|32:128,1,70
16,192,42615,2,0,B|96:208,1,70
88,272,42939,6,0,B|184:256,2,70
224,240,43588,2,0,B|304:224,1,70
288,160,43912,2,0,B|200:176,1,70
256,104,44236,6,0,B|256:16,8,70
376,184,45858,5,0
376,184,46182,1,0
376,184,46507,2,0,B|352:256,1,70
144,280,47155,5,0
144,280,47480,1,0
144,280,47804,2,0,B|128:208,1,70
168,152,48128,6,4,B|192:80|168:0,1,140
312,48,48777,5,0
312,48,49101,2,0,B|336:128,1,70
400,312,49750,5,0
400,312,50074,1,0
400,312,50398,2,0,B|328:328,2,70,0|0|4
360,176,51047,5,0
360,176,51209,1,0
168,96,51696,6,0,B|160:24,2,70,0|0|4
80,208,52344,5,0
88,280,52507,1,0
296,264,52993,6,0,B|304:336,2,70,0|0|4
424,320,53642,5,0
456,184,53966,1,4
392,64,54290,1,0
256,24,54615,1,4
120,64,54939,1,0
56,184,55263,1,4
88,320,55588,1,0
224,336,55912,6,0,B|240:264,3,70,4|0|4|0
272,208,56561,2,0,B|256:136,3,70,4|0|4|0
256,72,57209,6,0,B|256:32,16,35,4|0|0|0|4|0|0|0|4|0|0|0|4|0|0|0|4
256,192,58588,12,4,61101
120,80,61425,5,0
120,80,61588,2,0,B|96:152|112:240,1,140
160,264,62074,1,0
224,248,62236,1,0
288,224,62398,6,0,B|304:144|296:64,1,140,4|0
360,48,62885,1,0
424,80,63047,2,0,B|456:152,1,70
472,208,63371,2,0,B|456:296,1,70
400,312,63696,6,0,B|328:296|232:312,1,140,4|0
208,264,64182,1,0
144,288,64344,2,0,B|128:208,1,70
64,240,64669,2,0,B|72:160,1,70
112,112,64993,6,0,B|144:48,3,70,4|0|0|0
208,64,65642,2,4,B|264:88|336:64,2,105
184,128,66290,6,4,B|176:200|200:296,1,140
264,288,66777,2,0,B|336:304|424:272,2,140
208,328,67588,6,0,B|136:312|48:336,1,140,4|0
88,264,68074,2,0,B|112:200|96:112,2,140
40,312,68885,5,4
176,352,69209,1,0
320,352,69534,1,4
456,312,69858,1,0
384,192,70182,6,0,B|360:144|376:104,1,70
424,80,70507,2,0,B|408:40|368:8,1,70
264,88,70993,1,4
264,88,71155,1,0
264,88,71317,1,4
264,88,71480,6,0,B|224:160|232:240,1,140,4|0
160,256,71966,2,0,B|152:184|168:104,1,140
128,56,72453,1,0
192,24,72615,1,0
256,48,72777,6,0,B|304:104|416:96,1,140,4|0
448,72,73263,1,0
432,144,73425,2,0,B|408:216,1,70
448,272,73750,2,0,B|408:336,1,70
344,328,74074,6,0,B|312:264|336:184,1,140,4|0
264,216,74561,1,0
232,152,74723,2,0,B|160:176,1,70
104,136,75047,2,0,B|48:184,1,70
80,248,75371,6,0,B|40:312,3,70,4|0|0|0
112,328,76020,2,4,B|168:352|240:328,2,105
152,272,76669,6,4,B|200:208|192:120,1,140
256,104,77155,2,0,B|288:192|360:200,1,140
400,144,77642,1,0
400,72,77804,1,0
336,40,77966,6,0,B|264:32|184:56,1,140,4|0
128,48,78453,2,0,B|152:128|128:208,1,140
88,240,78939,1,0
96,312,79101,1,0
152,352,79263,5,4
248,256,79588,1,0
280,120,79912,1,4
368,8,80236,1,0
424,136,80561,6,0,B|392:224,1,70
456,240,80885,2,0,B|432:304,1,70
288,304,81371,1,4
288,304,81534,1,0
264,240,81696,1,4
264,240,81858,2,0,B|240:176|256:88,1,140,4|4
200,56,82344,6,0,B|128:32|48:64,2,140
200,56,83155,1,0
336,80,83480,5,0
208,128,83804,1,0
344,152,84128,1,0
208,192,84453,2,0,B|232:264|176:352,1,140
328,352,85101,2,0,B|304:280|344:208,1,140
280,88,85750,5,0
264,224,86074,1,0
152,136,86398,2,0,B|144:88|96:64|56:96,2,105
104,184,87047,6,0,B|88:256|96:336,1,140
232,288,87696,2,0,B|248:208,2,70
360,240,88344,1,0
384,104,88669,2,0,B|456:88,2,70
240,56,89317,5,4
240,56,89642,2,0,B|272:136|216:216,1,140,4|0
283,320,90290,2,0,B|267:256|307:184,1,140,4|0
392,72,90939,6,0,B|408:0|408:0,2,70
408,144,91425,2,0,B|384:200|408:272,2,105
408,144,92074,1,0
208,72,92561,5,4
208,72,92723,2,0,B|160:104|96:96,2,105
248,128,93371,1,0
208,184,93534,6,0,B|160:232|192:304,4,105,4|0|0|0|0
280,192,94669,1,0
336,152,94831,5,4
256,88,95074,1,0
152,80,95317,1,0
56,120,95561,1,0
16,216,95804,2,0,B|8:256|16:296,1,70
72,320,96128,5,4
72,320,96290,2,0,B|128:312,2,35
88,256,96615,2,0,B|136:248,2,35
104,192,96939,1,0
120,128,97101,1,0
136,64,97263,1,0
184,112,97425,6,0,B|224:128,4,35
320,128,98074,1,0
320,128,98236,1,0
320,128,98398,1,0
320,128,98561,1,0
320,128,98723,2,0,B|376:152,4,35
376,256,99371,5,0
336,312,99534,1,0
280,352,99696,1,0
208,352,99858,6,0,B|184:288,1,70
224,232,100182,2,0,B|264:296,1,70
304,232,100507,2,0,B|280:168,1,70
312,104,100831,2,0,B|368:168,1,70
400,104,101155,2,0,B|368:40,1,70
304,24,101480,5,0
304,24,101642,2,0,B|224:24|192:112,1,140
216,168,102128,1,0
280,200,102290,1,0
240,256,102453,1,0
264,320,102615,1,4
