osu file format v9

[General]
AudioFilename: [Touhou Arrangement] Evans in Wonderland [Evans x Alice in Wonderland].mp3
AudioLeadIn: 1004
PreviewTime: 61077
Countdown: 1
SampleSet: Normal
StackLeniency: 0.7
Mode: 0
LetterboxInBreaks: 1

[Editor]
DistanceSpacing: 0.8
BeatDivisor: 2
GridSize: 8

[Metadata]
Title:Evans in Wonderland
Artist:Au
Creator:alvisto
Version:Beginner
Source:Nico Nico Douga
Tags:Evans Beatmania IIDX DJ Yoshitaka Touhou Jubeat

[Difficulty]
HPDrainRate:0
CircleSize:3
OverallDifficulty:0
ApproachRate:2
SliderMultiplier:1
SliderTickRate:1

[Events]
//Background and Video events
0,0,"konachan-com-68314-alice_margatroid-touhou.jpg"
//Break Periods
//Storyboard Layer 0 (Background)
//Storyboard Layer 1 (Fail)
//Storyboard Layer 2 (Pass)
//Storyboard Layer 3 (Foreground)
//Storyboard Sound Samples
//Background Colour Transformations
3,100,163,162,255

[TimingPoints]
1426,324.324324324324,4,1,1,55,1,0
24453,-100,4,1,1,65,0,0
41236,-100,4,1,1,70,0,0
45695,-100,4,1,1,60,0,0
58506,-100,4,1,1,50,0,0
61263,-100,4,1,1,70,0,0
92236,-100,4,1,1,75,0,0
99777,-100,4,1,1,80,0,0

[Colours]
Combo1 : 215,167,68
Combo2 : 47,62,198
Combo3 : 204,61,40
Combo4 : 153,120,214

[HitObjects]
376,96,1426,1,4
192,328,2885,1,4
304,288,3371,2,4,B|360:288|392:232,1,100
376,160,4020,6,0,B|272:136|168:160,4,200,0|0|0|0|4
360,240,6939,1,4
120,280,7912,6,4,B|104:224,1,50
192,144,8561,2,4,B|184:200|200:264,1,100
272,272,9209,5,4
408,192,9858,1,4
256,152,10507,2,0,B|256:208,1,50
136,232,11155,2,4,B|136:320,2,75
224,152,12128,5,4
296,128,12453,2,0,B|328:176|320:232,1,100
312,304,13101,2,0,B|256:288|208:312,3,100
136,288,14398,5,0
120,208,14723,1,0
64,152,15047,2,0,B|56:88|80:32,1,100
152,48,15696,6,0,B|208:80,1,50,0|4
312,64,16344,5,4
312,64,16669,1,4
312,64,16993,1,4
312,64,17317,1,4
304,144,17642,2,0,B|288:200|296:264,1,100
216,264,18290,6,0,B|160:256|96:264,3,100,4|0|0|0
128,184,19588,5,4
280,144,20236,1,4
432,104,20885,6,0,B|432:176,8,50,0|0|0|0|0|0|0|0|4
88,96,24777,6,0,B|272:56,2,150
136,160,26074,6,0,B|288:152,2,150
176,232,27371,6,0,B|352:256,2,150
200,312,28669,6,0,B|344:360,2,150
120,304,29966,5,0
112,184,30453,1,0
208,112,30939,2,0,B|264:136|312:112,1,100
384,24,31750,5,0
448,128,32236,2,0,B|384:168|416:256,1,100
288,192,33047,1,0
232,296,33534,1,0
176,352,33858,6,0,B|80:304|48:184|80:64|208:0,2,400
248,320,36777,5,2
328,328,37101,1,2
408,304,37425,1,2
456,240,37750,6,0,B|480:136|400:24|240:16|160:128,2,400
376,256,40669,5,0
296,280,40993,2,0,B|168:248,1,100
184,176,41642,6,0,B|176:112|112:96,1,100
72,48,42290,1,0
136,8,42615,1,0
216,16,42939,6,0,B|288:128,1,100
328,160,43588,2,0,B|240:224,1,100
256,296,44236,2,0,B|256:360,8,50
344,224,45858,5,0
344,224,46182,1,0
344,224,46507,2,0,B|400:200,2,50
320,144,47155,5,0
320,144,47480,1,0
320,144,47804,2,0,B|312:88,2,50,0|0|4
248,176,48453,5,4
248,176,48777,1,0
248,176,49101,2,0,B|184:200,2,50
272,256,49750,5,0
272,256,50074,1,0
272,256,50398,2,0,B|288:320,2,50
328,200,51047,6,0,B|352:168|344:128,1,50
248,88,51696,2,0,B|232:120|240:160,1,50
248,256,52344,2,0,B|272:224|264:184,1,50
160,152,52993,2,0,B|144:184|152:216,1,50
144,240,53317,5,0
200,296,53642,1,0
280,296,53966,1,0
344,248,54290,1,0
360,168,54615,1,0
328,96,54939,1,0
256,72,55263,1,0
176,88,55588,1,0
128,152,55912,6,0,B|128:216,7,50
256,192,57209,12,0,59155
64,152,59804,6,0,B|144:112|240:152|280:216|384:208|480:144,1,400,0|4
400,104,61425,5,0
328,80,61750,2,0,B|336:16,2,50
248,64,62398,6,4,B|184:48|128:88,1,100
88,128,63047,1,0
88,128,63371,2,0,B|64:176|80:240,1,100,0|4
136,280,64020,5,0
216,264,64344,2,0,B|216:200,2,50
296,256,64993,6,0,B|336:224|344:168,1,100,4|0
408,128,65642,2,4,B|416:96|408:32,2,75
296,176,66615,5,4
224,152,66939,2,0,B|216:96|232:48,1,100
152,72,67588,1,4
104,136,67912,1,0
152,200,68236,2,0,B|176:256|152:328,1,100
232,328,68885,6,0,B|304:320|360:272|384:200|384:120|344:64,1,300,4|0
288,104,70182,5,4
288,104,70344,2,0,B|256:48|176:48,2,100,4|4|4
280,144,71155,2,4,B|304:192|368:224,1,100
376,288,71804,5,4
304,312,72128,1,0
304,312,72453,2,0,B|248:280|184:296,1,100,0|4
128,304,73101,1,0
128,304,73425,2,0,B|80:328,2,50
112,224,74074,6,0,B|96:176|112:112,1,100,4|0
176,80,74723,2,0,B|240:64|304:80,1,100,0|0
240,144,75371,6,0,B|272:184|336:208,1,100,4|0
384,152,76020,2,4,B|368:120|320:88,2,75
336,264,76993,5,4
264,304,77317,2,0,B|240:248|256:176,1,100
248,128,77966,1,4
208,56,78290,1,0
152,112,78615,2,0,B|88:104|24:144,1,100
88,200,79263,6,0,B|96:272|144:328|216:352|296:360|352:312,1,300
360,272,80561,5,4
360,272,80723,2,4,B|416:256|480:304,2,100
336,240,81534,2,4,B|272:264|216:224,2,100
224,136,83480,6,0,B|192:24,3,100,0|0|0|4
152,192,85101,1,4
288,272,85750,2,0,B|336:304|408:304,1,100
424,232,86398,2,4,B|416:192|424:152,2,75
176,104,88020,6,0,B|136:216,1,100,0|4
368,288,89317,6,0,B|344:176,1,100,0|4
192,240,90290,1,4
96,184,92236,5,0
96,184,92561,2,0,B|80:120|96:64,1,100,4|0
168,88,93209,1,0
168,88,93534,2,0,B|192:144|224:200,1,100,4|0
288,152,94182,1,0
288,152,94507,2,0,B|256:200|280:272,1,100,0|4
352,224,95155,5,0
352,224,95317,2,0,B|368:288|352:352,2,100
392,216,96128,2,0,B|416:160|400:96,1,100,4|0
328,104,96777,2,4,B|304:160|312:224,1,100
240,232,97425,6,0,B|192:272|120:272,1,100,4|0
104,200,98074,1,0
104,200,98236,2,0,B|111:202|120:104|240:96,1,150,0|4
368,96,99371,6,0,B|392:152|368:224,1,100
344,224,99858,2,0,B|288:208|224:224,4,100
256,192,101480,12,4,102615
