osu file format v9

[General]
AudioFilename: [Touhou Arrangement] Evans in Wonderland [Evans x Alice in Wonderland].mp3
AudioLeadIn: 1004
PreviewTime: 61077
Countdown: 1
SampleSet: Normal
StackLeniency: 0.7
Mode: 0
LetterboxInBreaks: 1

[Editor]
DistanceSpacing: 1
BeatDivisor: 4
GridSize: 8

[Metadata]
Title:Evans in Wonderland
Artist:Au
Creator:alvisto
Version:Another
Source:Nico Nico Douga
Tags:Evans Beatmania IIDX DJ Yoshitaka Touhou Jubeat

[Difficulty]
HPDrainRate:7
CircleSize:4
OverallDifficulty:7
ApproachRate:9
SliderMultiplier:1.8
SliderTickRate:1

[Events]
//Background and Video events
0,0,"konachan-com-68314-alice_margatroid-touhou.jpg"
//Break Periods
//Storyboard Layer 0 (Background)
//Storyboard Layer 1 (Fail)
//Storyboard Layer 2 (Pass)
//Storyboard Layer 3 (Foreground)
//Storyboard Sound Samples
//Background Colour Transformations
3,100,163,162,255

[TimingPoints]
1426,324.324324324324,4,1,1,55,1,0
6047,-100,4,1,1,40,0,0
6696,-100,4,1,1,55,0,0
9209,-200,4,1,1,55,0,0
10507,-100,4,1,1,65,0,0
10831,-100,4,1,1,50,0,0
11074,-100,4,1,1,70,0,0
11236,-100,4,1,1,80,0,0
11480,-100,4,1,1,70,0,0
11804,-200,4,1,1,55,0,0
12128,-100,4,1,1,60,0,0
16993,-200,4,1,1,55,0,0
17317,-100,4,1,1,55,0,0
22182,-200,4,1,1,25,0,0
24777,-100,4,1,1,65,0,0
40263,-100,4,1,1,65,0,0
41236,-100,4,1,1,70,0,0
43587,-66.6666666666667,4,1,1,70,0,0
43749,-100,4,1,1,70,0,0
44398,-66.6666666666667,4,1,1,70,0,0
45047,-100,4,1,1,60,0,0
45695,-100,4,1,1,60,0,0
50236,-100,4,1,1,50,0,0
50885,-100,4,1,1,60,0,0
51614,-100,4,1,1,50,0,0
52182,-100,4,1,1,60,0,0
52912,-100,4,1,1,50,0,0
53479,-100,4,1,1,60,0,0
58506,-100,4,1,1,30,0,0
58749,-100,4,1,1,40,0,0
58912,-100,4,1,1,50,0,0
59074,-100,4,1,1,57,0,0
60290,-66.6666666666667,4,1,1,57,0,0
60776,-100,4,1,1,57,0,0
61020,-100,4,1,1,67,0,0
64263,-100,4,1,1,75,0,0
66128,-200,4,1,1,67,0,0
66614,-100,4,1,1,67,0,0
67831,-100,4,1,1,75,0,0
69128,-100,4,1,1,85,0,0
71641,-100,4,1,1,67,0,0
74641,-100,4,1,1,75,0,0
76506,-200,4,1,1,67,0,0
76993,-100,4,1,1,67,0,0
78209,-100,4,1,1,75,0,0
79506,-100,4,1,1,85,0,0
81858,-200,4,1,1,70,0,0
82182,-100,4,1,0,55,0,0
84452,-200,4,1,0,55,0,0
85587,-100,4,1,0,65,0,0
86317,-100,4,1,0,55,0,0
86885,-200,4,1,0,55,0,0
87371,-100,4,1,0,55,0,0
89641,-200,4,1,1,75,0,0
89966,-200,4,1,1,50,0,0
90128,-200,4,1,1,75,0,0
90614,-100,4,1,1,50,0,0
90776,-100,4,1,1,70,0,0
91425,-66.6666666666667,4,1,1,70,0,0
92236,-100,4,1,1,80,0,0
95722,-100,4,1,1,85,0,0
98236,-66.6666666666667,4,1,1,70,0,0
99047,-100,4,1,1,70,0,0
99776,-66.6666666666667,4,1,1,75,0,0
100506,-66.6666666666667,4,1,1,80,0,0
100993,-100,4,1,1,70,0,0
101317,-100,4,1,1,80,0,0
102128,-66.6666666666667,4,1,1,70,0,0
102614,-66.6666666666667,4,1,0,60,0,0

[Colours]
Combo1 : 215,167,68
Combo2 : 47,62,198
Combo3 : 204,61,40
Combo4 : 153,120,214

[HitObjects]
136,80,1426,2,0,B|112:152|120:224,2,135
224,48,2074,1,0
312,32,2236,1,2
336,120,2398,1,0
408,176,2561,1,2
384,264,2723,1,0
424,344,2885,1,4
256,288,3371,5,4
128,328,3696,1,4
112,312,3777,1,0
96,296,3858,1,0
80,280,3939,1,0
64,264,4020,6,0,B|48:192|56:120,2,135,4|0|0
120,192,4669,1,0
120,192,4750,2,0,B|192:208|272:176,1,135
304,104,5155,1,0
392,128,5317,5,0
472,240,5561,1,0
472,240,5642,1,0
392,288,5804,1,0
352,264,5885,1,0
312,264,5966,1,0
256,184,6128,2,0,B|264:152,4,17.5
256,80,6453,2,0,B|248:48,4,17.5
352,32,6777,5,2
432,80,6939,1,0
448,168,7101,1,2
400,240,7263,1,0
312,240,7425,1,2
256,168,7588,1,0
208,88,7750,1,2
128,48,7912,1,0
48,88,8074,1,4
88,248,8561,5,4
208,216,8885,1,4
224,232,8966,1,0
240,248,9047,1,0
256,264,9128,1,0
272,280,9209,6,0,B|328:264|368:272,1,90,4|0
328,168,9696,1,0
240,104,9858,6,0,B|184:120|144:112,1,90,4|0
184,216,10344,1,0
272,288,10507,5,4
240,104,10669,1,4
72,208,11155,5,4
368,32,11398,1,4
376,352,11642,1,4
464,312,11804,6,4,B|480:264|472:216,1,90,0|4
432,144,12290,1,0
280,240,12453,1,0
304,224,12534,2,0,B|352:152|344:72,1,135
248,80,12939,1,0
416,112,13101,6,0,B|360:160|280:160,1,135
248,152,13426,2,0,B|232:200|240:240,1,90
184,312,13750,1,0
160,272,13831,1,0
156,227,13912,1,0
160,136,14074,2,0,B|168:88|152:32,1,90
64,64,14398,6,0,B|48:128|56:184,1,90
56,344,14723,2,0,B|88:296|80:224,1,90
288,304,15047,1,0
256,296,15128,2,0,B|192:256|176:160,1,135
248,120,15534,1,0
344,128,15696,5,4
440,104,15858,1,4
448,288,16344,5,4
304,336,16669,1,4
280,304,16750,1,0
256,272,16831,1,0
232,240,16912,1,0
208,216,16993,6,4,B|232:256|216:312,1,90
120,336,17480,1,0
64,48,17642,1,0
80,80,17723,2,0,B|104:152|64:240,1,135
152,184,18128,1,0
248,80,18290,6,0,B|232:152|272:216,1,135
312,224,18615,2,0,B|288:184|296:112,1,90
360,80,18939,1,0
400,64,19020,1,0
440,80,19101,1,0
472,168,19263,2,0,B|464:272,1,90
392,328,19588,5,0
256,336,19831,1,0
120,328,20074,1,0
64,256,20236,1,0
88,168,20398,1,0
104,128,20480,1,0
96,80,20561,1,0
200,264,20885,5,0
256,352,21047,1,0
312,264,21209,1,0
416,312,21371,1,0
408,216,21534,1,0
512,184,21696,1,0
472,160,21777,1,0
448,120,21858,1,0
440,32,22020,1,0
416,80,22101,1,0
368,80,22182,2,0,B|336:48|256:32|168:40|112:88|104:152|112:216,2,360
296,192,25020,5,0
272,328,25263,1,0
408,304,25506,1,0
408,304,25587,1,0
448,224,25749,2,0,B|440:176|448:128,1,90
408,48,26074,5,0
272,64,26317,1,0
136,56,26560,1,0
136,56,26641,1,0
88,128,26804,1,0
88,128,26885,1,0
80,216,27047,1,0
96,256,27128,1,0
88,296,27209,1,0
168,336,27371,5,0
272,248,27614,1,0
408,272,27858,2,0,B|432:200|416:128,1,135
456,168,28182,2,0,B|464:120|448:56,1,90
376,40,28506,1,0
288,64,28668,5,0
336,192,28912,1,0
240,288,29155,1,0
240,288,29236,1,0
152,312,29398,1,0
152,312,29479,1,0
176,224,29641,1,0
160,184,29722,1,0
160,136,29804,1,0
112,56,29966,5,0
32,72,30209,5,0
88,136,30452,5,0
88,136,30695,5,0
88,136,30776,1,0
80,224,30939,1,0
128,224,31020,1,0
168,240,31101,1,0
248,264,31263,5,0
320,312,31506,5,0
328,224,31749,5,0
328,224,31993,5,0
328,224,32074,1,0
400,176,32236,1,0
416,136,32317,1,0
416,88,32398,1,0
336,40,32560,6,0,B|288:24|232:32,1,90
256,72,32804,2,0,B|208:64|136:80,1,90
184,120,33047,2,0,B|128:128|80:152,1,90
120,184,33290,2,0,B|64:232|40:312,1,135
120,344,33695,1,0
328,280,33858,6,0,B|248:304|160:288,2,135
384,208,34506,1,0
344,128,34668,1,0
256,104,34831,1,0
208,32,34993,1,0
160,24,35074,1,0
120,40,35155,6,0,B|112:112|120:168,1,90,4|2
184,344,35479,2,0,B|192:280|192:216,1,90,0|2
352,224,35804,2,0,B|360:272|384:336,1,90,0|2
480,144,36128,1,0
488,112,36209,1,0
488,80,36290,1,2
384,104,36452,6,0,B|328:80|256:88,1,90,0|2
144,120,36776,2,0,B|160:64|152:8,1,90,0|2
40,224,37101,2,0,B|24:280|32:344,1,90,0|2
216,320,37425,1,0
416,344,37587,1,2
320,152,37749,6,0,B|328:216|320:280,1,90,0|2
72,56,38074,2,0,B|112:24|176:32,1,90,0|2
96,312,38398,2,0,B|96:264|120:208,1,90,0|2
288,104,38722,1,0
248,96,38804,1,0
216,104,38885,1,2
456,320,39047,6,0,B|360:336,1,90,0|2
120,288,39371,2,0,B|216:296,1,90,0|2
352,200,39695,2,0,B|240:208,1,90,0|2
216,112,40020,1,0
336,128,40182,1,2
448,104,40344,5,0
392,16,40506,1,0
288,24,40668,1,0
248,32,40749,1,0
88,72,40993,1,0
40,168,41155,1,0
144,216,41317,1,0
184,200,41398,1,0
224,216,41479,1,0
248,256,41560,1,0
232,296,41641,1,0
136,344,41804,5,0
40,288,41966,1,0
16,248,42047,1,0
112,120,42290,1,0
208,64,42452,1,0
248,168,42614,1,0
288,184,42695,1,0
336,176,42776,1,0
368,144,42858,1,0
368,96,42939,1,0
288,24,43101,5,0
184,32,43263,2,0,B|136:48,1,45
16,176,43587,6,0,B|0:264|16:352,1,134.999995976687
104,304,43912,1,0
152,312,43993,1,0
200,304,44074,1,0
248,312,44155,1,0
296,304,44236,1,0
392,288,44398,6,0,B|432:192|336:128,1,134.999995976687
120,96,44723,2,0,B|80:192|176:256,1,134.999995976687
344,104,45047,2,0,B|368:96,4,22.5
168,280,45372,2,0,B|144:288,4,22.5
448,72,45858,5,0
416,248,46182,1,0
352,80,46506,1,0
400,160,46668,1,0
360,176,46749,1,0
312,168,46831,2,0,B|248:144|184:144|112:184,1,180
112,256,47317,1,0
40,320,47479,5,0
64,144,47804,1,0
24,224,47966,1,0
64,240,48047,1,0
104,256,48128,2,0,B|168:272|232:272|312:248,1,180
368,224,48614,1,0
352,304,48776,5,0
224,176,49101,1,0
248,264,49263,1,0
288,248,49344,1,0
328,216,49425,2,0,B|376:136|464:80,1,180
384,24,49912,1,0
288,32,50074,5,0
112,56,50398,1,0
72,72,50479,1,0
48,112,50560,2,0,B|64:176|48:240,1,90,0|4
96,296,50885,5,0
192,312,51047,1,0
240,168,51209,2,0,B|240:240|288:304|368:304,1,180
344,192,51695,1,0
480,72,51858,2,0,B|392:104,1,90,0|4
288,72,52182,1,0
240,168,52344,1,0
72,192,52506,2,0,B|176:176|176:56,1,180
72,80,52993,1,0
72,192,53155,2,0,B|48:232|56:304,1,90,0|4
136,312,53641,5,0
256,216,53966,1,4
208,280,54290,1,4
328,80,54614,1,4
288,144,54939,1,4
464,48,55263,1,4
392,40,55587,1,4
416,144,55912,5,4
373,211,56074,1,0
311,265,56236,1,4
229,292,56398,1,0
146,268,56560,1,4
81,207,56722,1,0
54,125,56885,1,4
72,40,57047,1,0
160,96,57209,5,0
155,122,57290,1,0
161,148,57371,1,0
176,170,57452,1,0
198,185,57533,1,0
224,191,57614,1,0
254,190,57695,1,0
278,177,57776,1,0
299,159,57858,1,0
384,104,58020,2,0,B|400:80,4,22.5
472,152,58344,2,0,B|449:187,4,22.5
440,256,58668,5,0
344,312,58831,1,0
232,312,58993,1,0
128,272,59155,1,0
120,256,59236,1,0
112,240,59317,1,0
104,224,59398,1,0
96,208,59479,1,0
88,192,59560,1,0
80,176,59641,1,0
72,160,59722,1,0
64,144,59804,6,0,B|80:96,2,45
168,128,60128,1,0
232,200,60290,2,0,B|256:264|320:296|400:256|424:192,2,202.49999396503
328,160,60939,1,0
320,56,61101,5,4
160,32,61344,1,0
40,144,61587,1,0
120,216,61749,1,0
104,256,61831,1,0
112,304,61912,1,0
264,336,62074,2,0,B|208:304|192:240,1,90
224,176,62398,5,4
376,232,62641,1,0
488,112,62885,1,0
400,144,63047,1,0
400,144,63128,2,0,B|368:88|296:40,1,135
200,40,63533,1,0
152,40,63614,1,0
120,72,63695,6,0,B|128:144|104:240,2,135,4|0|0
224,112,64344,1,0
328,88,64506,1,0
416,144,64668,1,0
448,248,64831,2,0,B|456:280,4,22.5,0|0|0|0|4
392,344,65155,5,0
304,288,65317,1,0
280,280,65398,1,0
256,272,65479,1,0
232,264,65560,1,0
208,256,65641,5,4
48,216,65885,1,4
160,96,66128,1,4
232,40,66290,2,4,B|280:56|328:32,1,90,0|4
392,112,66776,5,0
488,48,66939,1,0
488,48,67020,2,0,B|512:120|472:184,1,135
432,200,67344,1,0
392,224,67425,1,0
368,264,67506,1,0
352,304,67587,6,0,B|256:344,1,90,4|0
160,312,67912,1,0
120,288,67993,1,0
80,160,68236,1,0
144,96,68398,1,0
224,136,68560,1,0
256,168,68641,1,0
304,176,68722,1,0
344,152,68804,1,0
376,120,68885,6,0,B|400:80|464:88,1,90,4|0
488,168,69209,1,0
496,216,69290,1,0
400,312,69533,1,0
312,280,69695,1,0
224,320,69858,1,0
184,328,69939,1,0
136,320,70020,1,0
104,296,70101,1,0
88,256,70182,5,4
96,216,70263,1,0
88,168,70344,1,4
160,88,70506,1,0
256,136,70668,1,4
256,136,70993,1,4
336,208,71155,1,0
424,152,71317,1,4
432,48,71479,5,4
272,48,71722,1,0
112,40,71966,1,0
120,144,72128,1,0
128,184,72209,1,0
120,224,72290,1,0
208,328,72452,2,0,B|200:272|224:216,1,90
304,176,72776,5,4
440,264,73020,1,0
480,104,73263,1,0
384,56,73425,1,0
384,56,73506,2,0,B|304:48|208:72,1,135
184,152,73912,1,0
144,168,73993,1,0
104,160,74074,6,0,B|32:168|8:104|24:56,2,135,4|0|0
104,280,74722,1,0
200,336,74885,1,0
320,320,75047,1,0
392,232,75209,2,0,B|424:216,4,22.5
320,152,75533,5,0
280,56,75695,1,0
264,64,75776,1,0
248,72,75858,1,0
232,80,75939,1,0
216,88,76020,5,4
48,144,76263,1,4
104,304,76506,1,4
200,336,76668,2,0,B|248:328|304:336,1,90,0|4
376,272,77155,5,0
280,224,77317,1,0
280,224,77398,2,0,B|232:168|272:88,1,135
296,64,77722,1,0
336,48,77804,1,0
384,48,77885,1,0
424,64,77966,6,0,B|472:96|448:168,1,90,4|0
448,248,78290,1,0
424,280,78371,1,0
272,344,78614,1,0
176,296,78776,1,0
72,312,78939,1,0
48,280,79020,1,0
40,232,79101,1,0
48,184,79182,1,0
72,144,79263,6,0,B|96:104|88:48,1,90,4|0
200,48,79587,1,0
240,56,79668,1,0
368,152,79912,1,0
464,112,80074,1,0
432,216,80236,1,0
392,200,80317,1,0
344,192,80398,1,0
304,208,80479,1,0
264,232,80560,5,4
216,240,80641,1,0
176,224,80722,1,0
200,120,80885,1,0
296,160,81047,1,4
296,160,81371,1,4
400,184,81533,1,0
464,96,81695,1,4
384,24,81858,2,0,B|288:24,1,90,0|4
208,40,82344,6,0,B|232:136|184:240,1,180
168,304,82831,1,0
256,288,82993,2,0,B|344:272,1,90
480,192,83479,5,4
392,152,83804,1,4
296,168,84128,1,4
240,96,84452,6,0,B|224:56|232:8,1,90,4|0
256,192,84939,1,0
272,288,85101,2,0,B|288:328|280:376,1,90,4|0
192,352,85587,1,0
104,312,85749,5,4
96,296,85831,1,0
88,280,85912,1,0
80,264,85993,1,0
72,248,86074,1,0
64,232,86155,1,0
56,216,86236,1,0
64,112,86398,5,4
256,88,86641,1,4
448,112,86885,1,4
496,192,87047,6,0,B|480:288,1,90
392,264,87533,1,0
320,320,87695,2,0,B|288:280|216:264,1,90
152,288,88020,5,4
72,128,88344,1,4
240,64,88668,5,0
328,88,88831,1,0
416,56,88993,1,0
416,232,89317,5,4
176,312,89641,2,0,B|192:256|184:208,1,90,0|0
240,152,90128,1,0
336,72,90290,2,0,B|320:128|328:176,1,90,0|0
272,232,90776,1,0
352,272,90939,6,0,B|360:320,2,45
432,232,91263,1,0
384,152,91425,2,0,B|360:88|392:32|440:8|496:24,2,202.49999396503
304,80,92074,1,0
304,80,92560,5,0
200,72,92722,1,0
112,136,92885,1,0
112,184,92966,1,0
88,224,93047,1,0
96,328,93209,1,0
144,320,93290,1,0
184,296,93371,1,0
232,296,93452,1,0
264,328,93533,5,0
352,248,93695,1,0
344,200,93776,1,0
368,160,93858,1,0
336,56,94020,1,0
248,120,94182,1,0
200,128,94263,1,0
160,104,94344,1,0
56,64,94506,1,0
32,104,94587,1,0
48,144,94668,1,0
56,192,94749,1,0
40,232,94831,5,0
120,304,94993,1,0
152,280,95074,1,0
176,240,95155,1,0
272,288,95317,1,0
368,240,95479,1,0
384,200,95560,1,0
384,152,95641,1,0
496,144,95804,1,0
464,40,95966,1,0
360,48,96128,5,0
256,24,96290,1,0
208,16,96371,1,0
168,32,96452,1,0
136,64,96533,1,0
120,104,96614,1,0
128,152,96695,1,0
144,192,96776,2,0,B|168:240|152:296,1,90
320,328,97101,2,0,B|272:296|256:240,1,90
352,184,97425,5,0
376,144,97506,1,0
368,104,97587,1,0
336,72,97668,1,0
288,72,97749,1,0
112,104,98074,5,0
128,344,98236,2,0,B|112:272|152:176,1,134.999995976687
384,344,98560,2,0,B|400:272|360:176,1,134.999995976687
360,184,98804,1,0
344,152,98885,1,0
320,128,98966,1,0
296,112,99047,1,0
80,144,99371,5,0
176,184,99533,1,0
192,288,99695,1,0
448,248,99858,6,0,B|376:208|280:240,1,134.999995976687
64,248,100182,2,0,B|136:208|232:240,1,134.999995976687
480,152,100506,2,0,B|456:80|376:40,1,134.999995976687
32,152,100831,2,0,B|56:80|136:40,1,134.999995976687
256,296,101155,1,0
192,208,101317,5,0
224,176,101398,1,0
264,160,101479,1,0
304,176,101560,1,0
344,200,101641,1,0
384,192,101722,1,0
416,160,101804,1,0
424,112,101885,1,0
408,72,101966,1,0
176,56,102128,6,0,B|96:72|64:144,1,134.999995976687
336,328,102452,2,0,B|416:312|448:240,1,134.999995976687,0|4
