osu file format v6

[General]
AudioFilename: Atsuki Watanabe - Dry Martini.mp3
AudioLeadIn: 0
PreviewTime: 9110
Countdown: 0
SampleSet: Normal
StackLeniency: 1
Mode: 0
LetterboxInBreaks: 1

[Editor]
Bookmarks: 9130,17853,24396,27258,35981,44023,52747,61470,70193,77008
DistanceSpacing: 0
BeatDivisor: 4
GridSize: 8

[Metadata]
Title:Dry Martini
Artist:Atsuki Watanabe
Creator:Gens
Version:Normal
Source:Guitar Freaks 1st Mix
Tags:Bemani Drummania GuitarFreaks PercussionFreaks Freaks Konami Loogiesquared

[Difficulty]
HPDrainRate:4
CircleSize:4
OverallDifficulty:5
SliderMultiplier:1.4
SliderTickRate:2

[Events]
//Background and Video events
0,0,"DryMartiniBG.png"
//Break Periods
2,24732,26195
//Storyboard Layer 0 (Background)
//Storyboard Layer 1 (Fail)
//Storyboard Layer 2 (Pass)
//Storyboard Layer 3 (Foreground)
//Storyboard Sound Samples
//Background Colour Transformations
3,100,158,33,33

[TimingPoints]
680,545.204545454544,4,1,0,60,1,0
9266,-100,4,1,0,60,0,1
24532,-100,4,1,0,60,0,0
27258,-100,4,2,0,70,0,0
48385,-100,4,1,0,60,0,0
48665,-100,4,2,0,70,0,0
50566,-100,4,1,0,60,0,0
50847,-100,4,2,0,70,0,0
51520,-100,4,1,0,60,0,0
52065,-100,4,2,0,70,0,0
61061,-100,4,1,0,60,0,0
61606,-100,4,1,0,60,0,1
77008,-100,4,2,0,70,0,0
79053,-100,4,1,0,70,0,1
79179,-100,4,1,0,70,0,0

[Colours]
Combo1 : 138,227,17
Combo2 : 255,0,0
Combo3 : 0,128,255

[HitObjects]
112,48,9266,2,2,B|160:24|216:48,1,105,6|2
288,80,9948,2,4,B|304:168|216:192,2,140,4|4|2
408,88,11447,2,2,B|416:152|376:200,1,105,2|6
472,240,12674,5,2
472,120,13219,1,8
400,48,13628,6,2,B|352:24|296:48,1,105,6|2
224,80,14310,2,4,B|208:168|296:192,2,140,4|4|2
104,88,15809,2,2,B|96:152|136:200,1,105,2|6
40,240,17036,5,2
40,120,17581,1,8
104,48,17990,6,2,B|120:104|176:136,1,105,6|2
152,208,18671,2,4,B|264:376|368:200,1,280,4|2
408,48,20171,2,2,B|392:104|336:136,1,105,2|6
296,24,21397,5,2
296,24,21670,1,0
296,24,21942,1,8
408,48,22351,6,2,B|392:104|336:136,1,105,6|2
360,208,23032,2,4,B|248:376|144:200,1,280,4|2
104,48,24532,1,6
256,40,27395,5,0
120,40,27940,2,2,B|120:192|280:192,1,245,2|4
256,112,29166,2,0,B|391:111|392:240,1,210,8|8
256,288,30666,2,0,B|144:288,1,105,0|4
120,152,31756,6,0,B|120:72|216:72,2,140,0|2|0
216,176,33255,1,8
392,152,33937,6,0,B|392:72|296:72,2,140,0|2|8
296,176,35436,1,4
256,40,36118,5,0
392,40,36663,2,2,B|392:192|232:192,1,245,2|4
256,112,37889,2,0,B|121:111|120:240,1,210,8|8
256,288,39389,2,0,B|368:288,1,105,0|4
400,160,40479,6,0,B|296:192|120:192,1,280,0|2
24,192,41979,1,4
24,64,42660,6,0,B|128:32|304:32,1,280,0|8
400,32,44160,1,4
408,136,44568,6,2,B|256:48|256:232|72:136,1,350
168,88,46340,1,4
296,192,47022,2,0,B|152:192,2,140,0|0|8
400,192,48521,6,0,B|400:256|472:256,1,105,4|2
464,112,49475,1,0
464,112,49748,1,8
408,24,50293,1,8
307,23,50702,6,0,B|195:23,1,105,4|2
256,104,51656,1,4
221,192,52201,2,8,B|301:192,1,70
384,192,52883,5,4
384,288,53292,2,0,B|168:288,1,210,2|8
112,192,54518,1,8
168,128,54791,1,0
224,64,55064,2,2,B|264:32|336:32,1,105,0|4
256,192,56563,5,8
256,192,56836,1,8
352,248,57244,6,4,B|352:360|160:360|160:240,1,280
190,111,59289,6,4,B|190:23|326:23|326:119,1,210,4|12
440,136,60652,5,2
440,136,60925,1,0
440,136,61197,1,8
400,48,61606,6,2,B|352:24|296:48,1,105,6|2
224,80,62288,2,4,B|208:168|296:192,2,140,4|4|2
104,88,63787,2,2,B|96:152|136:200,1,105,2|6
40,240,65014,5,2
40,120,65559,1,8
112,48,65968,6,2,B|160:24|216:48,1,105,6|2
288,80,66650,2,4,B|304:168|216:192,2,140,4|4|2
408,88,68149,2,2,B|416:152|376:200,1,105,2|6
472,240,69376,5,2
472,120,69921,1,8
408,48,70330,6,2,B|392:104|336:136,1,105,6|2
360,208,71011,2,4,B|248:376|144:200,1,280,4|2
104,48,72511,2,2,B|120:104|176:136,1,105,2|6
216,24,73737,5,2
216,24,74010,1,0
216,24,74282,1,8
104,48,74691,6,2,B|120:104|176:136,1,105,6|2
152,208,75372,2,4,B|264:376|368:200,1,280,4|2
408,48,76872,1,6
256,192,77144,12,4,79053
