osu file format v6

[General]
AudioFilename: Atsuki Watanabe - Dry Martini.mp3
AudioLeadIn: 1000
PreviewTime: 9110
Countdown: 0
SampleSet: Normal
StackLeniency: 1
Mode: 0
LetterboxInBreaks: 1

[Editor]
Bookmarks: 9130,17853,24396,27258,35981,44023,52747,61470,70193,77008
DistanceSpacing: 0
BeatDivisor: 4
GridSize: 8

[Metadata]
Title:Dry Martini
Artist:Atsuki Watanabe
Creator:Gens
Version:LoogieStyle
Source:Guitar Freaks 1st Mix
Tags:Bemani Drummania GuitarFreaks PercussionFreaks Freaks Konami Loogiesquared

[Difficulty]
HPDrainRate:5
CircleSize:5
OverallDifficulty:5
SliderMultiplier:1.2
SliderTickRate:2

[Events]
//Background and Video events
0,0,"DryMartiniBG.png"
//Break Periods
2,33455,34918
2,57444,60406
//Storyboard Layer 0 (Background)
//Storyboard Layer 1 (Fail)
//Storyboard Layer 2 (Pass)
//Storyboard Layer 3 (Foreground)
//Storyboard Sound Samples
//Background Colour Transformations
3,100,158,33,33

[TimingPoints]
680,545.204545454543,4,1,0,60,1,0
9266,-100,4,1,0,60,0,1
24532,-100,4,1,0,60,0,0
24805,-100,4,2,0,60,0,0
26577,-100,4,1,0,60,0,0
27248,-100,4,2,0,70,0,0
48385,-100,4,1,0,60,0,0
48665,-100,4,2,0,70,0,0
50566,-100,4,1,0,60,0,0
50838,-100,4,2,0,70,0,0
51520,-100,4,1,0,60,0,0
52065,-100,4,2,0,70,0,0
61061,-100,4,1,0,60,0,0
61606,-100,4,1,0,60,0,1
77008,-100,4,2,0,70,0,0
79053,-100,4,1,0,70,0,1
79189,-100,4,1,0,70,0,0

[Colours]
Combo1 : 138,227,17
Combo2 : 255,0,0
Combo3 : 0,128,255

[HitObjects]
408,72,543,1,4
40,72,2315,5,2
72,72,2451,1,0
136,72,2724,2,0,B|160:48|176:128|224:64,1,90,4|0
392,72,3951,5,0
328,72,4223,1,0
264,72,4496,2,4,B|240:48|224:128|176:64,1,90,4|6
88,192,5586,5,0
144,168,5859,1,0
200,192,6132,1,8
256,168,6404,1,0
312,192,6677,1,2
312,192,6813,1,0
368,168,7086,2,4,B|392:136|424:200|464:160,1,90,4|4
392,344,8312,5,2
328,344,8585,1,0
360,288,8858,1,8
360,288,8994,1,4
352,224,9266,6,2,B|392:136,1,90,6|8
328,144,9948,2,0,B|368:64,1,60,2|8
296,96,10493,2,0,B|328:16,1,60,2|8
256,32,11038,1,2
256,32,11175,1,0
256,96,11447,2,0,B|288:128|224:160|272:200,1,90,6|4
144,24,12674,5,2
144,88,12947,1,0
144,152,13219,1,8
144,152,13356,1,8
144,216,13628,2,0,B|168:240|96:264|152:312,1,90,4|0
312,336,14855,5,2
312,272,15127,1,0
312,208,15400,1,8
312,208,15536,1,0
312,144,15809,2,0,B|336:120|264:96|320:48,1,90,4|2
232,248,17036,5,2
200,192,17308,1,0
264,192,17581,1,8
296,192,17717,1,8
344,136,17990,5,4
168,136,18671,1,0
256,40,19216,1,0
352,192,19762,5,2
352,192,19898,1,0
352,120,20171,2,0,B|320:160|304:64|264:136,1,90,4|0
96,64,21397,5,2
96,128,21670,1,0
96,192,21942,1,8
96,192,22079,1,8
96,256,22351,5,4
256,256,23033,1,0
320,136,23578,1,2
256,136,23851,1,0
192,136,24123,1,8
256,200,24532,5,4
256,72,24941,6,0,B|256:40,1,30,0|2
288,88,25214,2,2,B|320:72,1,30
288,128,25486,2,2,B|320:144,1,30
256,160,25759,2,2,B|256:192,1,30
224,128,26032,2,2,B|192:144,1,30
40,192,26713,5,4
96,104,27395,5,0
128,56,27667,1,8
152,104,27940,2,2,B|192:80,1,30
200,104,28212,2,2,B|240:88,1,30,0|2
288,104,28621,1,0
344,104,28894,1,4
312,152,29166,2,0,B|360:176,1,30,8|0
392,192,29575,1,0
448,216,29848,1,8
448,216,29984,1,0
56,192,31756,5,0
104,152,32029,1,8
152,192,32301,2,2,B|184:128|216:264|264:176,1,120,2|2
250,195,32983,1,0
318,195,33255,1,4
416,104,36118,5,0
384,48,36390,1,8
360,104,36663,2,2,B|320:80,1,30
312,104,36936,2,2,B|272:88,1,30,0|2
224,104,37345,1,2
168,104,37617,1,4
200,152,37890,6,0,B|152:176,1,30,8|0
120,192,38299,1,0
64,216,38571,1,8
64,216,38708,1,0
64,64,39389,5,0
64,64,39798,1,4
64,184,40479,5,0
112,144,40752,1,8
160,184,41025,1,2
208,144,41297,1,0
256,184,41570,1,2
256,184,41706,1,0
304,144,41979,1,4
336,72,43205,6,0,B|352:40,1,30,8|0
376,96,43478,2,0,B|416:72,1,30
376,144,43751,2,0,B|408:168,1,30
336,176,44023,2,4,B|344:208,1,30,0|4
240,264,44568,5,2
280,216,44841,1,8
240,168,45114,1,0
280,120,45386,1,8
240,72,45659,1,0
280,24,45931,1,8
280,24,46068,1,2
320,72,46340,2,0,B|376:64|344:136|392:120,1,90,4|0
376,360,47840,5,2
376,296,48112,1,8
376,296,48249,1,0
376,232,48521,2,0,B|248:192|248:296|112:232,1,270,4|8
128,168,50021,1,2
112,104,50293,1,8
112,104,50429,1,0
176,128,50702,6,0,B|280:88|280:192|400:128,1,210,4|4
480,72,52201,1,2
464,136,52474,1,8
464,136,52610,1,2
416,88,52883,6,0,B|360:64|288:112|256:72,1,150,0|8
208,80,53837,1,0
144,80,54110,2,2,B|144:32,1,30
112,48,54382,2,2,B|112:96,1,30,0|2
72,128,54791,1,2
128,160,55064,1,0
232,160,55473,1,8
256,192,55609,12,4,57244
352,224,61606,6,2,B|392:136,1,90,6|8
328,144,62288,2,0,B|368:64,1,60,2|8
296,96,62833,2,0,B|328:16,1,60,2|8
256,32,63378,1,2
256,32,63514,1,0
256,96,63787,2,0,B|288:128|224:160|272:200,1,90,6|4
144,24,65014,5,2
144,88,65286,1,0
144,152,65559,1,8
144,152,65695,1,8
144,216,65968,2,0,B|168:240|96:264|152:312,1,90,4|0
312,336,67194,5,2
312,272,67467,1,0
312,208,67740,1,8
312,208,67876,1,0
312,144,68149,2,0,B|336:120|264:96|320:48,1,90,4|2
232,248,69375,5,2
200,192,69648,1,0
264,192,69920,1,8
296,192,70057,1,8
344,136,70329,5,4
168,136,71011,1,0
256,40,71556,1,0
352,192,72101,5,2
352,192,72238,1,0
352,120,72510,2,0,B|320:160|304:64|264:136,1,90,4|0
96,64,73737,5,2
96,128,74010,1,0
96,192,74282,1,8
96,192,74418,1,8
96,256,74691,5,4
256,256,75373,1,0
320,136,75918,1,2
256,136,76190,1,0
192,136,76463,1,8
256,200,76872,5,4
256,192,77008,12,4,79053
