osu file format v6

[General]
AudioFilename: Atsuki Watanabe - Dry Martini.mp3
AudioLeadIn: 0
PreviewTime: 9110
Countdown: 0
SampleSet: Normal
StackLeniency: 1
Mode: 0
LetterboxInBreaks: 1

[Editor]
Bookmarks: 9130,17853,24396,27258,35981,44023,52747,61470,70193,77008
DistanceSpacing: 0
BeatDivisor: 6
GridSize: 8

[Metadata]
Title:Dry Martini
Artist:Atsuki Watanabe
Creator:Gens
Version:Expert
Source:Guitar Freaks 1st Mix
Tags:Bemani Drummania GuitarFreaks PercussionFreaks Freaks Konami Loogiesquared

[Difficulty]
HPDrainRate:6
CircleSize:4
OverallDifficulty:7
SliderMultiplier:1.9
SliderTickRate:2

[Events]
//Background and Video events
0,0,"DryMartiniBG.png"
//Break Periods
2,24732,26495
//Storyboard Layer 0 (Background)
//Storyboard Layer 1 (Fail)
//Storyboard Layer 2 (Pass)
//Storyboard Layer 3 (Foreground)
//Storyboard Sound Samples
//Background Colour Transformations
3,100,158,33,33

[TimingPoints]
680,545.204545454544,4,1,0,60,1,0
9266,-100,4,1,0,60,0,1
24532,-100,4,1,0,60,0,0
27258,-100,4,2,0,70,0,0
48385,-100,4,1,0,60,0,0
48657,-100,4,2,0,70,0,0
50566,-100,4,1,0,60,0,0
50838,-100,4,2,0,70,0,0
51520,-100,4,1,0,60,0,0
52065,-100,4,2,0,70,0,0
61061,-100,4,1,0,60,0,0
61606,-100,4,1,0,60,0,1
76940,-100,4,2,0,70,0,0
79053,-100,4,1,0,70,0,1
79189,-100,4,1,0,70,0,0

[Colours]
Combo1 : 138,227,17
Combo2 : 255,0,0
Combo3 : 0,128,255

[HitObjects]
184,56,9266,6,2,B|256:24|344:64,1,142.5,6|2
320,152,9948,1,4
320,152,10221,1,0
192,152,10493,1,4
192,152,10766,1,0
256,256,11038,1,2
256,256,11175,1,0
184,328,11447,2,2,B|256:360|344:320,1,142.5,6|2
322,328,12129,1,4
472,280,12674,5,2
392,192,12947,1,0
472,104,13219,1,8
472,104,13356,1,8
328,328,13628,6,2,B|256:360|168:320,1,142.5,6|2
192,232,14310,1,4
192,232,14582,1,0
320,232,14855,1,4
320,232,15127,1,0
256,128,15400,1,2
256,128,15536,1,0
328,56,15809,2,2,B|256:24|168:64,1,142.5,6|2
190,56,16490,1,4
40,280,17036,5,2
120,192,17308,1,0
40,104,17581,1,8
40,104,17717,1,8
160,104,17990,6,2,B|264:104,1,95,6|2
255,104,18399,1,0
352,176,18671,2,0,B|248:176,1,95,4|0
160,248,19216,2,0,B|264:248,1,95,4|0
352,320,19762,1,2
352,320,19898,1,0
256,320,20171,2,2,B|144:320,1,95,2|2
161,320,20579,1,0
161,320,20852,1,4
216,184,21397,6,0,B|256:136|296:184,1,95,2|0
256,256,21942,1,8
256,256,22079,1,8
352,104,22351,6,2,B|248:104,1,95,6|2
257,104,22760,1,0
160,176,23033,2,0,B|264:176,1,95,4|0
352,248,23578,2,0,B|248:248,1,95,2|0
163,248,24123,1,2
163,248,24260,2,0,B|258:248,1,95,0|4
192,40,27395,5,0
320,40,27667,1,8
256,128,27940,2,2,B|168:128|168:224,1,142.5,2|2
256,264,28621,2,0,B|392:264,1,95,2|4
472,192,29166,6,8,B|416:152|392:240|328:176,1,142.5
256,120,29848,1,2
256,120,29984,1,0
256,120,30257,1,0
168,320,30666,5,8
344,320,31075,1,4
184,120,31756,5,0
184,264,32029,1,8
328,264,32301,1,2
328,120,32574,1,0
256,288,32847,1,0
256,288,32983,2,0,B|256:176,1,95,2|4
256,32,33937,5,8
256,32,34210,1,0
208,120,34482,2,0,B|256:80|256:160|328:96,1,95,2|8
296,216,35027,1,0
296,216,35164,2,0,B|248:176|248:256|176:192,1,95,2|4
320,40,36118,5,0
192,40,36390,1,8
256,128,36663,2,2,B|344:128|344:224,1,142.5,2|2
256,264,37345,2,0,B|120:264,1,95,2|4
40,192,37890,6,8,B|96:152|120:240|184:176,1,142.5
256,120,38571,1,2
256,120,38708,1,0
256,120,38980,1,0
344,320,39389,5,8
168,320,39798,1,4
336,232,40479,6,0,B|376:192|336:136,1,95,0|8
169,145,41025,2,0,B|136:192|176:232,1,95,2|0
256,144,41570,1,0
256,144,41706,2,0,B|296:192|200:192|272:256,1,95,2|4
256,40,42660,5,8
256,40,42933,1,8
184,80,43205,1,8
256,120,43387,1,8
256,120,43478,1,0
328,80,43660,1,0
328,80,43751,1,0
256,120,43932,2,0,B|256:216,1,95,8|6
400,192,44568,6,0,B|400:88,2,95,2|0|2
256,192,45386,2,0,B|256:296,1,95,8|2
112,192,45931,1,0
112,192,46068,2,0,B|112:88,1,95,2|4
400,192,46749,6,0,B|400:88,2,95,2|0|2
256,192,47567,2,0,B|256:296,1,95,8|2
112,192,48112,1,8
112,192,48249,1,10
256,56,48521,6,0,B|296:128|224:128|260:201,1,142.5,4|2
168,264,49203,1,8
256,264,49475,1,2
344,264,49748,1,0
256,264,50021,1,2
168,264,50293,1,8
168,264,50429,1,0
256,352,50702,6,0,B|296:280|224:280|256:208,1,142.5,4|2
252,216,51656,1,4
210,73,52201,2,8,B|314:73,1,95
305,73,52610,1,2
480,192,52883,6,0,B|400:152|312:208,1,142.5,4|2
256,152,53564,2,0,B|256:256,1,95,8|2
120,320,54110,2,0,B|200:280|288:336,1,142.5,8|8
257,319,54791,1,0
394,320,55064,2,2,B|314:280|226:336,1,142.5,0|4
256,80,56563,5,8
256,80,56836,1,8
256,80,56972,1,2
120,56,57244,5,4
192,192,57653,1,2
320,192,57926,1,2
392,288,58199,1,4
392,288,58335,1,0
104,320,59289,5,4
408,64,60107,1,12
200,136,60652,5,2
312,136,60925,1,0
256,232,61197,1,8
256,232,61334,1,8
328,56,61606,6,2,B|256:24|168:64,1,142.5,6|2
192,152,62288,1,4
192,152,62560,1,0
320,152,62833,1,4
320,152,63105,1,0
256,256,63378,1,2
256,256,63514,1,0
328,328,63787,2,2,B|256:360|168:320,1,142.5,6|2
190,328,64468,1,4
40,280,65014,5,2
120,192,65286,1,0
40,104,65559,1,8
40,104,65695,1,8
184,328,65968,6,2,B|256:360|344:320,1,142.5,6|2
320,232,66649,1,4
320,232,66922,1,0
192,232,67194,1,4
192,232,67467,1,0
256,128,67740,1,2
256,128,67876,1,0
184,56,68149,2,2,B|256:24|344:64,1,142.5,6|2
322,56,68830,1,4
472,280,69375,5,2
392,192,69648,1,0
472,104,69920,1,8
472,104,70057,1,8
352,104,70329,6,2,B|248:104,1,95,6|2
257,104,70738,1,0
160,176,71011,2,0,B|264:176,1,95,4|0
352,248,71556,2,0,B|248:248,1,95,4|0
160,320,72101,1,2
160,320,72238,1,0
256,320,72510,2,2,B|368:320,1,95,2|2
351,320,72919,1,0
351,320,73192,1,4
296,184,73737,6,0,B|256:136|216:184,1,95,2|0
256,256,74282,1,8
256,256,74418,1,8
160,104,74691,6,2,B|264:104,1,95,6|2
255,104,75100,1,0
352,176,75373,2,0,B|248:176,1,95,4|0
160,248,75918,2,0,B|264:248,1,95,2|0
349,248,76463,1,2
349,248,76599,2,0,B|254:248,1,95,0|4
254,248,77144,6,0,B|296:184|216:184|264:88,1,142.5,0|2
253,112,77690,1,2
168,112,77962,2,0,B|128:184|200:200|168:272,1,142.5,4|0
175,248,78644,1,8
175,248,78780,1,0
256,344,79053,5,4
