osu file format v9

[General]
AudioFilename: UNDER WORLD.mp3
AudioLeadIn: 0
PreviewTime: 12521
Countdown: 0
SampleSet: Normal
StackLeniency: 0.7
Mode: 0
LetterboxInBreaks: 1

[Editor]
Bookmarks: 521,12521,24521,36521,48521,60521,72521,84521,96521,110021,122021,134021,146021,158021,170021,182021,194021,206021,219521,231521,243521,255521
DistanceSpacing: 1
BeatDivisor: 4
GridSize: 4

[Metadata]
Title:UNDER WORLD
Artist:Atoguru
Creator:sirjuyt
Version:Hurt
Source:Touhou
Tags:C-CLAYS Mai Kotoge MUON subterranean animism Hartmann's Youkai Girl Koishi Komeiji [Kirisame-Marisa] Yia eikkaleyd

[Difficulty]
HPDrainRate:5
CircleSize:4
OverallDifficulty:6
ApproachRate:7
SliderMultiplier:1.6
SliderTickRate:1

[Events]
//Background and Video events
0,0,"koishi.jpg"
//Break Periods
2,84767,95667
2,158267,169167
//Storyboard Layer 0 (Background)
//Storyboard Layer 1 (Fail)
//Storyboard Layer 2 (Pass)
//Storyboard Layer 3 (Foreground)
//Storyboard Sound Samples
//Background Colour Transformations
3,100,163,162,255

[TimingPoints]
12567,375,4,1,0,80,1,0
24567,-133.333333333333,4,2,0,80,0,0
26442,-133.333333333333,4,1,0,70,0,0
27567,-133.333333333333,4,2,0,80,0,0
29067,-133.333333333333,4,1,0,70,0,0
30567,-133.333333333333,4,2,0,80,0,0
32442,-133.333333333333,4,1,0,70,0,0
33567,-133.333333333333,4,2,0,80,0,0
35067,-100,4,1,0,70,0,0
36567,-100,4,2,0,80,0,0
39567,-100,4,2,0,90,0,0
42567,-100,4,2,0,80,0,0
45567,-100,4,2,0,90,0,0
47067,-100,4,2,0,100,0,0
48567,-100,4,1,0,80,0,0
60567,-133.333333333333,4,2,0,80,0,0
62442,-133.333333333333,4,1,0,70,0,0
63567,-133.333333333333,4,2,0,80,0,0
65067,-133.333333333333,4,1,0,70,0,0
66567,-133.333333333333,4,2,0,80,0,0
68442,-133.333333333333,4,1,0,70,0,0
69567,-133.333333333333,4,2,0,80,0,0
71067,-100,4,1,0,70,0,0
72567,-100,4,2,0,80,0,0
75567,-100,4,2,0,90,0,0
78567,-100,4,2,0,80,0,0
81567,-100,4,2,0,90,0,0
83067,-100,4,2,0,100,0,0
84567,-100,4,1,0,60,0,0
107067,-100,4,2,0,60,0,0
108942,-100,4,1,0,60,0,0
109879,-100,4,2,0,60,0,0
110067,-100,4,1,0,60,0,0
122067,-100,4,2,0,80,0,0
125067,-100,4,2,0,90,0,0
128067,-100,4,2,0,80,0,0
131067,-100,4,2,0,90,0,0
132567,-100,4,2,0,100,0,0
134067,-133.333333333333,4,2,0,80,0,0
135942,-133.333333333333,4,1,0,70,0,0
137067,-133.333333333333,4,2,0,80,0,0
138567,-133.333333333333,4,1,0,70,0,0
140067,-133.333333333333,4,2,0,80,0,0
141942,-133.333333333333,4,1,0,70,0,0
143067,-133.333333333333,4,2,0,80,0,0
144567,-100,4,1,0,70,0,0
146067,-100,4,2,0,80,0,0
149067,-100,4,2,0,90,0,0
152067,-100,4,2,0,80,0,0
155067,-100,4,2,0,90,0,0
156567,-100,4,2,0,100,0,0
158067,-100,4,1,0,60,0,0
182067,-100,4,1,0,60,0,0
204567,-100,4,2,0,60,0,0
206442,-100,4,1,0,60,0,0
207379,-100,4,2,0,60,0,0
207567,-100,4,1,0,60,0,0
231567,-100,4,2,0,80,0,0
234567,-100,4,2,0,90,0,0
237567,-100,4,2,0,80,0,0
240567,-100,4,2,0,90,0,0
242817,-100,4,1,0,70,0,0
243660,-100,4,2,0,70,0,0
244692,-100,4,2,0,60,0,0
245817,-100,4,2,0,50,0,0
246942,-100,4,2,0,40,0,0
248067,-100,4,2,0,30,0,0

[Colours]
Combo1 : 255,255,255
Combo2 : 255,255,120
Combo3 : 160,225,160

[HitObjects]
312,192,12567,2,0,B|392:192,2,80
312,112,13129,2,2,B|248:120|200:160,1,120,2|2
216,40,13692,1,8
88,240,14067,5,0
144,296,14254,1,0
68,320,14442,1,0
168,224,14629,2,2,B|216:192|280:184,1,120
280,264,15004,2,0,B|280:184,1,80,0|8
280,104,15379,1,0
352,144,15567,5,0
352,224,15754,1,0
279,184,15942,1,0
424,184,16129,2,0,B|440:120|424:64,2,120,2|2|8
280,264,17067,5,0
352,304,17254,1,0
424,264,17442,1,0
352,224,17629,2,2,B|312:176|248:160,1,120
293,92,18004,2,0,B|252:161,1,80,0|8
208,224,18379,1,0
168,296,18567,6,0,B|136:320|136:320|96:328,1,80,4|0
104,248,18942,1,0
24,208,19129,2,2,B|72:172|72:172|132:160,1,120
32,96,19692,1,8
32,96,20067,5,0
136,40,20254,1,0
192,144,20442,1,0
296,88,20629,2,2,B|312:128|344:152|392:152,1,120
435,86,21004,2,0,B|388:151,1,80,0|8
336,216,21379,1,0
388,276,21567,5,0
336,336,21754,1,0
280,276,21942,1,0
448,336,22129,1,2
224,336,22410,1,2
372,204,22692,2,2,B|334:220|294:202,1,80,2|0
220,172,23067,5,8
300,116,23254,1,0
228,268,23442,2,0,B|188:268,1,40,8|0
300,116,23817,1,10
124,116,24098,1,10
228,268,24379,1,2
256,192,24567,12,2,26067
196,228,26442,6,0,B|256:248|322:226,1,120.000004577637
256,136,27192,1,0
256,192,27567,12,2,28692
248,271,29067,6,0,B|216:262|193:239,1,59.9999982118607,2|0
256,192,29442,1,0
269,116,29629,2,0,B|296:123|320:146,1,59.9999982118607,2|0
328,232,30004,1,0
184,152,30192,1,2
256,192,30567,12,2,32067
256,248,32442,5,0
196,144,32817,2,0,B|256:128|316:144,1,120.000004577637
256,192,33567,12,2,34692
376,128,35067,6,2,B|413:144|430:183,1,80,2|2
328,232,35442,1,0
328,232,35535,1,2
184,232,35723,1,0
184,232,35817,2,8,B|144:280|144:280|88:296,2,120,2|8|0
216,160,36567,5,4
170,99,36754,1,0
136,166,36942,1,8
296,224,37317,1,0
342,285,37504,1,0
376,218,37692,1,8
256,112,38067,5,0
184,72,38254,1,0
112,112,38442,1,8
256,272,38817,1,0
328,312,39004,1,0
400,272,39192,1,8
304,144,39567,6,0,B|296:104|296:104|304:64,1,80
392,104,39942,1,8
208,240,40317,2,0,B|216:280|216:280|208:320,1,80
120,280,40692,1,8
168,112,41067,5,0
256,64,41254,1,0
344,112,41442,1,8
344,272,41817,1,0
256,320,42004,1,0
168,272,42192,1,8
296,152,42567,6,0,B|352:95,2,80,4|0|8
256,80,43129,1,0
216,152,43317,2,0,B|159:95,2,80,0|0|8
144,192,43879,1,0
216,232,44067,2,0,B|159:288,2,80,0|0|8
256,304,44629,1,0
296,232,44817,2,0,B|352:288,2,80,0|0|8
368,192,45379,1,0
296,152,45567,6,0,B|280:112|296:64,1,80
360,112,45942,2,0,B|400:112,2,40,8|0|0
216,232,46317,2,0,B|232:272|216:320,1,80
152,272,46692,2,0,B|112:272,2,40,8|0|0
216,152,47067,5,2
168,88,47254,1,0
88,80,47442,2,0,B|48:64,2,40,8|0|0
296,232,47817,1,2
344,296,48004,1,0
424,304,48192,2,0,B|464:320,2,40,8|0|0
400,184,48567,5,4
472,144,48754,1,0
400,104,48942,2,0,B|360:96|336:56,1,80,0|2
256,192,49410,1,2
174,58,49692,2,0,B|152:96|112:104,1,80,8|0
40,144,50067,5,0
112,184,50254,1,0
152,256,50442,1,0
184,328,50629,2,2,B|248:360|312:328,1,120
351,272,51004,2,0,B|300:333,1,80,0|8
256,264,51379,1,0
256,184,51567,5,0
328,224,51754,1,0
184,224,51942,1,0
336,144,52129,2,2,B|392:128|424:152|424:152|472:152,2,120,2|2|8
176,144,53067,6,0,B|136:136|96:144,1,80
72,72,53442,1,0
96,143,53629,2,2,B|128:192|128:272,1,120
127,258,54004,1,0
256,312,54192,1,8
380,258,54379,1,0
380,176,54567,5,4
304,144,54754,2,0,B|320:104|368:96,1,80
440,128,55129,1,2
320,223,55410,2,2,B|296:283|224:295,1,120,2|8
168,144,56067,5,0
236,104,56254,1,0
304,144,56442,1,0
236,188,56629,2,2,B|260:248|332:260,1,120
326,258,57004,1,0
376,188,57192,1,8
284,328,57379,1,0
124,328,57567,6,0,B|169:340|214:328,2,80
164,256,58129,1,2
104,152,58410,2,2,B|164:136|224:152,1,120,2|8
376,189,59067,5,0
376,312,59254,1,0
304,216,59442,2,0,B|272:192,1,40,8|0
448,285,59817,1,10
376,104,60098,1,10
248,248,60379,1,2
256,192,60567,12,2,62067
320,256,62442,5,0
168,220,62817,1,0
272,104,63192,1,0
256,192,63567,12,2,64692
256,280,65067,6,0,B|256:216,1,59.9999982118607,2|0
192,156,65442,1,0
280,136,65629,1,2
336,208,65817,1,0
192,156,66004,1,0
308,56,66192,1,2
256,192,66567,12,2,68067
192,264,68442,5,0
344,228,68817,1,0
240,112,69192,1,0
256,192,69567,12,2,70692
256,312,71067,6,2,B|256:224,1,80
328,272,71442,1,0
348,237,71535,1,2
184,272,71723,1,0
164,237,71817,2,2,B|144:200|144:200|144:120,2,120,2|8|0
256,312,72567,5,4
256,312,72754,1,0
288,240,72942,2,0,B|328:256|368:240,1,80,8|0
256,72,73317,1,0
256,72,73504,1,0
224,144,73692,2,0,B|184:128|144:144,1,80,8|0
184,216,74067,6,0,B|144:232|104:216,1,80
71,288,74442,2,0,B|105:216,1,80,8|0
328,168,74817,2,0,B|368:152|408:168,1,80
440,95,75192,2,0,B|406:167,1,80,8|0
368,240,75567,5,0
369,322,75754,1,0
438,282,75942,1,8
144,144,76317,1,0
143,62,76504,1,0
74,102,76692,1,8
180,287,77067,5,0
121,344,77254,1,0
101,267,77442,1,8
331,96,77817,1,0
390,39,78004,1,0
410,116,78192,1,8
376,304,78567,6,0,B|328:328|296:336,1,80,4|0
224,352,78942,1,8
224,352,79129,1,0
95,223,79317,2,0,B|143:247|169:254,1,80
248,272,79692,1,8
248,272,79879,1,0
136,79,80067,6,0,B|184:56|209:49,1,80
288,32,80442,1,8
288,32,80629,1,0
416,160,80817,2,0,B|368:136|343:130,1,80
264,112,81192,1,8
264,112,81379,1,0
184,144,81567,5,4
112,184,81754,1,0
184,224,81942,2,0,B|232:216|256:192,1,80,8|0
328,240,82317,1,0
400,200,82504,1,0
328,160,82692,2,0,B|280:168|256:192,1,80,8|0
184,144,83067,5,0
144,72,83254,1,0
104,144,83442,2,0,B|112:192|136:216,1,80,8|0
328,240,83817,1,0
368,312,84004,1,0
408,240,84192,2,0,B|400:192|376:168,1,80,8|0
256,188,84567,5,4
256,152,96567,5,4
216,80,96754,2,0,B|256:60|304:84,1,80,0|8
336,152,97129,1,0
336,152,97223,2,0,B|344:224|416:240,1,120
256,256,97692,2,0,B|256:336,1,80,8|0
175,152,98067,2,2,B|168:224|104:237,2,120
176,72,98817,2,2,B|256:40|336:72,1,160
392,304,99567,5,2
392,304,99942,2,2,B|360:256|288:280|272:192,1,160
272,128,100504,1,0
272,128,100598,1,0
272,128,100692,1,8
360,168,100879,1,0
184,168,101067,6,2,B|177:240|104:248,1,120
111,327,101442,2,0,B|108:247,1,80,0|0
104,168,101817,1,0
104,168,102004,1,0
104,168,102192,1,8
400,328,102567,5,4
400,328,102942,2,2,B|360:288|384:216|440:200,1,160
384,144,103504,2,0,B|424:128,2,40,0|0|8
256,72,103879,1,0
112,56,104067,5,0
112,56,104442,2,2,B|152:96|128:168|72:184,1,160
128,240,105004,2,0,B|88:256,2,40,0|0|8
200,208,105379,1,0
256,344,105567,6,2,B|256:264,1,80
328,304,105942,1,8
184,304,106129,1,0
184,304,106223,2,2,B|168:240|96:224,1,120
40,168,106692,2,0,B|116:145,1,80,8|2
256,192,107067,12,4,108567
256,240,108942,6,0,B|256:280,2,40
368,168,109317,2,0,B|256:120|128:168,1,240
168,240,110067,6,0,B|160:280|160:280|128:304,2,80,4|0|0
256,328,110629,1,2
408,224,110910,1,2
244,144,111192,2,2,B|200:136|188:92,1,80,2|0
160,20,111567,5,8
240,36,111754,1,0
312,76,111942,1,0
352,148,112129,2,2,B|340:214|274:231,1,120
332,287,112504,2,0,B|275:230,1,80,0|8
218,173,112879,1,0
140,148,113067,5,0
115,293,113254,2,0,B|144:272|152:224,1,80
294,315,113629,2,2,B|288:262|232:216,2,120,2|2|8
424,224,114567,5,0
368,168,114754,1,0
336,96,114942,1,0
320,16,115129,2,2,B|272:64|208:64,1,120
213,63,115504,1,0
192,144,115692,2,0,B|152:128|136:88,1,80,8|0
72,136,116067,5,0
120,200,116254,1,0
72,264,116442,1,0
192,312,116629,2,2,B|256:296|320:312,2,120,2|2|8
440,264,117567,5,0
392,200,117754,1,0
440,136,117942,1,0
320,72,118129,2,2,B|256:88|192:72,1,120
181,121,118504,2,0,B|144:192,2,80,0|8|0
256,192,119067,5,0
200,252,119254,1,0
312,252,119442,1,0
144,192,119629,1,2
368,192,119910,1,2
220,328,120192,2,2,B|258:311|298:329,1,80,2|0
372,360,120567,5,8
392,280,120754,1,0
368,192,120942,2,0,B|320:192,1,40,8|0
312,72,121317,2,10,B|256:96|192:72,2,120,10|10|2
384,112,122067,5,4
384,112,122254,2,0,B|432:96|464:96,1,80,0|8
296,328,122817,1,0
296,328,123004,2,0,B|248:344|216:344,1,80,0|8
216,112,123567,5,0
216,112,123754,2,0,B|264:96|296:96,1,80,0|8
128,328,124317,1,0
128,328,124504,2,0,B|80:344|48:344,1,80,0|8
144,192,125067,5,0
80,152,125254,2,0,B|64:192|80:232,1,80,0|8
368,192,125817,1,0
432,153,126004,2,0,B|448:192|432:232,1,80,0|8
192,64,126567,5,0
256,112,126754,1,0
320,64,126942,1,8
320,320,127317,1,0
256,272,127504,1,0
192,320,127692,1,8
408,192,128067,6,0,B|488:192,2,80,4|0|8
328,192,128629,1,0
280,128,128817,2,0,B|240:58,2,80,0|0|8
328,192,129379,1,0
288,264,129567,2,0,B|248:333,2,80,0|0|8
328,192,130129,1,0
408,192,130317,2,0,B|488:192,2,80,0|0|8
328,192,130879,1,0
256,152,131067,6,0,B|208:144|184:104,1,80,4|0
264,72,131442,2,0,B|292:43,2,40,8|0|0
256,232,131817,2,0,B|304:240|328:280,1,80
248,312,132192,2,0,B|219:340,2,40,8|0|0
160,232,132567,5,2
96,184,132754,1,0
120,112,132942,2,0,B|120:64,2,40,8|0|0
352,152,133317,1,2
416,200,133504,1,0
392,272,133692,2,0,B|392:320,2,40,8|0|0
256,192,134067,12,2,135567
168,120,135942,5,0
224,224,136317,2,0,B|288:224,1,59.9999982118607
344,272,136692,1,0
256,192,137067,12,2,138192
216,286,138567,5,2
280,240,138754,2,0,B|302:216|312:184,1,59.9999982118607
316,113,139129,1,2
219,168,139317,2,0,B|163:136,2,59.9999982118607,0|0|2
256,192,140067,12,2,141567
344,264,141942,5,0
288,160,142317,2,0,B|224:160,1,59.9999982118607
168,112,142692,1,0
256,192,143067,12,2,144192
296,72,144567,5,2
216,72,144754,1,2
328,144,144942,2,0,B|368:144,1,40,0|2
184,144,145223,2,0,B|144:144,1,40,0|2
200,248,145598,2,0,B|256:280|320:248,1,120,8|0
384,208,146067,5,4
432,144,146254,1,0
464,216,146442,2,0,B|456:264|416:280,1,80,8|0
256,288,146817,1,0
320,336,147004,1,0
248,368,147192,2,0,B|200:360|184:320,1,80,8|0
128,176,147567,5,0
80,240,147754,1,0
48,168,147942,2,0,B|56:120|96:104,1,80,8|0
256,112,148317,1,0
192,64,148504,1,0
264,32,148692,2,0,B|312:40|328:80,1,80,8|0
328,160,149067,6,0,B|352:200|352:240,1,80
423,200,149442,2,0,B|351:235,1,80,8|0
184,224,149817,2,0,B|160:184|160:144,1,80
88,183,150192,2,0,B|160:148,1,80,8|0
268,96,150567,5,0
347,86,150754,1,0
301,22,150942,1,8
244,288,151317,1,0
165,298,151504,1,0
211,362,151692,1,8
464,192,152067,6,0,B|424:176|400:144,1,80,4|0
472,112,152442,1,8
408,64,152629,1,0
256,128,152817,2,0,B|256:48,2,80,0|0|8
256,208,153379,1,0
48,192,153567,6,0,B|88:176|112:144,1,80
40,112,153942,1,8
104,64,154129,1,0
176,96,154317,2,0,B|216:80|256:96,1,80
301,207,154692,2,0,B|262:223|224:208,1,80,8|0
136,288,155067,5,0
208,328,155254,1,0
280,288,155442,2,0,B|320:288,2,40,8|0|0
208,168,155817,1,0
136,208,156004,1,0
64,168,156192,2,0,B|24:168,2,40,8|0|0
136,48,156567,5,2
208,88,156754,1,0
280,48,156942,2,0,B|320:48,2,40,8|0|0
280,188,157317,1,2
352,148,157504,1,0
424,188,157692,2,0,B|464:188,2,40,8|0|0
352,288,158067,5,4
208,272,170067,5,4
288,272,170254,2,0,B|304:232|288:192,1,80,0|8
256,120,170629,1,0
256,120,170723,2,0,B|304:72|368:64,1,120
256,264,171192,2,0,B|219:300|172:306,1,80,8|0
121,119,171567,6,2,B|128:176|176:224,2,120
224,136,172317,2,2,B|308:125|380:53,1,160,2|8
440,296,173067,5,0
440,296,173442,2,2,B|360:256|280:296,1,160
232,216,174004,1,0
232,216,174098,1,0
232,216,174192,1,8
136,224,174379,1,0
72,88,174567,6,2,B|152:128|232:88,1,160,2|8
288,40,175129,1,0
344,104,175317,2,0,B|400:160,2,80,0|0|8
288,336,176067,5,4
288,336,176442,2,2,B|208:304|128:336,1,160
72,280,177004,2,0,B|32:280,2,40,0|0|8
120,216,177379,1,0
228,160,177567,6,2,B|308:192|388:160,2,160
168,108,178504,2,0,B|128:108,2,40,0|0|8
244,84,178879,1,0
152,192,179067,5,2
132,292,179254,1,0
234,311,179442,1,8
251,208,179629,1,0
103,234,179817,5,2
176,336,180004,1,0
278,264,180192,1,8
208,160,180379,1,0
256,192,180567,12,0,181692
288,208,182067,5,4
208,240,182254,1,0
128,208,182442,2,0,B|80:224|40:208,1,80,0|0
48,88,182817,2,0,B|96:72|136:88,1,80,8|0
128,208,183192,2,0,B|144:288,1,80
160,368,183567,5,2
432,288,183942,1,2
352,16,184317,1,2
80,96,184692,1,2
160,368,185067,6,0,B|240:352|296:288,1,160
222,255,185629,2,0,B|295:288,1,80,0|8
304,208,186004,1,0
376,128,186192,2,0,B|384:208,1,80
392,288,186567,5,2
304,32,186942,1,2
126,236,187317,1,2
126,315,187504,2,0,B|126:355,2,40
126,236,187879,1,0
128,152,188067,6,0,B|168:136|192:96,1,80,4|0
256,56,188442,1,0
256,56,188629,1,0
323,101,188817,2,0,B|344:136|384:152,1,80,8|0
456,192,189192,2,0,B|416:207|395:242,1,80
352,304,189567,6,0,B|331:269|291:253,1,80
298,123,189942,2,0,B|263:144|248:184,1,80
87,346,190317,2,2,B|164:324|216:256,1,160,2|8
272,104,191067,5,0
352,104,191254,2,0,B|368:144|352:184,1,80
320,256,191629,1,0
320,256,191817,2,0,B|250:216,1,80,8|0
248,312,192192,2,0,B|168:312,1,80
88,256,192567,5,2
40,144,192754,1,0
112,48,192942,1,2
216,104,193129,1,0
208,224,193317,1,2
208,224,193692,2,0,B|208:272,3,40
208,304,194067,5,4
280,344,194254,1,0
344,296,194442,2,0,B|312:272|312:224,1,80,8|0
312,225,194723,2,0,B|248:216|216:160,1,120
272,104,195192,1,8
160,216,195379,1,0
272,104,195567,6,2,B|352:80|432:112,1,160
392,184,196129,1,0
352,256,196317,2,2,B|270:275|217:342,1,160,0|0
128,120,197067,5,0
128,120,197442,2,2,B|192:112|232:56,1,120
228,60,197817,2,0,B|300:94,1,80
156,24,198192,1,0
384,264,198567,6,2,B|320:272|280:328,1,120
283,323,198942,2,0,B|211:289,1,80
352,364,199317,1,0
352,364,199504,1,0
352,364,199692,1,8
432,136,200067,5,0
432,136,200442,2,2,B|352:104|272:104,1,160
224,44,201004,1,0
224,44,201098,1,0
224,44,201192,2,0,B|189:70|171:103,1,80,8|0
96,196,201567,5,0
96,196,201942,2,2,B|176:228|256:228,1,160
304,288,202504,1,0
304,288,202598,1,0
304,288,202692,2,0,B|338:261|356:228,1,80,8|0
432,256,203067,6,0,B|437:212|427:176,1,80,0|0
392,104,203442,1,8
352,34,203629,1,0
288,120,203817,1,2
213,45,204004,1,0
176,168,204192,1,0
50,129,204379,1,0
256,192,204567,12,4,206067
256,256,206442,5,0
256,256,206535,1,0
256,256,206629,1,0
136,184,206817,2,0,B|208:224|256:104|304:224|368:184,1,240
352,288,207567,6,0,B|432:288,2,80,4|0|0
352,368,208129,2,2,B|272:352|240:304,1,120
280,200,208692,1,8
392,80,209067,5,0
352,152,209254,1,0
280,200,209442,2,2,B|200:208|120:168,1,160,2|2
128,328,210192,1,8
280,280,210567,6,0,B|280:200,2,80
352,240,211129,2,2,B|408:208|408:136,1,120
464,248,211692,1,8
416,96,212067,5,2
360,176,212254,1,0
320,88,212442,1,0
264,168,212629,1,2
224,80,212817,1,0
176,160,213004,1,0
128,72,213192,1,8
128,312,213567,6,0,B|176:312|200:280,1,80,4|0
264,320,213942,1,0
328,272,214129,2,2,B|395:271|427:327,2,120,2|2|8
456,176,215067,5,0
400,240,215254,1,0
328,272,215442,2,2,B|248:312|152:296,1,160
232,160,216192,1,8
384,112,216567,6,0,B|344:96|328:56,1,80
248,72,216942,1,0
232,160,217129,2,2,B|266:217|233:273,2,120,2|2|8
72,160,218067,5,0
72,240,218254,1,0
96,160,218442,2,0,B|120:112,1,40,8|0
48,240,218723,2,0,B|24:288,1,40,0|10
200,208,219098,2,0,B|256:224|328:208,1,120,10|2
392,176,219567,5,4
408,96,219754,2,0,B|456:104|464:144,1,80
456,224,220129,2,2,B|456:344,2,120,2|2|8
256,88,221067,5,0
200,144,221254,1,0
136,192,221442,2,2,B|184:256|176:344,1,160
335,343,222192,2,0,B|328:256|376:192,1,160,8|0
319,135,222754,6,0,B|375:192,1,80
432,248,223129,1,2
256,216,223410,1,2
80,248,223692,1,8
192,135,224067,6,0,B|136:192,1,80,2|0
276,106,224442,2,0,B|256:184,1,80,0|2
384,74,224817,2,0,B|344:144,1,80
448,120,225192,1,8
328,328,225567,5,4
328,328,225754,2,0,B|288:328|256:296,1,80
264,208,226129,2,2,B|200:240|144:240,2,120,2|2|8
400,120,227067,6,0,B|352:104|336:64,1,80
175,72,227442,2,2,B|144:167|78:193,2,160,2|2|8
256,216,228567,5,0
216,280,228754,1,0
296,280,228942,1,0
336,216,229129,2,2,B|376:264|448:248,2,120,2|2|8
256,80,230067,6,0,B|216:72|168:80,1,80
144,152,230442,1,8
144,152,230535,1,0
288,152,230723,1,0
288,152,230817,1,10
144,152,231098,1,10
288,152,231379,1,2
424,280,231567,5,4
368,344,231754,1,0
288,352,231942,1,8
88,104,232317,1,0
144,40,232504,1,0
224,32,232692,1,8
336,144,233067,6,0,B|376:160|376:160|416:144,1,80
440,224,233442,1,8
176,240,233817,2,0,B|136:224|136:224|96:240,1,80
72,160,234192,1,8
312,64,234567,5,0
256,120,234754,1,0
200,64,234942,1,8
296,320,235317,2,0,B|256:344|216:320,1,80
256,248,235692,1,8
352,120,236067,6,0,B|400:120|432:96,1,80
448,176,236442,1,8
160,264,236817,2,0,B|112:264|80:288,1,80
64,208,237192,1,8
192,112,237567,5,4
192,112,237754,1,0
256,160,237942,2,0,B|280:120|264:80,1,80,8|0
320,272,238317,1,0
320,272,238504,1,0
256,224,238692,2,0,B|232:264|248:304,1,80,8|0
160,192,239067,6,0,B|120:184|72:192,2,80,0|0|8
256,192,239629,1,0
352,192,239817,2,0,B|392:200|440:192,2,80,0|0|8
256,192,240379,1,0
192,120,240567,5,0
144,56,240754,1,0
88,120,240942,2,0,B|48:144,2,40,8|0|0
320,120,241317,1,0
368,56,241504,1,0
424,120,241692,2,0,B|464:144,2,40,8|0|0
216,232,242067,5,0
296,232,242254,1,0
256,304,242442,1,8
256,320,242535,1,0
256,336,242629,1,0
424,264,242817,5,0
256,160,243067,1,0
88,264,243317,1,0
88,264,243567,1,4
256,192,243660,12,0,248067
