osu file format v9

[General]
AudioFilename: UNDER WORLD.mp3
AudioLeadIn: 0
PreviewTime: 12521
Countdown: 0
SampleSet: Normal
StackLeniency: 0.7
Mode: 0
LetterboxInBreaks: 1

[Editor]
DistanceSpacing: 1.3
BeatDivisor: 6
GridSize: 4

[Metadata]
Title:UNDER WORLD
Artist:Atoguru
Creator:sirjuyt
Version:Heart
Source:Touhou
Tags:C-CLAYS Mai Kotoge MUON subterranean animism Hartmann's Youkai Girl Koishi Komeiji [Kirisame-Marisa] Yia eikkaleyd

[Difficulty]
HPDrainRate:7
CircleSize:4
OverallDifficulty:7
ApproachRate:8
SliderMultiplier:2.1
SliderTickRate:1

[Events]
//Background and Video events
0,0,"eikka's heart.jpg"
//Break Periods
2,146079,151317
2,231579,236817
//Storyboard Layer 0 (Background)
//Storyboard Layer 1 (Fail)
//Storyboard Layer 2 (Pass)
//Storyboard Layer 3 (Foreground)
//Storyboard Sound Samples
//Background Colour Transformations
3,100,163,162,255

[TimingPoints]
12567,375,4,1,2,90,1,0
24567,-100,4,1,2,80,0,0
36567,-100,4,1,2,65,0,0
39567,-100,4,1,2,90,0,0
42567,-100,4,1,2,70,0,0
45567,-100,4,1,2,95,0,0
47067,-100,4,1,2,100,0,0
48567,-100,4,1,2,90,0,0
65067,-100,4,1,2,80,0,0
72567,-100,4,1,2,65,0,0
75567,-100,4,1,2,90,0,0
78567,-100,4,1,2,70,0,0
81567,-100,4,1,2,95,0,0
83442,-100,4,1,2,100,0,0
84567,-100,4,2,2,90,0,0
96567,-100,4,1,2,75,0,0
110067,-100,4,1,2,90,0,0
122067,-100,4,1,2,65,0,0
125067,-100,4,1,2,90,0,0
128067,-100,4,1,2,70,0,0
131067,-100,4,1,2,95,0,0
132567,-100,4,1,2,100,0,0
136317,-100,4,1,2,80,0,0
152067,-100,4,1,2,70,0,0
155067,-100,4,1,2,95,0,0
156567,-100,4,1,2,100,0,0
158067,-100,4,2,2,90,0,0
164020,-100,4,1,2,90,0,0
164113,-100,4,2,2,90,0,0
170067,-100,4,1,2,80,0,0
182067,-100,4,2,2,90,0,0
188020,-100,4,1,2,90,0,0
188113,-100,4,2,2,90,0,0
194067,-100,4,1,2,85,0,0
207567,-100,4,1,2,80,0,0
237567,-100,4,1,2,70,0,0
240567,-100,4,1,2,95,0,0
242067,-100,4,1,2,100,0,0
243534,-100,4,2,2,60,0,0

[Colours]
Combo1 : 255,255,255
Combo2 : 255,255,120
Combo3 : 160,225,160

[HitObjects]
192,240,12567,1,0
288,232,12754,1,0
368,172,12942,1,0
412,88,13129,2,0,B|480:148|456:248,1,157.5
416,312,13692,2,0,B|348:252|368:169,1,157.5,8|0
328,140,14067,2,0,B|220:104,1,105
200,192,14442,1,0
216,296,14629,2,0,B|128:296|84:224|104:152,1,210,8|0
102,156,15192,1,2
160,52,15379,5,0
160,52,15473,1,0
160,52,15567,1,0
216,136,15754,1,0
324,192,15942,1,0
439,220,16129,2,0,B|384:276|284:276,2,157.5,2|0|2
188,248,16879,5,0
188,248,16973,1,0
188,248,17067,1,8
228,151,17254,1,0
328,104,17442,1,0
440,104,17629,2,0,B|452:156|400:196,1,105,0|8
440,296,18004,1,0
400,196,18192,1,2
292,120,18379,1,0
160,120,18567,6,0,B|160:232,2,105,4|0|0
160,120,19129,1,2
348,280,19410,1,0
108,340,19692,1,2
56,192,19879,5,0
56,192,19973,1,0
56,192,20067,2,0,B|28:144|40:92,2,105,8|0|0
160,244,20629,2,0,B|196:288|188:352,2,105,8|0|0
228,152,21192,1,2
360,192,21379,6,0,B|384:136,1,52.5
359,192,21567,2,0,B|388:240|365:304,2,105,8|0|0
286,246,22129,1,2
96,272,22410,1,0
64,96,22692,1,2
200,48,22879,5,0
200,48,22973,1,0
200,48,23067,2,0,B|168:160,1,105,8|0
264,128,23442,2,0,B|288:200,1,52.5
216,280,23817,5,0
380,296,24098,1,0
432,144,24379,1,0
256,192,24567,12,8,26442
172,164,26817,5,2
256,216,27004,1,0
336,164,27192,1,2
256,192,27567,12,8,28692
152,88,29067,5,2
76,188,29254,1,0
172,268,29442,1,0
256,176,29629,1,0
340,268,29817,1,0
436,188,30004,1,2
360,88,30192,1,2
256,192,30567,12,8,32442
144,192,32817,6,0,B|156:132|220:112,1,105,2|0
368,192,33192,2,0,B|356:244|292:272,1,105,2|0
256,192,33567,12,8,34692
316,68,35067,5,2
404,136,35254,1,0
368,240,35442,1,0
368,240,35535,1,8
240,280,35723,1,0
240,280,35817,1,8
168,124,36098,1,8
12,56,36379,1,8
56,148,36567,5,0
168,124,36754,1,0
260,196,36942,1,8
464,244,37317,5,0
352,268,37504,1,0
260,196,37692,1,8
260,196,38067,5,0
300,80,38254,1,0
184,12,38442,1,8
260,196,38817,5,0
220,312,39004,1,0
336,380,39192,1,8
76,68,39567,6,0,B|132:64|176:120,1,105
88,164,39942,1,8
168,216,40129,1,0
256,160,40317,6,0,B|288:212|260:264,1,105
360,312,40692,1,8
440,276,40879,1,0
376,212,41067,6,0,B|376:96,1,105
148,64,41442,2,0,B|148:176,1,105,8|0
452,293,41817,6,0,B|452:188,1,105,0|0
76,143,42192,2,0,B|76:248,1,105,8|0
200,16,42567,5,0
272,60,42754,1,0
196,100,42942,1,8
224,60,43317,5,0
324,96,43504,1,0
240,160,43692,1,8
260,112,44067,5,0
372,172,44254,1,0
268,240,44442,1,8
300,176,44817,5,0
440,248,45004,1,0
312,332,45192,1,8
100,116,45567,5,0
67,205,45754,2,0,B|44:252,2,52.5,0|0|8
163,250,46129,1,0
331,163,46317,5,0
364,252,46504,2,0,B|387:299,2,52.5,0|0|8
268,297,46879,1,0
168,192,47067,6,0,B|136:140|168:92,1,105
167,93,47348,1,0
167,93,47442,1,8
288,92,47629,1,0
384,180,47817,6,0,B|416:232|384:280,1,105
384,278,48098,1,0
384,278,48192,1,8
264,280,48379,1,0
104,60,48567,6,0,B|176:56|192:140,2,105
56,160,49129,2,0,B|-16:224|56:316,2,157.5,2|0|2
124,240,49879,5,0
124,240,49973,1,0
124,240,50067,2,0,B|252:240,1,105,8|0
304,312,50442,1,0
352,224,50629,2,0,B|380:168|352:112|352:112|408:128|456:72,1,210,8|0
439,89,51192,1,2
416,196,51379,1,0
288,220,51567,5,0
180,156,51754,1,0
184,284,51942,1,0
288,220,52129,1,2
72,348,52410,1,2
68,96,52692,1,0
172,72,52879,5,0
172,72,52973,1,0
172,72,53067,2,0,B|224:48|276:72,1,105,8|0
320,176,53442,1,0
274,72,53629,1,8
388,132,53817,1,0
416,256,54004,1,2
316,336,54192,1,0
104,332,54379,5,0
104,332,54473,1,0
104,332,54567,1,4
32,248,54754,2,0,B|88:216|144:240,1,105,8|0
272,160,55129,2,0,B|204:100|112:140,2,157.5,2|0|2
340,112,55879,5,0
340,112,55973,1,0
340,112,56067,2,0,B|452:112,2,105,8|0|0
240,64,56629,2,0,B|200:32|136:40,1,105,8|0
140,39,57004,1,0
60,148,57192,1,2
100,276,57379,1,0
244,336,57567,6,0,B|308:320|372:352,2,105
312,216,58129,2,0,B|368:152|464:176,2,157.5,2|0|2
244,104,58879,5,0
244,104,58973,1,0
244,104,59067,1,8
128,140,59254,1,0
36,224,59442,2,0,B|102:204,1,52.5,8|0
232,312,59723,2,0,B|290:320,1,52.5,0|8
376,176,60004,2,0,B|437:150,1,52.5,8|0
480,316,60379,1,0
256,192,60567,12,8,62442
256,84,62817,6,0,B|212:148|300:220|256:292,1,210,2|2
256,192,63567,12,8,64692
420,172,65067,5,0
344,56,65254,1,2
252,128,65442,1,0
172,56,65629,1,2
92,172,65817,1,0
252,320,66004,1,2
252,320,66192,1,8
256,192,66567,12,8,68442
266,271,68817,6,0,B|216:248|212:184,1,105
300,192,69192,1,8
256,192,69567,12,8,70692
132,148,71067,5,0
228,92,71254,2,0,B|272:68|332:72,1,105,0|8
356,76,71535,1,0
396,216,71723,1,0
396,216,71817,1,2
240,280,72004,1,0
240,280,72098,1,2
132,148,72379,1,0
240,280,72567,5,0
316,236,72754,1,0
336,320,72942,1,8
316,236,73317,5,0
356,144,73504,1,0
436,219,73692,1,8
356,144,74067,5,0
284,4,74254,1,0
173,118,74442,1,8
284,4,74817,5,0
96,72,75004,1,0
247,190,75192,1,8
96,216,75567,6,0,B|96:324,1,105
184,280,75942,2,0,B|276:348,1,105,8|0
288,252,76317,2,0,B|396:256,1,105
340,168,76692,2,0,B|452:136,1,105,8|0
96,168,77067,6,0,B|96:60,1,105
184,104,77442,2,0,B|276:36,1,105,8|0
288,132,77817,2,0,B|396:128,1,105
340,216,78192,2,0,B|452:248,1,105,8|0
96,176,78567,5,4
148,96,78754,1,0
220,164,78942,1,8
172,248,79129,1,0
120,148,79317,5,0
268,60,79504,1,0
336,216,79692,1,8
184,304,79879,1,0
156,112,80067,5,0
372,88,80254,1,0
352,288,80442,1,8
144,304,80629,1,0
208,68,80817,5,0
416,156,81004,1,0
244,292,81192,1,8
52,200,81379,1,0
264,24,81567,6,0,B|320:20|372:52,1,105,4|0
364,48,81942,1,8
432,136,82129,1,0
432,136,82223,1,0
432,136,82317,2,0,B|480:172|480:248,1,105,0|0
478,226,82692,1,8
492,96,82879,1,0
364,48,83067,5,0
224,48,83254,1,0
92,104,83442,2,0,B|-36:104,1,105,8|0
64,208,83817,2,0,B|184:208,1,105
265,304,84192,2,0,B|160:304,1,105,8|0
416,112,84567,5,8
352,164,84754,1,0
268,176,84942,1,0
184,160,85129,1,0
116,112,85317,5,8
144,208,85504,1,0
248,256,85692,1,0
360,240,85879,1,0
360,240,86067,6,0,B|392:344,1,105,4|0
248,256,86442,2,0,B|240:368,1,105,8|0
144,208,86817,2,0,B|72:296,1,105,8|0
116,112,87192,2,0,B|8:148,1,105,8|0
212,48,87567,6,0,B|264:20|320:48,1,105,8|0
264,128,87942,1,8
313,44,88129,1,0
404,68,88317,1,8
416,160,88504,1,0
328,200,88692,1,8
264,128,88879,1,0
168,128,89067,6,0,B|104:128|104:128|72:148|88:164,1,105,4|0
64,264,89442,1,8
148,324,89629,1,0
252,324,89817,1,8
340,264,90004,1,0
416,192,90192,1,0
432,176,90285,1,0
448,160,90379,1,0
464,144,90473,1,0
480,128,90567,6,0,B|352:128,1,105,8|0
108,64,90942,2,0,B|216:64,1,105,0|0
417,192,91317,2,0,B|312:192,1,105,8|0
43,240,91692,2,0,B|148:240,1,105,0|0
112,144,92067,5,4
216,156,92254,1,0
252,252,92442,1,0
188,332,92629,1,0
288,360,92817,1,8
288,360,93192,1,0
356,300,93379,5,0
428,360,93567,2,0,B|428:236,1,105,4|0
508,224,93942,2,0,B|508:120,1,105,0|0
428,144,94317,2,0,B|424:88|376:56,1,105,8|0
328,116,94692,2,0,B|276:92|220:104,1,105,0|0
108,64,95067,5,4
56,184,95254,1,0
172,232,95442,1,0
228,104,95629,1,0
324,120,95817,1,8
324,120,95910,1,0
324,120,96004,1,0
324,120,96098,1,0
324,120,96192,1,0
324,140,96285,5,0
324,160,96379,1,0
324,176,96473,1,0
324,192,96567,2,0,B|336:264|268:288,1,105
240,160,96942,1,8
116,108,97129,5,0
116,108,97223,1,0
116,108,97317,2,0,B|176:128|168:212,1,105
168,189,97598,1,0
168,189,97692,2,0,B|164:273|240:289,1,105,8|0
288,224,98067,6,0,B|448:224,2,157.5,0|8|0
360,144,98817,2,0,B|428:128|440:64,1,105,0|0
436,79,99192,1,8
360,144,99379,1,0
280,80,99567,6,0,B|240:40|176:44,1,105,0|0
80,80,99942,1,8
128,176,100129,1,0
64,272,100317,2,0,B|16:176,1,105,0|0
244,272,100692,5,8
244,272,100785,1,0
244,272,100879,1,0
244,272,100973,1,0
244,272,101067,2,0,B|312:264|312:200,1,105,0|0
312,176,101348,1,0
312,144,101442,2,0,B|312:80|376:64,1,105,8|0
369,65,101817,1,0
80,120,102192,6,0,B|28:96,3,52.5
96,128,102567,2,0,B|88:188|160:224,1,105,4|0
143,214,102942,2,0,B|204:196|256:252,1,105,8|0
240,237,103317,2,0,B|276:264|244:328|244:328|316:300|352:336,1,210,0|8
456,148,104067,6,0,B|464:88|392:52,1,105
360,132,104442,1,8
360,132,104629,2,0,B|248:160|172:64,1,210
96,164,105192,5,8
96,164,105285,1,0
96,164,105379,1,0
96,164,105473,1,0
96,164,105567,1,0
96,80,105754,1,0
96,252,105942,1,8
96,340,106129,1,0
96,340,106223,2,0,B|200:340|244:280,1,157.5,0|0
356,340,106692,2,0,B|356:228,1,105,8|0
456,208,107067,5,0
428,84,107254,1,0
288,76,107442,1,8
288,76,107535,1,0
288,76,107629,1,0
288,76,107723,1,0
288,76,107817,2,0,B|236:116|144:104,1,105,0|0
68,184,108192,2,0,B|120:224|212:212,1,105,8|0
228,304,108567,1,4
388,228,110067,5,4
288,64,110254,1,0
120,132,110442,1,0
120,132,110629,2,0,B|32:152|40:248,2,157.5,2|0|2
120,296,111379,1,0
120,296,111473,1,0
120,296,111567,2,0,B|232:296,1,105,8|0
304,292,111942,1,0
304,292,112129,2,0,B|368:296|376:224|376:224|432:216|432:148,1,210,0|8
364,76,112692,5,2
344,76,112785,1,0
324,76,112879,1,0
300,76,112973,1,0
280,76,113067,2,0,B|176:36,1,105,8|0
224,152,113442,1,0
224,152,113629,2,0,B|376:216,2,157.5,2|0|2
88,204,114379,5,0
88,176,114473,1,0
88,152,114567,1,8
88,272,114754,1,0
212,328,114942,1,0
212,328,115129,2,0,B|344:328|368:300|356:260,1,157.5,8|0
356,288,115504,1,0
432,204,115692,2,0,B|432:80,1,105,2|0
292,100,116067,5,4
168,76,116254,1,0
88,172,116442,1,0
56,304,116629,1,2
212,172,116910,1,0
432,204,117192,1,2
212,172,117379,5,0
212,172,117473,1,0
212,172,117567,2,0,B|164:64,2,105,8|0|0
344,128,118129,2,0,B|376:16,2,105,8|0|0
344,128,118692,1,2
316,248,118879,5,0
316,248,118973,1,0
316,248,119067,2,0,B|372:272|424:244,1,105,8|0
417,247,119442,1,0
196,248,119629,1,2
116,48,119910,1,0
344,128,120192,1,2
196,248,120379,5,0
176,248,120473,1,0
156,248,120567,2,0,B|92:248|92:248|64:216,1,105,8|0
172,152,120942,1,0
172,152,121035,2,0,B|236:152|236:152|264:120,1,105,8|0
288,96,121317,1,2
456,176,121598,1,0
392,340,121879,1,2
172,152,122067,5,0
208,228,122254,1,0
260,168,122442,1,8
172,132,122817,5,0
288,204,123004,1,0
172,256,123192,1,8
172,108,123567,5,0
120,264,123754,1,0
296,224,123942,1,8
172,84,124317,5,0
376,192,124504,1,0
184,312,124692,1,8
80,32,125067,6,0,B|48:164,1,105
120,248,125442,2,0,B|152:116,1,105,8|0
260,72,125817,2,0,B|228:204,1,105
308,288,126192,2,0,B|340:156,1,105,8|0
404,288,126567,6,0,B|512:288,1,105
504,288,126942,1,8
308,288,127129,1,0
196,288,127317,1,0
64,236,127504,1,0
8,120,127692,1,8
108,32,127879,1,0
244,32,128067,6,0,B|304:56|368:20,1,105
244,124,128442,2,0,B|196:100|140:124,1,105,8|0
256,132,128817,1,0
348,32,129004,1,0
268,140,129192,1,8
444,128,129379,1,0
348,212,129567,6,0,B|348:328,1,105
248,264,129942,2,0,B|220:324|156:336,1,105,8|0
132,244,130317,2,0,B|84:268|28:244,1,105
76,148,130692,2,0,B|40:100|80:40,1,105,8|0
168,104,131067,5,4
248,72,131254,1,0
332,64,131442,1,8
416,80,131629,1,0
496,120,131817,5,0
356,128,132004,1,0
248,196,132192,1,8
216,320,132379,1,0
216,320,132473,1,0
216,320,132567,2,0,B|104:300,2,105,0|0|8
248,196,133129,1,0
276,76,133317,2,0,B|388:96,2,105,0|0|8
248,196,133879,1,0
256,192,134067,12,8,135942
156,200,136317,6,0,B|216:152|296:232|372:188,1,210,2|2
256,192,137067,12,8,138192
340,108,138567,5,2
232,60,138754,1,0
264,180,138942,2,0,B|372:236,1,105,2|0
168,132,139317,2,0,B|60:76,2,105,2|0|2
256,192,140067,12,8,141942
256,296,142317,5,0
256,112,142692,1,0
256,192,143067,12,8,144192
400,256,144567,6,0,B|436:204|396:148,1,105,2|0
364,156,144848,1,0
324,156,144942,2,0,B|324:44,1,105,8|0
188,51,145317,1,2
72,204,145598,1,2
248,316,145879,1,2
440,232,152067,6,0,B|420:280|348:288,1,105,4|0
328,208,152442,2,0,B|264:208|228:160,1,105,8|0
160,216,152817,2,0,B|116:184|136:116,1,105
56,88,153192,2,0,B|76:32|140:32,1,105,8|0
136,32,153567,5,0
272,32,153754,1,0
200,124,153942,1,8
340,124,154129,1,0
268,208,154317,1,0
412,208,154504,1,0
344,288,154692,1,8
500,288,154879,1,0
500,272,154973,1,0
500,256,155067,6,0,B|500:136,1,105,0|0
396,176,155442,2,0,B|396:104|396:104|376:72,1,105,8|0
272,132,155817,2,0,B|244:72|244:72|192:56,1,105
148,136,156192,2,0,B|104:100|104:100|40:112,1,105,8|0
56,108,156567,5,0
207,60,156754,1,0
378,76,156942,1,8
500,152,157129,1,0
412,204,157317,2,0,B|356:180|296:188,1,105
124,168,157692,2,0,B|180:192|240:184,1,105,8|0
48,120,158067,5,8
136,40,158254,1,0
256,20,158442,1,0
384,56,158629,1,0
440,156,158817,5,8
320,132,159004,1,0
200,144,159192,1,0
116,220,159379,1,0
116,220,159567,6,0,B|68:120,1,105,4|0
200,144,159942,2,0,B|184:32,1,105,0|0
320,132,160317,2,0,B|332:16,1,105,8|0
440,156,160692,2,0,B|484:56,1,105,0|0
464,260,161067,6,0,B|424:312|344:304,1,105
387,211,161442,1,0
303,167,161629,1,0
239,237,161817,1,8
283,320,162004,1,0
192,348,162192,1,0
100,320,162379,1,0
140,236,162567,6,0,B|140:124,1,105,4|0
192,52,162942,1,0
284,32,163129,1,0
376,52,163317,1,8
448,112,163504,1,0
480,200,163692,1,0
468,216,163785,1,0
456,232,163879,1,0
444,248,163973,1,0
432,264,164067,6,0,B|384:264|384:264|360:288|316:264,1,105,4|0
104,196,164442,2,0,B|152:196|152:196|176:220|220:196,1,105,0|0
205,202,164817,1,8
332,272,165004,1,0
176,140,165192,1,0
303,210,165379,1,0
200,40,165567,6,0,B|188:96|248:128,1,105,4|0
328,68,165942,1,0
452,96,166129,1,0
452,96,166317,2,0,B|452:176|452:176|424:204,1,105,8|0
393,349,166692,2,0,B|393:269|393:269|365:241,1,105
276,140,167067,5,4
212,64,167254,1,0
116,104,167442,1,0
180,176,167629,1,0
276,140,167817,5,8
116,104,168004,1,0
52,240,168192,1,0
196,268,168379,1,0
196,268,168567,6,0,B|308:268,1,105,4|0
276,140,168942,2,8,B|380:140,1,105
500,144,169317,1,8
488,164,169410,1,0
468,180,169504,1,0
452,192,169598,1,0
428,204,169692,1,0
332,208,170067,6,0,B|264:208|232:172,1,105,4|0
248,272,170442,1,8
140,316,170629,6,0,B|96:360,1,52.5
140,316,170817,2,0,B|100:264|144:208,1,105
204,136,171192,1,8
312,104,171379,1,0
248,24,171567,6,0,B|88:24,2,157.5,0|8|0
144,112,172317,2,0,B|80:112|52:164,1,105
136,212,172692,2,0,B|120:276|184:316,1,105,8|0
244,256,173067,5,0
352,200,173254,1,0
444,132,173442,2,0,B|396:96|328:112,1,105,8|0
360,16,173817,2,0,B|300:0|256:40,1,105
172,112,174192,5,8
172,112,174285,1,0
172,112,174379,1,0
172,112,174473,1,0
172,112,174567,2,0,B|112:108|84:160,1,105
84,158,174848,1,0
84,158,174942,2,0,B|128:208|80:272,1,105,8|0
208,204,175317,2,0,B|332:204,2,105,0|0|8
324,304,175879,5,0
344,304,175973,1,0
364,304,176067,2,0,B|424:280|408:200,1,105,4|0
410,219,176442,2,0,B|360:176|384:120,1,105,8|0
382,126,176817,2,0,B|348:92|276:120|276:120|308:56|272:29,1,210,0|8
160,172,177567,6,0,B|108:148|52:172,1,105
112,256,177942,1,8
112,256,178129,2,0,B|224:312|324:256,1,210
372,176,178692,6,0,B|420:148,4,52.5,8|0|0|0|0
272,120,179254,1,0
344,288,179442,1,8
236,300,179629,1,0
236,300,179723,2,0,B|157:325|88:264,1,157.5,0|0
184,196,180192,2,0,B|132:180|120:108,1,105,8|0
184,52,180567,5,0
224,164,180754,1,0
312,228,180942,1,8
312,228,181035,1,0
312,228,181129,1,0
312,228,181223,1,0
312,228,181317,2,0,B|268:184|280:120,1,105,0|0
452,192,181692,2,0,B|408:236|416:312,1,105,8|0
168,320,182067,6,0,B|220:296|220:296|272:316,1,105,8|0
124,236,182442,2,0,B|79:253|79:253|27:229,1,105,0|0
300,160,182817,2,0,B|248:136|248:136|196:156,1,105,8|0
32,80,183192,2,0,B|76:97|76:97|128:73,1,105,0|0
128,73,183567,5,4
204,152,183754,1,0
196,248,183942,1,0
116,300,184129,1,0
272,328,184317,2,0,B|332:352|384:328,1,105,8|0
476,352,184692,2,0,B|504:288|480:236,1,105
428,176,185067,6,0,B|308:176,1,105,4|0
88,132,185442,2,0,B|200:132,1,105
392,264,185817,2,0,B|500:264,1,105,8|0
124,44,186192,2,0,B|12:44,1,105
184,176,186567,5,4
344,112,186754,1,0
164,208,186942,1,0
360,80,187129,1,0
176,240,187317,1,8
352,44,187504,1,0
260,144,187692,1,0
260,144,187785,1,0
260,144,187879,1,0
260,144,187973,1,0
260,144,188067,5,4
260,264,188254,2,0,B|228:316|272:368,2,105
136,112,188817,2,0,B|168:60|124:8,2,105,8|0|0
136,112,189379,1,0
44,192,189567,2,0,B|24:256|80:304,1,105,4|0
152,248,189942,2,0,B|168:296|240:312,1,105
284,240,190317,2,0,B|344:212|424:264|492:240,1,210,8|0
428,152,190879,5,0
428,136,190973,1,0
428,120,191067,1,4
504,48,191254,2,0,B|460:8|384:32,2,105
428,120,191817,2,0,B|384:164|324:136,1,105,8|0
331,139,192192,2,0,B|299:191|223:175,1,105
240,178,192567,2,0,B|240:238|176:254,1,105,4|0
179,253,192942,2,0,B|212:310|152:358,1,105
68,292,193317,6,0,B|68:348,4,52.5
68,264,193785,1,0
68,236,193879,1,0
68,208,193973,1,0
68,180,194067,6,0,B|68:108|124:76,1,105,4|0
192,168,194442,1,8
284,88,194629,1,0
284,88,194723,1,0
284,88,194817,2,0,B|348:88|348:88|352:116|392:128,1,105
468,208,195192,1,8
468,208,195379,1,0
468,208,195567,6,0,B|400:264|316:268,2,157.5,0|8|0
352,164,196317,2,0,B|304:192|228:168,1,105,0|0
252,72,196692,2,0,B|212:112|152:100,1,105,8|0
155,100,197067,5,0
60,156,197254,1,0
272,184,197442,1,8
152,192,197629,1,0
356,284,197817,1,0
220,260,198004,1,0
200,264,198098,1,0
180,268,198192,2,0,B|72:268,1,105,8|0
60,156,198567,6,0,B|144:144|176:56,1,157.5
174,60,198942,1,8
340,60,199129,1,0
340,60,199223,1,0
340,60,199317,1,0
384,152,199504,1,0
476,192,199692,1,8
376,280,199879,5,0
368,292,199973,1,0
360,304,200067,2,0,B|220:304,1,105
244,216,200442,2,0,B|176:224|156:296,1,105,8|0
148,136,200817,2,0,B|84:168|56:256|72:328,1,210,0|8
212,52,201567,6,0,B|320:52,1,105
400,104,201942,1,8
400,104,202129,2,0,B|400:200|400:200|448:256|412:304,1,210
296,264,202692,5,8
280,264,202785,1,0
264,264,202879,1,0
248,264,202973,1,0
232,264,203067,2,0,B|184:296|124:276,2,105,0|0|8
168,172,203629,1,0
168,172,203723,2,0,B|116:140|152:72|92:32,1,157.5
16,104,204192,1,8
224,44,204379,1,0
340,64,204567,5,0
432,148,204754,1,0
400,272,204942,2,0,B|388:332|328:360,1,105,8|0
268,304,205317,2,0,B|204:364|112:336,2,157.5,0|8|0
172,240,206067,1,4
256,192,207567,12,8,209442
156,140,209817,6,0,B|156:204|156:204|196:240,1,105,0|0
276,192,210192,2,0,B|344:212|344:212|388:192,1,105,8|0
256,192,210567,12,8,211692
72,92,212067,5,2
160,24,212254,1,0
168,148,212442,1,0
304,80,212629,1,2
224,232,212817,1,2
416,192,213004,1,0
313,328,213192,2,0,B|208:328,1,105,2|0
256,192,213567,12,8,215442
160,112,215817,6,0,B|268:120,1,105
236,216,216192,2,0,B|352:256,1,105,8|0
256,192,216567,12,8,217692
136,132,218067,6,0,B|168:84|240:92,1,105,0|0
356,52,218442,2,0,B|388:96,1,52.5,0|8
324,180,218723,2,0,B|316:236,1,52.5,0|8
196,248,219004,2,0,B|152:284,1,52.5,0|8
155,281,219379,1,0
256,192,219567,12,8,221442
212,96,221817,6,0,B|212:156|148:180,1,105,0|0
300,212,222192,2,0,B|308:264|380:276,1,105,8|0
256,192,222567,12,8,223692
392,108,224067,6,0,B|348:68|284:104,1,105,2|0
294,98,224442,1,0
196,48,224629,1,2
92,108,224817,1,2
64,224,225004,1,0
136,316,225192,1,2
256,192,225567,12,8,227442
176,168,227817,5,0
256,128,228004,1,0
336,168,228192,1,8
256,192,228567,12,8,229692
296,68,230067,5,2
220,196,230254,1,0
328,284,230442,1,0
328,284,230535,1,2
296,68,230817,1,2
120,216,231098,1,0
328,284,231379,1,2
400,256,237567,6,0,B|400:144,1,105,4|0
328,60,237942,1,8
220,112,238129,1,0
172,220,238317,6,0,B|172:332,1,105
280,272,238692,1,8
336,168,238879,1,0
152,96,239067,6,0,B|164:152|236:176,1,105
336,168,239442,2,0,B|324:224|252:248,1,105,8|0
80,224,239817,2,0,B|112:276|184:284,1,105
420,284,240192,2,0,B|388:335|335:340,1,105,8|0
204,216,240567,5,4
140,176,240754,1,0
104,112,240942,1,8
112,40,241129,1,0
156,44,241317,5,0
160,136,241504,1,0
232,196,241692,1,8
328,208,241879,1,0
476,156,242067,5,4
368,176,242254,1,0
256,136,242442,1,8
196,48,242629,1,0
240,52,242817,5,8
352,124,243067,1,8
480,88,243317,1,8
256,192,243567,12,4,248067
