osu file format v9

[General]
AudioFilename: UNDER WORLD.mp3
AudioLeadIn: 0
PreviewTime: 12521
Countdown: 0
SampleSet: Soft
StackLeniency: 0.7
Mode: 0
LetterboxInBreaks: 1

[Editor]
Bookmarks: 521,12521,24521,36521,48521,60521,72521,84521,96521,110021,122021,134021,146021,158021,170021,182021,194021,206021,219521,231521,243521,255521
DistanceSpacing: 1
BeatDivisor: 2
GridSize: 4

[Metadata]
Title:UNDER WORLD
Artist:Atoguru
Creator:sirjuyt
Version:Hate
Source:Touhou
Tags:C-CLAYS Mai Kotoge MUON subterranean animism Hartmann's Youkai Girl Koishi Komeiji [Kirisame-Marisa] Yia eikkaleyd

[Difficulty]
HPDrainRate:3
CircleSize:3
OverallDifficulty:4
ApproachRate:4
SliderMultiplier:1.2
SliderTickRate:2

[Events]
//Background and Video events
0,0,"koishi.jpg"
//Break Periods
2,84767,95247
2,158267,168747
//Storyboard Layer 0 (Background)
//Storyboard Layer 1 (Fail)
//Storyboard Layer 2 (Pass)
//Storyboard Layer 3 (Foreground)
//Storyboard Sound Samples
//Background Colour Transformations
3,100,163,162,255

[TimingPoints]
12567,375,4,1,0,70,1,0
24567,-100,4,2,0,80,0,0
26817,-100,4,1,0,70,0,0
30567,-100,4,2,0,80,0,0
32817,-100,4,1,0,70,0,0
36567,-100,4,2,0,80,0,0
39567,-100,4,2,0,90,0,0
42567,-100,4,2,0,80,0,0
45567,-100,4,2,0,90,0,0
48567,-100,4,1,0,70,0,0
60567,-100,4,2,0,80,0,0
62817,-100,4,1,0,70,0,0
66567,-100,4,2,0,80,0,0
68817,-100,4,1,0,70,0,0
72567,-100,4,2,0,80,0,0
75567,-100,4,2,0,90,0,0
78567,-100,4,2,0,80,0,0
81567,-100,4,2,0,90,0,0
84567,-100,4,1,0,70,0,0
122067,-100,4,2,0,80,0,0
125067,-100,4,2,0,90,0,0
128067,-100,4,2,0,80,0,0
131067,-100,4,2,0,90,0,0
136317,-100,4,1,0,70,0,0
140067,-100,4,2,0,80,0,0
142317,-100,4,1,0,70,0,0
146067,-100,4,2,0,80,0,0
149067,-100,4,2,0,90,0,0
152067,-100,4,2,0,80,0,0
155067,-100,4,2,0,90,0,0
158067,-100,4,1,0,70,0,0
213567,-100,4,2,0,80,0,0
215817,-100,4,1,0,70,0,0
219567,-100,4,2,0,80,0,0
221817,-100,4,1,0,70,0,0
225567,-100,4,2,0,80,0,0
227817,-100,4,1,0,70,0,0
231567,-100,4,2,0,80,0,0
234567,-100,4,2,0,90,0,0
237567,-100,4,2,0,80,0,0
240567,-100,4,2,0,90,0,0
242817,-100,4,1,0,70,0,0
243567,-100,4,2,0,70,0,0
245067,-100,4,2,0,60,0,0
246567,-100,4,2,0,50,0,0

[Colours]
Combo1 : 255,255,255
Combo2 : 255,255,120
Combo3 : 160,225,160

[HitObjects]
344,152,12567,2,0,B|284:240|340:320,2,180,0|2|8
244,88,14067,2,0,B|274:36,2,60
188,112,14629,2,2,B|243:191|183:279,1,180,2|8
92,200,15567,6,0,B|32:287|87:367,2,180,0|2|8
180,116,17067,2,0,B|128:86,2,60
236,140,17629,2,2,B|284:204|180:252|236:308,1,180,2|8
356,292,18567,6,0,B|378:190|480:178,1,180,0|2
356,48,19692,1,8
256,112,20067,2,0,B|213:69,2,60
232,168,20629,2,2,B|210:270|108:282,1,180,2|8
212,344,21567,6,0,B|272:302|272:302|338:303|394:343,1,180,0|2
328,156,22692,1,8
420,80,23067,2,0,B|386:40|386:40|341:29|296:46,1,120,0|8
224,112,23817,2,2,B|136:136,2,90,10|10|2
256,192,24567,12,2,26067
192,240,26817,6,0,B|256:264|312:240,1,120
424,288,27567,2,0,B|448:184|368:128,2,180,0|2|8
304,296,29067,5,2
184,272,29442,1,0
112,176,29817,1,2
120,56,30192,1,2
256,192,30567,12,2,32067
204,60,32817,6,0,B|204:84|228:112|228:112|204:140|204:172,1,120
152,272,33567,2,0,B|96:248|64:176|96:112,2,180,0|2|8
256,328,35067,5,2
360,264,35442,1,8
400,152,35817,2,2,B|416:104|416:104|456:88,2,90,2|10|2
384,208,36567,5,4
144,176,37317,1,8
352,296,38067,1,0
204,103,38817,1,8
248,336,39567,6,0,B|192:304|168:240,1,120,0|8
96,152,40317,1,0
96,152,40692,1,8
216,128,41067,2,0,B|272:160|296:224,1,120,0|8
368,312,41817,2,0,B|424:290|456:234,1,120,0|8
488,120,42567,5,4
248,104,43317,1,8
368,312,44067,1,0
128,296,44817,1,8
168,56,45567,6,0,B|136:112|168:176,1,120,0|8
208,280,46317,2,0,B|264:248|328:280,1,120,0|8
432,328,47067,2,0,B|472:208,1,120,0|8
360,160,47817,2,0,B|368:40,1,120,0|8
256,80,48567,6,0,B|200:96|200:96|176:152|112:184,2,180,4|2|8
256,200,50067,2,0,B|213:242,2,60
316,208,50629,2,2,B|372:192|372:192|396:136|460:104,1,180,2|8
464,228,51567,6,0,B|416:308|312:308,2,180,0|2|8
396,128,53067,2,0,B|396:68,2,60
348,164,53629,2,2,B|292:204|228:196|180:156,1,180,2|8
68,192,54567,6,0,B|132:272|132:272|140:320|132:368,2,180,0|2|8
160,116,56067,2,0,B|160:56,2,60
208,152,56629,2,2,B|288:216|288:216|336:224|365:218,1,180,2|8
336,104,57567,6,0,B|424:136|520:104,2,180,0|2|8
220,76,59067,2,0,B|157:70|157:70|101:104,1,120,0|8
184,192,59817,2,2,B|214:228|214:228|263:240,2,90,10|10|2
256,192,60567,12,2,62067
208,80,62817,6,0,B|152:112|144:184,1,120
136,296,63567,2,0,B|216:232|312:264,2,180,0|2|8
144,176,65067,5,2
256,128,65442,1,0
376,152,65817,1,2
424,264,66192,1,2
256,192,66567,12,2,68067
32,212,68817,6,0,B|16:284|72:324,1,120,0|0
168,260,69567,2,0,B|257:301|341:262,2,180,0|2|8
96,168,71067,2,0,B|80:96|136:56,1,120,0|8
240,96,71817,2,2,B|328:120,2,90,2|8|2
184,80,72567,5,4
200,320,73317,1,8
440,296,74067,1,0
424,56,74817,1,8
184,80,75567,6,0,B|128:96|128:96|80:136,1,120,0|8
64,256,76317,1,0
64,256,76692,1,8
176,296,77067,2,0,B|232:310|232:310|294:299,1,120,0|8
352,192,77817,2,0,B|416:192,2,60,0|0|8
296,88,78567,5,4
120,256,79317,2,0,B|88:192|120:136,1,120,0|8
224,84,80067,1,0
456,152,80817,2,0,B|488:216|456:272,1,120,0|8
352,324,81567,5,4
120,256,82317,1,0
320,128,83067,2,0,B|384:112|440:128,1,120,0|8
440,248,83817,2,0,B|376:264|320:248,1,120,0|8
216,192,84567,5,4
144,104,96567,6,0,B|104:185|131:268|224:305,1,240
256,184,97692,1,8
352,256,98067,2,2,B|392:175|365:92|272:55,1,240
256,184,99192,1,8
160,112,99567,6,0,B|104:96|104:96|40:112,2,120,0|2|2
152,232,100692,1,8
248,304,101067,2,2,B|320:328|320:328|384:288|384:180,1,240,2|2
384,184,102192,1,8
360,64,102567,5,0
272,152,102942,2,2,B|232:176|232:176|208:144|168:144,2,120,2|2|0
384,184,104067,1,0
304,280,104442,2,2,B|344:304|344:304|368:272|408:272,2,120,2|2|0
192,232,105567,6,0,B|72:264,1,120,0|8
128,152,106317,2,0,B|8:120,1,120,0|8
256,192,107067,12,4,108567
256,72,109317,6,0,B|200:144|304:232|256:304,1,240,0|4
328,136,110629,6,2,B|418:84,2,90,2|2|8
268,240,111567,2,0,B|319:270,2,60
224,280,112129,2,2,B|176:336|96:312|80:240,1,180,2|8
128,136,113067,6,0,B|232:144|304:104,2,180,0|2|8
196,236,114567,2,0,B|136:236,2,60
248,268,115129,2,2,B|333:209|414:208,1,180,2|8
356,104,116067,5,4
176,116,116629,2,2,B|136:140|88:132,2,90,2|2|8
196,236,117567,2,0,B|138:251,2,60
252,264,118129,2,0,B|341:238|430:278,1,180,2|8
448,160,119067,6,0,B|354:161|281:101,1,180,0|2
104,128,120192,1,8
48,232,120567,2,0,B|117:230|172:275,1,120,0|8
256,336,121317,2,2,B|344:336,2,90,10|10|2
200,312,122067,5,4
312,96,122817,1,8
200,312,123567,2,0,B|152:272|88:272,1,120,0|8
176,184,124317,2,0,B|113:184|65:144,1,120,0|8
160,64,125067,5,2
352,208,125817,1,8
160,352,126567,2,0,B|120:304|120:304|112:240,1,120,0|8
232,256,127317,2,0,B|224:198|224:198|184:150,1,120,0|8
104,64,128067,5,4
336,112,128817,2,0,B|392:144|456:112,2,120,0|2|0
168,280,130317,2,0,B|112:248|48:280,2,120,0|2|4
408,320,131817,5,8
256,136,132567,1,0
152,192,132942,1,8
44,136,133317,2,0,B|16:84,2,60,0|0|8
256,192,134067,12,2,135567
192,264,136317,6,0,B|256:240|312:264,1,120
392,176,137067,2,0,B|296:160|256:64,2,180,0|2|8
384,56,138567,5,2
384,56,138942,1,0
472,136,139317,2,2,B|496:208|440:248,1,120
256,192,140067,12,2,141567
40,248,142317,6,0,B|16:176|72:136,1,120
152,224,143067,2,0,B|228:169|192:61,2,180,0|2|8
256,288,144567,5,2
328,192,144942,1,0
320,72,145317,2,2,B|408:48,2,90,2|8|2
264,88,146067,5,4
48,184,146817,1,8
248,320,147567,1,0
456,200,148317,1,8
256,72,149067,6,0,B|200:104|136:72,1,120,0|8
80,176,149817,1,0
120,288,150192,1,8
200,208,150567,2,0,B|256:176|320:208,1,120,0|8
316,84,151317,1,0
420,144,151692,1,8
416,264,152067,5,4
176,264,152817,2,0,B|120:240|96:176,1,120,0|8
80,56,153567,1,0
272,200,154317,2,0,B|328:176|352:112,1,120,0|8
464,64,155067,5,4
384,288,155817,1,8
160,208,156567,2,0,B|112:200|112:200|80:224|32:216,1,120,0|8
88,104,157317,2,0,B|136:112|136:112|168:88|216:96,1,120,0|8
276,192,158067,5,4
328,112,170067,6,0,B|269:108|216:160|216:160|200:104|140:80,1,240,4|0
104,192,171192,1,8
188,276,171567,2,2,B|247:280|300:228|300:228|316:284|376:308,1,240,2|0
412,192,172692,1,8
352,88,173067,5,0
232,104,173442,2,2,B|176:128|112:104,1,120
32,192,174192,1,8
112,280,174567,2,2,B|173:257|229:281,1,120,2|0
312,192,175317,2,0,B|372:192,2,60,0|0|8
192,192,176067,5,0
256,88,176442,1,2
376,88,176817,2,0,B|440:88|440:88|464:144,1,120,2|0
432,256,177567,1,0
368,360,177942,1,2
248,360,178317,2,0,B|184:360|184:360|160:304,1,120,2|0
64,232,179067,6,0,B|86:180|86:180|150:180,1,120,0|8
208,72,179817,2,0,B|259:94|259:94|259:158,1,120,0|8
256,192,180567,12,4,182067
360,256,182817,5,8
152,128,183567,2,0,B|168:192|112:240,2,120,0|0|0
256,72,184692,1,0
360,128,185067,5,0
256,344,185817,1,8
120,144,186567,2,0,B|56:152|56:152|16:112,1,120
104,32,187317,1,0
256,216,188067,5,4
416,40,188817,2,0,B|423:100|482:139,1,120,8|0
424,248,189567,2,0,B|363:255|324:314,1,120
256,216,190317,2,0,B|152:276,1,120,0|0
48,336,191067,5,0
104,104,191817,2,0,B|152:64|216:64,1,120,8|0
296,152,192567,2,0,B|358:152|406:112,2,120,0|0|0
104,304,194067,6,0,B|176:256|260:364|332:288,1,240,4|0
256,192,195192,1,8
184,96,195567,2,2,B|254:21|338:129|410:81,1,240,2|0
448,196,196692,1,8
352,264,197067,6,0,B|376:328|448:344,2,120,0|2|2
256,192,198192,1,8
160,264,198567,2,0,B|136:328|64:344,2,120,2|0|2
256,192,199692,1,8
312,88,200067,6,0,B|256:56|192:88,2,120,0|2|2
368,192,201192,1,8
312,300,201567,2,2,B|252:329|196:297,2,120,0|2|2
256,192,202692,1,8
136,192,203067,6,0,B|88:152|80:88,1,120,0|8
200,88,203817,2,0,B|248:128|256:192,1,120,0|8
256,192,204567,12,4,206067
476,156,206817,6,0,B|385:143|361:277|275:272,1,240,0|4
332,100,208129,6,0,B|276:196|174:186,1,180,2|8
184,304,209067,2,0,B|120:336|64:304,1,120,0|0
128,200,209817,2,0,B|192:168|248:200,1,120,0|0
336,272,210567,6,0,B|400:208|400:104,2,180,0|2|8
256,184,212067,1,2
176,272,212442,1,0
256,360,212817,1,2
336,272,213192,1,2
256,192,213567,12,2,215067
88,344,215817,6,0,B|146:328|170:263,1,120
288,256,216567,2,0,B|379:256|439:172,2,180,0|2|8
184,320,218067,5,2
88,248,218442,1,0
24,144,218817,2,2,B|8:56,2,90,2|2|2
256,192,219567,12,2,221067
368,112,221817,6,0,B|344:168|272:184,1,120
296,304,222567,2,0,B|205:314|130:233,2,180,0|2|8
392,232,224067,5,2
480,152,224442,1,0
364,116,224817,2,2,B|300:140|244:116,1,120
256,192,225567,12,2,227067
88,276,227817,6,0,B|67:241|67:241|68:198|106:170,1,120
208,232,228567,2,0,B|244:280|244:280|304:304|364:268,2,180,0|2|8
280,136,230067,5,2
376,64,230442,1,0
456,152,230817,2,2,B|456:240,2,90,2|8|2
432,96,231567,5,4
312,304,232317,1,8
200,88,233067,1,0
80,296,233817,1,8
200,88,234567,6,0,B|264:64|320:64,1,120,0|8
280,176,235317,1,0
280,176,235692,1,8
360,264,236067,2,0,B|296:288|240:288,1,120,0|8
280,176,236817,1,0
280,176,237192,1,8
400,160,237567,5,4
192,40,238317,2,0,B|128:64|112:128,1,120,0|8
88,240,239067,1,0
296,360,239817,2,0,B|360:336|376:272,1,120,0|8
472,200,240567,5,4
440,84,240942,1,8
344,160,241317,1,0
312,44,241692,1,8
224,128,242067,2,0,B|192:72|120:72,1,120,0|8
120,192,242817,2,0,B|40:168,2,80
256,192,243567,12,0,248067
