osu file format v9

[General]
AudioFilename: 101 Privilege.mp3
AudioLeadIn: 1500
PreviewTime: 42217
Countdown: 0
SampleSet: Normal
StackLeniency: 0.6
Mode: 1
LetterboxInBreaks: 1

[Editor]
DistanceSpacing: 1
BeatDivisor: 4
GridSize: 8

[Metadata]
Title:Privilege
Artist:Atoguru
Creator:y u c a
Version:Pangko
Source:Touhou
Tags:vivace c-clays kotoge mai James yuca y_u_c_a alace pangpang

[Difficulty]
HPDrainRate:5
CircleSize:7
OverallDifficulty:5
ApproachRate:10
SliderMultiplier:1.4
SliderTickRate:2

[Events]
//Background and Video events
0,0,"pipiiii.jpg"
//Break Periods
//Storyboard Layer 0 (Background)
//Storyboard Layer 1 (Fail)
//Storyboard Layer 2 (Pass)
//Storyboard Layer 3 (Foreground)
//Storyboard Sound Samples
//Background Colour Transformations
3,100,163,162,255

[TimingPoints]
587,434.782608695652,4,1,0,70,1,0
42326,-100,4,1,0,70,0,1
71891,-100,4,1,0,70,0,0
113630,-100,4,1,0,70,0,1
143195,-100,4,1,0,70,0,0

[Colours]
Combo1 : 0,128,192
Combo2 : 134,214,225

[HitObjects]
192,104,587,5,4
184,152,1021,1,4
320,216,1456,1,2
240,112,1565,1,2
320,216,1782,1,2
240,112,2000,1,2
320,216,2108,1,2
240,112,2326,1,4
240,112,2760,1,4
72,160,3195,1,2
72,160,3413,1,2
72,160,3630,1,2
192,104,4065,5,4
184,152,4500,1,4
320,216,4934,1,2
240,112,5043,1,2
320,216,5260,1,2
240,112,5478,1,2
320,216,5586,1,2
240,112,5804,1,4
240,112,6239,1,4
72,160,6673,1,2
72,160,6891,1,2
72,160,7108,1,0
160,56,7217,1,0
160,56,7326,1,0
176,216,7543,5,0
272,184,7978,1,2
256,88,8195,1,0
160,128,8413,1,2
160,128,8521,1,0
224,128,8739,1,2
224,128,8956,1,0
224,128,9065,1,2
152,176,9282,1,0
264,184,9717,1,0
312,200,9826,1,0
312,200,9934,1,2
200,232,10152,1,0
200,232,10369,1,2
200,232,10586,1,0
200,232,10804,1,2
224,88,11021,1,4
224,88,11347,1,4
224,88,11673,1,4
144,144,11891,1,0
144,144,12000,1,0
144,144,12108,1,2
224,120,12326,1,2
184,120,12978,1,4
184,120,13195,1,4
160,64,13630,1,4
160,64,13847,1,4
264,240,14065,1,0
264,240,14173,1,0
264,240,14282,1,2
264,240,14391,1,2
264,240,14500,5,0
224,112,14826,1,0
152,104,15152,1,0
376,216,15260,1,0
368,96,15369,1,0
160,184,15586,1,2
168,80,15804,1,2
160,184,15913,1,2
192,104,16130,1,2
240,56,16456,1,0
240,56,16673,1,2
232,184,16891,1,0
232,184,17000,1,2
168,80,17217,1,2
88,136,17326,1,0
168,80,17434,1,0
168,80,17543,1,2
184,48,17760,1,2
152,176,17978,1,0
152,176,18304,1,0
152,176,18630,1,0
152,176,18739,1,0
152,176,18847,1,0
208,144,19065,1,2
352,232,19282,1,2
352,232,19391,1,2
352,232,19608,1,2
160,72,19717,1,2
296,160,19934,1,2
248,240,20152,1,0
248,240,20260,1,0
248,240,20586,1,2
144,208,20804,1,2
144,208,21021,1,0
168,64,21130,1,0
168,64,21239,1,0
264,240,21456,5,0
224,112,21782,1,0
152,104,22108,1,0
376,216,22217,1,0
368,96,22326,1,0
160,184,22543,1,2
64,88,22652,1,2
168,80,22760,1,2
160,184,22869,1,2
192,104,23086,1,2
240,56,23413,1,0
240,56,23630,1,2
232,184,23847,1,0
232,184,23956,1,2
168,80,24065,1,0
88,136,24282,1,2
168,80,24500,1,2
184,48,24717,1,0
152,176,24934,1,0
152,176,25260,1,0
288,80,25369,1,2
152,176,25586,1,0
152,176,25695,1,2
152,176,25804,1,0
208,144,26021,1,2
352,232,26239,1,0
160,16,26347,1,2
192,232,26456,1,0
352,232,26673,1,4
296,160,26891,1,4
168,128,27108,1,2
248,240,27217,1,2
232,64,27326,1,2
248,240,27543,1,4
144,208,27760,1,2
304,96,27869,1,2
144,208,27978,1,2
168,64,28086,1,2
168,64,28195,1,2
368,208,28413,5,0
144,120,28739,1,0
144,120,28847,1,2
216,152,29065,1,0
216,152,29173,1,2
216,152,29282,1,0
216,152,29500,1,2
224,96,29608,1,2
224,96,29717,1,2
224,96,29826,1,2
224,96,30043,1,2
224,96,30369,1,0
224,96,30586,1,0
312,144,30695,1,2
224,96,30804,1,0
128,136,31021,1,0
128,136,31130,1,2
128,136,31347,1,2
184,152,31456,1,0
184,152,31673,1,0
184,152,31891,1,0
200,88,32108,1,2
200,88,32217,1,0
200,88,32326,1,2
256,88,32543,1,0
328,168,32760,1,0
328,168,32978,1,2
328,168,33195,1,2
328,168,33304,1,2
328,168,33630,1,2
256,200,33847,1,0
216,112,34065,1,2
216,112,34282,1,0
216,112,34391,1,0
216,112,34500,1,2
216,112,34608,1,2
216,112,34717,1,0
144,120,34934,1,2
144,120,35152,1,0
144,120,35260,1,2
144,120,35369,1,0
208,168,35586,1,2
176,64,35695,1,0
176,64,35804,1,2
176,64,36021,1,0
240,104,36239,1,0
240,104,36456,1,2
240,104,36565,1,2
240,104,36673,1,2
240,104,36782,1,2
240,104,37000,1,2
168,208,37326,1,0
168,208,37543,1,2
200,104,37652,1,0
168,208,37760,1,2
280,200,37978,1,0
280,200,38195,1,0
280,200,38304,1,0
280,200,38413,1,2
280,200,38630,1,2
208,152,38847,1,0
256,136,39065,1,2
256,136,39173,1,2
256,136,39282,1,0
256,136,39391,1,0
256,136,39500,1,2
256,136,39717,1,4
256,136,39934,1,2
256,136,40152,1,4
256,136,40369,1,2
152,176,40586,1,4
256,136,41021,1,2
256,136,41456,1,2
176,176,41891,1,2
176,176,42000,1,2
176,176,42108,1,2
144,112,42326,5,0
144,112,42543,1,2
144,112,42760,1,2
144,112,42978,1,0
272,128,43086,1,0
272,128,43195,1,2
296,168,43413,1,0
296,144,43521,1,2
296,144,43630,1,0
296,144,43847,1,2
144,112,44065,1,0
144,112,44282,1,2
144,112,44500,1,2
144,112,44717,1,0
272,128,44826,1,0
272,128,44934,1,2
296,168,45152,1,0
296,144,45260,1,2
296,144,45369,1,0
296,144,45478,1,0
296,144,45586,1,2
144,112,45804,1,0
144,112,46021,1,2
144,112,46239,1,2
176,40,46347,1,2
144,112,46456,1,0
272,128,46565,1,0
272,128,46673,1,2
296,168,46891,1,0
296,144,47000,1,2
296,144,47108,1,0
296,144,47326,1,2
192,184,47543,1,0
240,104,47760,1,2
192,184,47869,1,0
240,104,48086,1,2
192,184,48195,1,0
184,112,48413,1,2
184,112,48521,1,2
144,120,48739,1,2
280,192,48956,1,2
280,192,49065,1,2
144,112,49282,5,0
144,112,49500,1,2
144,112,49717,1,2
160,32,49826,1,2
144,112,49934,1,0
272,128,50043,1,0
272,128,50152,1,2
296,168,50369,1,0
296,144,50478,1,2
296,144,50586,1,0
296,144,50804,1,2
144,112,51021,1,0
144,112,51239,1,2
144,112,51456,1,2
144,112,51673,1,0
272,128,51782,1,0
272,128,51891,1,2
296,168,52108,1,0
296,144,52217,1,2
296,144,52326,1,0
296,144,52434,1,0
296,144,52543,1,2
216,56,52652,1,0
144,112,52760,1,0
144,112,52978,1,2
144,112,53195,1,2
176,40,53304,1,2
144,112,53413,1,0
272,128,53521,1,0
272,128,53630,1,2
296,168,53847,1,0
296,144,53956,1,2
296,144,54065,1,0
216,56,54173,1,0
296,144,54282,1,2
8,192,54500,2,0,B|288:184,1,280
216,56,55586,1,0
216,56,55804,1,0
240,120,56021,1,0
256,136,56130,1,0
144,112,56239,5,0
144,112,56456,1,2
144,112,56673,1,0
208,32,56782,1,2
144,112,56891,1,0
272,128,57000,1,0
272,128,57108,1,2
296,168,57326,1,0
296,144,57434,1,2
296,144,57543,1,0
296,144,57760,1,2
144,112,57978,1,0
144,112,58195,1,2
144,112,58413,1,0
208,32,58521,1,2
144,112,58630,1,0
272,128,58739,1,0
272,128,58847,1,2
296,168,59065,1,0
296,144,59173,1,2
296,144,59282,1,0
296,144,59391,1,0
296,144,59500,1,2
144,112,59717,1,0
144,112,59934,1,2
208,104,60043,1,0
144,112,60152,1,0
176,40,60260,1,2
144,112,60369,1,0
272,128,60478,1,0
272,128,60586,1,2
296,168,60804,1,0
296,144,60913,1,2
296,144,61021,1,0
200,56,61130,1,0
296,144,61239,1,2
192,184,61456,1,0
240,104,61673,1,2
192,184,61782,1,0
240,104,62000,1,2
192,184,62108,1,0
184,112,62326,1,2
184,112,62434,1,2
144,120,62652,1,2
280,192,62869,1,2
280,192,62978,1,2
144,112,63195,5,0
144,112,63413,1,2
144,112,63630,1,0
160,32,63739,1,2
144,112,63847,1,0
272,128,63956,1,0
272,128,64065,1,2
296,168,64282,1,0
296,144,64391,1,2
296,144,64500,1,0
200,56,64608,1,0
296,144,64717,1,2
144,112,64934,1,0
144,112,65152,1,2
144,112,65369,1,0
200,56,65478,1,2
144,112,65586,1,0
272,128,65695,1,0
272,128,65804,1,2
296,168,66021,1,0
296,144,66130,1,2
296,144,66239,1,0
296,144,66347,1,0
296,144,66456,1,2
216,56,66565,1,0
144,112,66673,1,0
144,112,66891,1,2
144,112,67108,1,0
176,40,67217,1,2
144,112,67326,1,0
272,128,67434,1,0
272,128,67543,1,2
296,168,67760,1,0
296,144,67869,1,2
296,144,67978,1,0
216,56,68086,1,0
296,144,68195,1,2
0,128,68413,2,0,B|488:184,1,490
128,200,70152,1,0
128,200,70260,1,0
128,200,70369,1,0
128,200,70478,1,0
128,200,70586,1,2
128,200,70695,1,2
128,200,70804,1,2
128,200,70913,1,2
128,200,71021,1,0
128,200,71130,1,2
128,200,71239,1,0
128,200,71347,1,2
128,200,71456,1,0
128,200,71565,1,0
128,200,71673,1,2
256,88,71782,1,2
192,104,71891,5,0
280,144,72108,1,2
184,152,72326,1,0
280,144,72434,1,2
280,144,72543,1,0
320,216,72760,1,2
240,112,72869,1,2
320,216,73086,1,2
280,144,73195,1,0
240,112,73304,1,2
320,216,73413,1,0
240,112,73630,1,2
208,192,73847,1,0
240,112,74065,1,2
264,192,74173,1,0
264,192,74391,1,0
72,160,74500,1,2
72,160,74717,1,0
72,160,74934,1,2
192,104,75369,5,0
168,96,75586,1,2
184,152,75804,1,0
168,96,75913,1,2
168,96,76021,1,0
208,64,76239,1,2
240,112,76347,1,2
320,216,76565,1,2
128,56,76673,1,0
240,112,76782,1,2
320,216,76891,1,0
240,112,77108,1,2
184,152,77326,1,0
240,112,77543,1,2
232,136,77652,1,0
232,136,77869,1,0
72,160,77978,1,2
72,160,78195,1,2
72,160,78413,1,0
160,56,78521,1,2
160,56,78630,1,0
176,216,78847,5,0
288,136,79065,1,2
272,184,79282,1,0
288,136,79391,1,2
256,88,79500,1,0
160,128,79717,1,2
160,128,79826,1,2
224,128,80043,1,2
160,56,80152,1,0
224,128,80260,1,2
224,128,80369,1,0
152,176,80587,1,2
288,136,80695,1,2
288,136,80804,1,0
264,184,81021,1,2
312,200,81130,1,2
312,200,81239,1,0
200,232,81456,1,2
200,232,81673,1,0
288,136,81782,1,0
200,232,81891,1,2
200,232,82108,1,0
224,88,82326,1,4
224,88,82652,1,4
224,88,82978,1,4
144,144,83195,1,0
144,144,83304,1,0
144,144,83413,1,0
224,120,83630,1,2
352,200,83739,1,2
232,240,83847,1,2
232,240,83956,1,2
184,120,84065,1,2
184,120,84282,1,4
184,120,84500,1,4
160,64,84934,1,4
160,64,85152,1,4
264,240,85369,1,0
264,240,85478,1,0
264,240,85587,1,2
264,240,85695,1,2
264,240,85804,5,0
224,112,86130,1,0
272,168,86239,1,2
152,104,86456,1,0
376,216,86565,1,2
368,96,86673,1,0
160,184,86891,1,2
168,80,87108,1,2
160,184,87217,1,2
144,40,87326,1,0
192,104,87434,1,2
304,216,87543,1,0
240,56,87760,1,0
240,56,87978,1,2
232,184,88195,1,0
232,184,88304,1,2
168,80,88521,1,2
88,136,88630,1,0
168,80,88739,1,0
168,80,88847,1,2
184,48,89065,1,2
152,176,89282,1,0
232,112,89500,1,2
152,176,89608,1,0
232,112,89717,1,2
152,176,89934,1,0
152,176,90043,1,2
152,176,90152,1,0
208,144,90369,1,2
352,232,90587,1,2
352,232,90695,1,2
352,232,90913,1,2
352,232,91021,1,2
296,160,91239,1,2
248,240,91456,1,0
248,240,91565,1,0
248,240,91891,1,2
144,208,92108,1,2
144,208,92326,1,0
168,64,92434,1,0
168,64,92543,1,0
264,240,92760,5,0
224,112,93087,1,0
184,48,93195,1,2
152,104,93413,1,0
376,216,93521,1,2
368,96,93630,1,0
160,184,93847,1,2
64,88,93956,1,2
168,80,94065,1,2
160,184,94173,1,2
192,104,94391,1,2
240,56,94717,1,0
240,56,94934,1,2
256,96,95043,1,2
232,184,95152,1,0
232,184,95260,1,2
168,80,95369,1,0
88,136,95587,1,2
144,40,95695,1,0
168,80,95913,1,0
184,48,96021,1,2
152,176,96239,1,0
152,176,96565,1,0
288,80,96673,1,2
152,176,96891,1,0
152,176,97000,1,0
152,176,97108,1,2
208,144,97326,1,0
352,232,97543,1,2
176,112,97652,1,2
192,232,97760,1,0
352,232,97978,1,4
296,160,98195,1,4
168,128,98413,1,2
248,240,98521,1,2
232,64,98630,1,2
248,240,98847,1,4
144,208,99065,1,2
304,96,99173,1,2
144,208,99282,1,2
168,64,99391,1,2
168,64,99500,1,2
368,208,99717,5,0
304,128,99934,1,0
144,120,100043,1,0
144,120,100152,1,2
216,152,100369,1,0
216,152,100478,1,2
216,152,100587,1,0
216,152,100804,1,2
224,96,100913,1,2
224,96,101021,1,2
224,96,101130,1,2
224,96,101347,1,2
224,96,101673,1,0
224,96,101891,1,2
312,144,102000,1,0
224,96,102108,1,2
128,136,102326,1,0
128,136,102434,1,2
128,136,102652,1,2
184,152,102760,1,0
184,152,102978,1,0
184,152,103195,1,0
200,88,103413,1,2
200,88,103521,1,2
200,88,103630,1,0
304,128,103739,1,0
256,88,103847,1,2
328,168,104065,1,0
328,168,104282,1,2
328,168,104500,1,2
328,168,104608,1,2
328,168,104826,1,2
328,168,104934,1,2
256,200,105152,1,0
120,56,105260,1,0
216,112,105369,1,2
216,112,105587,1,0
216,112,105695,1,0
216,112,105804,1,2
216,112,105913,1,2
216,112,106021,1,0
224,24,106130,1,0
144,120,106239,1,2
144,120,106456,1,0
144,120,106565,1,2
144,120,106673,1,0
208,168,106891,1,0
176,64,107000,1,0
176,64,107108,1,2
224,24,107217,1,0
176,64,107326,1,2
240,104,107543,1,0
240,104,107760,1,2
240,104,107869,1,2
240,104,107978,1,2
240,104,108087,1,2
240,104,108304,1,2
168,208,108630,1,0
168,208,108847,1,2
200,104,108956,1,0
168,208,109065,1,2
280,200,109282,1,0
280,200,109500,1,0
280,200,109608,1,0
280,200,109717,1,2
280,200,109934,1,2
208,152,110152,1,0
256,136,110369,1,2
256,136,110478,1,2
256,136,110587,1,0
256,136,110695,1,0
256,136,110804,1,2
256,136,111021,1,4
256,136,111239,1,2
256,136,111456,1,4
256,136,111673,1,2
152,176,111891,1,4
256,136,112326,1,2
256,136,112760,1,2
176,176,113195,1,2
176,176,113304,1,2
176,176,113413,1,2
144,112,113630,5,0
144,112,113847,1,2
144,112,114065,1,2
192,24,114173,1,2
144,112,114282,1,0
272,128,114391,1,0
272,128,114500,1,2
296,168,114717,1,0
296,144,114826,1,2
296,144,114934,1,0
296,144,115152,1,2
144,112,115369,1,0
144,112,115587,1,2
144,112,115804,1,2
144,112,116021,1,0
272,128,116130,1,0
272,128,116239,1,2
296,168,116456,1,0
296,144,116565,1,2
296,144,116673,1,0
296,144,116782,1,0
296,144,116891,1,2
216,136,117000,1,0
144,112,117108,1,0
144,112,117326,1,2
144,112,117543,1,2
176,40,117652,1,2
144,112,117760,1,0
272,128,117869,1,0
272,128,117978,1,2
296,168,118195,1,0
296,144,118304,1,2
296,144,118413,1,0
296,144,118630,1,2
192,184,118847,1,0
240,104,119065,1,2
192,184,119173,1,0
240,104,119391,1,2
192,184,119500,1,0
184,112,119717,1,2
184,112,119826,1,2
144,120,120043,1,2
280,192,120260,1,2
280,192,120369,1,2
144,112,120587,5,0
144,112,120804,1,2
144,112,121021,1,2
160,32,121130,1,2
144,112,121239,1,0
272,128,121347,1,0
272,128,121456,1,2
296,168,121673,1,0
296,144,121782,1,2
296,144,121891,1,0
208,72,122000,1,0
296,144,122108,1,2
144,112,122326,1,0
144,112,122543,1,2
144,112,122760,1,2
144,112,122978,1,0
272,128,123087,1,0
272,128,123195,1,2
296,168,123413,1,0
296,144,123521,1,2
296,144,123630,1,0
296,144,123739,1,0
296,144,123847,1,2
216,56,123956,1,0
144,112,124065,1,0
144,112,124282,1,2
144,112,124500,1,2
176,40,124608,1,2
144,112,124717,1,0
272,128,124826,1,0
272,128,124934,1,2
296,168,125152,1,0
296,144,125260,1,2
296,144,125369,1,0
216,56,125478,1,0
296,144,125587,1,2
152,232,125804,1,0
152,232,125913,1,0
152,232,126021,1,0
152,232,126130,1,0
152,232,126239,1,2
152,232,126347,1,2
152,232,126456,1,2
152,232,126565,1,2
152,232,126673,1,0
240,120,126891,1,2
240,120,127108,1,2
240,120,127326,1,2
144,112,127543,5,0
144,112,127760,1,2
144,112,127978,1,0
208,32,128087,1,2
144,112,128195,1,2
272,128,128304,1,0
272,128,128413,1,2
296,168,128630,1,0
296,144,128739,1,2
296,144,128847,1,2
224,96,128956,1,0
296,144,129065,1,2
144,112,129282,1,0
144,112,129500,1,2
144,112,129717,1,0
208,32,129826,1,2
144,112,129934,1,2
272,128,130043,1,0
272,128,130152,1,2
296,168,130369,1,0
296,144,130478,1,2
296,144,130587,1,2
296,144,130695,1,0
296,144,130804,1,2
144,112,131021,1,0
144,112,131239,1,2
208,104,131347,1,0
144,112,131456,1,0
176,40,131565,1,2
144,112,131673,1,2
272,128,131782,1,0
272,128,131891,1,2
296,168,132108,1,0
296,144,132217,1,2
296,144,132326,1,2
200,56,132434,1,0
296,144,132543,1,2
192,184,132760,1,0
240,104,132978,1,2
192,184,133087,1,0
240,104,133304,1,2
192,184,133413,1,0
184,112,133630,1,2
184,112,133739,1,2
144,120,133956,1,2
280,192,134173,1,2
280,192,134282,1,2
144,112,134500,5,0
144,112,134717,1,2
144,112,134934,1,0
160,32,135043,1,2
144,112,135152,1,2
272,128,135260,1,0
272,128,135369,1,2
296,168,135587,1,0
296,144,135695,1,2
296,144,135804,1,2
200,56,135913,1,0
296,144,136021,1,2
144,112,136239,1,0
144,112,136456,1,2
144,112,136673,1,0
200,56,136782,1,2
144,112,136891,1,2
272,128,137000,1,0
272,128,137108,1,2
296,168,137326,1,0
296,144,137434,1,2
296,144,137543,1,2
296,144,137652,1,0
296,144,137760,1,2
216,56,137869,1,2
144,112,137978,1,0
144,112,138195,1,2
144,112,138413,1,0
176,40,138521,1,2
144,112,138630,1,2
272,128,138739,1,0
272,128,138847,1,2
296,168,139065,1,0
296,144,139173,1,2
296,144,139282,1,2
216,56,139391,1,0
296,144,139500,1,2
136,176,139717,1,0
136,176,139826,1,0
136,176,139934,1,0
136,176,140043,1,0
136,176,140152,1,2
136,176,140260,1,2
136,176,140369,1,2
136,176,140478,1,2
136,176,140586,1,0
136,176,140695,1,0
136,176,140804,1,2
136,176,140913,1,2
136,176,141021,1,0
136,176,141130,1,2
136,176,141239,1,0
352,160,141347,1,2
128,200,141456,1,0
128,200,141565,1,0
128,200,141673,1,2
128,200,141782,1,0
128,200,141891,1,2
128,200,142000,1,0
128,200,142108,1,2
128,200,142217,1,0
128,200,142326,1,2
128,200,142434,1,2
128,200,142543,1,0
128,200,142652,1,0
128,200,142760,1,2
128,200,142869,1,2
128,200,142978,1,0
256,88,143087,1,2
256,88,143195,1,0
