osu file format v9

[General]
AudioFilename: 101 Privilege.mp3
AudioLeadIn: 1500
PreviewTime: 42217
Countdown: 0
SampleSet: Normal
StackLeniency: 0.6
Mode: 0
LetterboxInBreaks: 1

[Editor]
Bookmarks: 11616,12051,12269,14442,19985,20311,28354,42266,56178,71829,85741,99654,108352,108569,109656,110091,113566,127478
DistanceSpacing: 1
BeatDivisor: 4
GridSize: 8

[Metadata]
Title:Privilege
Artist:Atoguru
Creator:y u c a
Version:Normal
Source:Touhou
Tags:vivace c-clays kotoge mai James yuca y_u_c_a alace pangpang

[Difficulty]
HPDrainRate:2
CircleSize:3
OverallDifficulty:1
ApproachRate:5
SliderMultiplier:1.2
SliderTickRate:1

[Events]
//Background and Video events
0,0,"pipiiii.jpg"
//Break Periods
2,72091,83082
//Storyboard Layer 0 (Background)
//Storyboard Layer 1 (Fail)
//Storyboard Layer 2 (Pass)
//Storyboard Layer 3 (Foreground)
//Storyboard Sound Samples
//Background Colour Transformations
3,100,163,162,255

[TimingPoints]
587,434.782608695652,4,1,1,70,1,0
16347,-100,4,2,1,70,0,0
16565,-100,4,1,1,70,0,0
18521,-100,4,2,1,70,0,0
18739,-100,4,1,1,70,0,0
23304,-100,4,2,1,70,0,0
23521,-100,4,1,1,70,0,0
25478,-100,4,2,1,70,0,0
25695,-100,4,1,1,70,0,0
34391,-100,4,2,1,70,0,0
34608,-100,4,1,1,70,0,0
42224,-100,4,2,1,100,0,0
42434,-100,4,2,1,70,0,0
42652,-100,4,1,1,70,0,0
43956,-100,4,2,1,100,0,0
44173,-100,4,1,1,70,0,0
49173,-100,4,2,1,100,0,0
49391,-100,4,2,1,70,0,0
49608,-100,4,1,1,70,0,0
49826,-100,4,1,1,70,0,0
50913,-100,4,2,1,100,0,0
51130,-100,4,2,1,70,0,0
51347,-100,4,1,1,70,0,0
51565,-100,4,1,1,70,0,0
63086,-100,4,2,1,100,0,0
63304,-100,4,2,1,70,0,0
63521,-100,4,1,1,70,0,0
64826,-100,4,2,1,100,0,0
65043,-100,4,2,1,70,0,0
65260,-100,4,1,1,70,0,0
70043,-100,4,2,1,50,0,0
71673,-100,4,1,1,70,0,0
87652,-100,4,2,1,70,0,0
87869,-100,4,1,1,70,0,0
89826,-100,4,2,1,70,0,0
90043,-100,4,1,1,70,0,0
94608,-100,4,2,1,70,0,0
94826,-100,4,1,1,70,0,0
96782,-100,4,2,1,70,0,0
97000,-100,4,1,1,70,0,0
105695,-100,4,2,1,70,0,0
105913,-100,4,1,1,70,0,0
113521,-100,4,2,1,100,0,0
113739,-100,4,2,1,70,0,0
113956,-100,4,1,1,70,0,0
115260,-100,4,2,1,100,0,0
115478,-100,4,2,1,70,0,0
115695,-100,4,1,1,70,0,0
120478,-100,4,2,1,100,0,0
120695,-100,4,2,1,70,0,0
120913,-100,4,1,1,70,0,0
122217,-100,4,2,1,100,0,0
122434,-100,4,2,1,70,0,0
122652,-100,4,1,1,70,0,0
134391,-100,4,2,1,70,0,0
134608,-100,4,2,1,100,0,0
134826,-100,4,1,1,70,0,0
136130,-100,4,2,1,100,0,0
136347,-100,4,2,1,70,0,0
136565,-100,4,1,1,70,0,0

[Colours]
Combo1 : 0,128,192
Combo2 : 134,214,225

[HitObjects]
128,72,14500,1,0
368,72,15369,1,0
368,312,16456,5,0
368,312,16673,1,0
376,192,17108,2,0,B|296:152|208:224|232:344,1,240
48,320,18630,1,0
48,320,18847,1,0
256,192,19934,12,0,21456
144,72,22326,5,0
144,312,23413,5,0
144,312,23630,1,0
136,192,24065,2,0,B|216:152|304:224|280:344,1,240
464,320,25586,1,0
464,320,25804,1,0
256,104,26673,5,0
256,192,26891,2,0,B|256:296,2,90
48,104,28413,5,4
168,104,28847,1,0
288,104,29282,2,0,B|432:104,1,120
352,208,30152,1,0
264,288,30586,1,0
144,288,31021,2,0,B|40:288,2,90
144,200,31891,5,0
224,112,32326,1,0
336,144,32760,1,0
360,264,33195,1,0
256,328,33630,2,0,B|128:328,2,120,2|2|0
344,328,34717,1,0
344,328,35369,6,0,B|480:328,1,120,4|0
416,216,36239,1,0
456,104,36673,1,0
352,40,37108,2,0,B|216:40,1,120
224,160,37978,2,0,B|224:256,2,90
312,160,38847,2,0,B|312:296,4,120
423,224,41021,5,0
385,341,41456,1,0
256,344,41891,1,0
127,342,42326,5,2
70,263,42543,1,0
112,176,42760,2,0,B|360:176,1,240
376,328,44065,1,2
434,261,44282,1,0
400,176,44500,2,0,B|384:112|448:64,2,120,0|2|0
288,144,45804,5,0
168,144,46239,2,0,B|32:144,2,120
240,240,47543,2,0,B|336:240,2,90
280,336,48413,2,0,B|184:336,2,90
376,336,49282,5,2
440,265,49500,1,0
400,176,49717,2,0,B|152:176,1,240,2|0
136,328,51021,1,2
77,260,51239,1,0
112,176,51456,2,0,B|128:112|64:64,2,120
224,144,52760,5,0
344,144,53195,1,0
376,264,53630,1,0
272,328,54065,1,0
176,256,54500,1,0
256,192,54608,12,4,56239
136,312,56673,6,0,B|384:312,1,240
448,216,57978,1,0
368,128,58413,2,0,B|232:128,2,120
304,232,59717,5,0
184,232,60152,2,0,B|120:216|96:136,1,120
216,120,61021,1,0
285,22,61456,2,0,B|333:38|357:94,2,90
225,92,62326,2,0,B|145:172,2,90
296,160,63195,5,2
232,224,63413,1,0
256,312,63630,2,0,B|336:190|504:312,1,240
464,168,64934,1,2
400,104,65152,1,0
328,48,65369,2,0,B|272:64|208:48,2,120
264,152,66673,5,0
144,152,67108,1,0
80,248,67543,1,0
168,328,67978,1,0
168,328,68195,1,0
168,328,68413,1,0
256,192,68521,12,4,70152
256,192,70260,12,4,71891
197,227,84282,6,0,B|173:147,1,60
335,220,84934,2,0,B|311:140,1,60
256,48,85804,5,0
256,336,86673,1,0
64,336,87760,1,2
64,336,87978,1,0
64,216,88413,2,0,B|176:184|312:216,1,240
480,248,89934,1,2
480,248,90152,1,0
256,192,91239,12,0,92760
256,48,93630,5,0
448,48,94717,5,2
448,48,94934,1,0
449,168,95369,2,0,B|337:200|201:168,1,240
32,136,96891,1,2
32,136,97108,1,0
256,280,97978,5,0
256,192,98195,2,0,B|256:96,2,90
424,80,99717,5,0
464,192,100152,1,0
352,240,100587,2,0,B|288:272|248:328,1,120
256,192,101456,1,0
256,72,101891,1,0
135,87,102326,2,0,B|79:87|39:127,2,90
120,184,103195,5,0
104,304,103630,1,0
208,248,104065,1,0
224,128,104500,1,0
320,200,104934,2,0,B|304:328,2,120,0|0|2
333,112,106021,1,0
208,64,106673,6,0,B|192:192,1,120,4|0
256,288,107543,1,0
376,296,107978,1,0
472,216,108413,2,0,B|488:80,1,120
368,64,109282,2,0,B|328:40|272:48,2,90
312,136,110152,1,4
256,192,110260,12,4,111891
72,192,112326,5,0
192,192,112760,1,0
312,192,113195,1,0
432,192,113630,5,2
433,283,113847,1,0
338,303,114065,2,0,B|226:335|90:303,1,240
99,183,115369,1,2
100,89,115587,1,0
194,66,115804,2,0,B|250:42|330:66,2,120
256,176,117108,5,0
312,280,117543,2,0,B|256:304|176:272,2,120
256,176,118847,2,0,B|256:72,2,90
256,264,119717,2,0,B|256:360,2,90
336,216,120587,5,2
382,127,120804,1,0
336,40,121021,2,0,B|216:16|88:40,1,240
96,160,122326,1,2
64,248,122543,1,0
96,336,122760,2,0,B|224:336,2,120
160,232,124065,5,0
272,280,124500,1,0
376,216,124934,1,0
381,94,125369,2,0,B|440:34,2,60
257,68,126239,2,0,B|257:191,2,120
127,49,127543,6,0,B|26:127|12:268|167:344,1,360
247,265,129282,1,0
352,320,129717,2,0,B|488:320,2,120
392,208,131021,5,0
352,96,131456,2,0,B|304:56|240:64,1,120
120,88,132326,1,0
72,200,132760,2,0,B|48:240|64:304,2,90
144,248,133630,2,0,B|240:248,2,90
184,328,134500,5,2
284,309,134717,1,0
379,288,134934,2,0,B|427:176|379:40,1,240
252,88,136239,1,2
160,113,136456,1,0
68,140,136673,2,0,B|68:268,2,120
163,226,137978,5,0
246,315,138413,1,0
333,241,138847,1,0
407,154,139282,1,0
407,154,139500,1,0
407,154,139717,1,0
256,192,139826,12,4,141456
