osu file format v14

[General]
AudioFilename: KCmai.mp3
AudioLeadIn: 0
PreviewTime: 74402
Countdown: 0
SampleSet: Normal
StackLeniency: 0.7
Mode: 0
LetterboxInBreaks: 0
WidescreenStoryboard: 0

[Editor]
Bookmarks: 688,14402,29830,57259,74402,88116,103545,130973,148116,161830,175545,177259,184116,194402,208116,223545
DistanceSpacing: 1
BeatDivisor: 4
GridSize: 4
TimelineZoom: 1

[Metadata]
Title:Hana no Sadame
TitleUnicode:花の運命
Artist:Atoguru
ArtistUnicode:あとぐる
Creator:CSAQ
Version:Insane
Source:艦隊これくしょん~艦これ~
Tags:Mai Kotohge Splash! C-CLAYS KanColle 舞音@Groove 敵大型超弩級戦艦を叩け! Kantai Collection~Kan Colle~
BeatmapID:550087
BeatmapSetID:169848

[Difficulty]
HPDrainRate:7
CircleSize:4
OverallDifficulty:7
ApproachRate:8.7
SliderMultiplier:1.6
SliderTickRate:1

[Events]
//Background and Video events
0,0,"Kongou.jpg",0,0
//Break Periods
2,88316,97757
2,177259,183471
//Storyboard Layer 0 (Background)
//Storyboard Layer 1 (Fail)
//Storyboard Layer 2 (Pass)
//Storyboard Layer 3 (Foreground)
//Storyboard Sound Samples

[TimingPoints]
688,428.571428571429,4,1,1,70,1,0
72902,-100,4,1,1,40,0,0
73116,-100,4,1,1,50,0,0
73330,-100,4,1,1,60,0,0
73545,-100,4,1,1,70,0,0
73973,-100,4,1,1,60,0,0
74402,-100,4,1,1,85,0,1
88116,-100,4,1,1,85,0,0
98402,-100,4,1,1,70,0,0
146616,-100,4,1,1,40,0,0
146830,-100,4,1,1,50,0,0
147045,-100,4,1,1,60,0,0
147259,-100,4,1,1,70,0,0
147688,-100,4,1,1,60,0,0
148116,-100,4,1,1,85,0,1
161830,-100,4,1,1,70,0,0
184116,-100,4,2,1,70,0,0
187545,-133.333333333333,4,2,1,70,0,0
192688,-100,4,1,1,80,0,0
192902,-100,4,1,1,50,0,0
193116,-100,4,1,1,60,0,0
193330,-100,4,1,1,70,0,0
193545,-100,4,1,1,80,0,0
193973,-100,4,1,1,70,0,0
194402,-100,4,1,1,90,0,1
208116,-100,4,1,1,80,0,0
223116,-57.1428571428571,4,1,1,80,0,0
223330,-100,4,1,1,80,0,0

[Colours]
Combo1 : 238,238,119
Combo2 : 255,87,171
Combo3 : 128,255,128
Combo4 : 60,60,255

[HitObjects]
256,192,12688,12,8,13973,0:0:0:0:
48,184,14188,5,0,0:0:0:0:
48,184,14295,1,0,0:0:0:0:
48,184,14402,2,0,P|84:204|124:200,1,80,4|0,0:0|0:0,0:0:0:0:
188,100,14830,2,0,P|224:80|264:84,1,80,8|0,0:0|0:0,0:0:0:0:
340,72,15152,2,0,P|339:113|315:145,1,80,0|0,0:0|0:0,0:0:0:0:
288,220,15473,2,0,P|252:198|236:162,1,80,0|8,0:0|0:0,0:0:0:0:
188,316,15902,1,0,0:0:0:0:
420,252,16116,5,0,0:0:0:0:
360,356,16330,2,0,L|268:340,1,80,0|8,0:0|0:0,0:0:0:0:
160,236,16759,1,0,0:0:0:0:
160,236,16866,2,0,P|209:239|244:229,1,80,0|0,0:0|0:0,0:0:0:0:
348,128,17188,2,0,P|308:129|269:118,1,80,0|8,0:0|0:0,0:0:0:0:
144,24,17616,1,0,0:0:0:0:
288,220,17830,6,0,P|327:218|366:229,1,80,0|0,0:0|0:0,0:0:0:0:
304,332,18259,2,0,P|264:333|225:322,1,80,8|0,0:0|0:0,0:0:0:0:
132,356,18580,2,0,P|110:322|101:283,1,80,0|0,0:0|0:0,0:0:0:0:
12,236,18902,2,0,P|30:200|59:173,1,80,0|8,0:0|0:0,0:0:0:0:
172,128,19330,1,0,0:0:0:0:
390,87,19545,6,0,L|312:72,1,80,4|0,0:0|0:0,0:0:0:0:
400,204,19973,1,8,0:0:0:0:
400,204,20188,2,0,P|316:192|228:208,1,160,4|0,0:0|0:0,0:0:0:0:
400,328,20830,2,0,L|444:336,2,40,8|0|8,0:0|0:0|0:0,0:0:0:0:
390,87,21259,5,4,0:0:0:0:
168,180,21473,2,0,P|164:136|172:100,1,80,0|8,0:0|0:0,0:0:0:0:
184,264,21902,1,0,0:0:0:0:
184,264,22009,2,0,P|148:284|108:288,1,80,0|0,0:0|0:0,0:0:0:0:
244,332,22330,2,0,P|278:312|318:307,1,80,0|8,0:0|0:0,0:0:0:0:
284,152,22759,1,0,0:0:0:0:
48,104,22973,5,0,0:0:0:0:
168,180,23188,2,0,P|175:219|171:258,1,80,0|8,0:0|0:0,0:0:0:0:
360,76,23616,1,0,0:0:0:0:
360,76,23723,2,0,P|408:84|436:112,1,80,0|0,0:0|0:0,0:0:0:0:
460,224,24045,2,0,P|412:216|384:188,1,80,0|8,0:0|0:0,0:0:0:0:
356,352,24473,1,0,0:0:0:0:
284,164,24688,6,0,P|260:136|220:116,1,80,4|0,0:0|0:0,0:0:0:0:
240,272,25116,1,8,0:0:0:0:
344,120,25330,2,0,P|264:132|210:188,1,160,0|0,0:0|0:0,0:0:0:0:
448,160,25973,2,0,L|460:120,2,40,8|0|4,0:0|0:0|0:0,0:0:0:0:
180,340,26616,5,0,0:0:0:0:
144,320,26723,1,0,0:0:0:0:
128,284,26830,1,0,0:0:0:0:
136,244,26938,1,0,0:0:0:0:
344,120,27259,5,0,0:0:0:0:
380,140,27366,1,0,0:0:0:0:
396,176,27473,1,0,0:0:0:0:
388,216,27581,1,0,0:0:0:0:
304,304,27688,6,0,L|260:300,1,40,8|0,0:0|0:0,0:0:0:0:
196,104,27902,2,0,L|235:107,1,40,8|0,0:0|0:0,0:0:0:0:
188,296,28330,5,0,0:0:0:0:
144,320,28438,1,0,0:0:0:0:
92,312,28545,1,0,0:0:0:0:
56,276,28652,1,0,0:0:0:0:
336,164,28973,5,0,0:0:0:0:
380,140,29081,1,0,0:0:0:0:
432,148,29188,1,0,0:0:0:0:
468,184,29295,1,0,0:0:0:0:
388,272,29402,6,0,L|380:316,1,40,8|0,0:0|0:0,0:0:0:0:
136,192,29616,2,0,L|144:148,1,40,8|0,0:0|0:0,0:0:0:0:
256,68,29830,6,0,B|276:108|256:148|256:148|244:188|264:232,1,160,4|0,0:0|0:0,0:0:0:0:
296,312,30473,1,0,0:0:0:0:
296,312,30580,1,0,0:0:0:0:
296,312,30688,2,0,P|241:323|190:290,2,120,0|0|0,0:0|0:0|0:0,0:0:0:0:
380,128,31545,2,0,P|434:117|488:152,2,120,0|0|0,0:0|0:0|0:0,0:0:0:0:
256,68,32402,2,0,P|173:83|97:33,1,160,0|0,0:0|0:0,0:0:0:0:
40,148,33045,1,0,0:0:0:0:
109,334,33259,5,4,0:0:0:0:
184,240,33473,1,0,0:0:0:0:
184,240,33580,1,0,0:0:0:0:
184,240,33688,2,0,P|240:252|300:236,1,120,8|0,0:0|0:0,0:0:0:0:
356,180,34116,1,0,0:0:0:0:
416,332,34330,1,0,0:0:0:0:
492,236,34545,2,0,L|504:192,1,40,8|0,0:0|0:0,0:0:0:0:
436,156,34759,2,0,L|424:112,1,40
476,56,34973,5,0,0:0:0:0:
276,64,35188,1,0,0:0:0:0:
276,64,35295,1,0,0:0:0:0:
275,64,35403,2,0,P|216:75|159:60,1,120,8|0,0:0|0:0,0:0:0:0:
88,24,35830,1,0,0:0:0:0:
168,168,36045,1,0,0:0:0:0:
56,136,36259,2,0,L|48:176,1,40,8|0,0:0|0:0,0:0:0:0:
104,260,36473,2,0,L|112:312,1,40
120,340,36688,6,0,P|204:352|280:336,1,160,4|0,0:0|0:0,0:0:0:0:
308,228,37330,1,0,0:0:0:0:
308,228,37438,1,0,0:0:0:0:
308,228,37545,2,0,P|360:260|384:312,2,120,0|0|0,0:0|0:0|0:0,0:0:0:0:
152,228,38402,2,0,P|100:196|76:144,2,120,0|0|0,0:0|0:0|0:0,0:0:0:0:
334,55,39259,2,0,P|256:65|196:116,1,160,0|0,0:0|0:0,0:0:0:0:
292,248,39902,1,0,0:0:0:0:
452,244,40116,5,4,0:0:0:0:
440,124,40330,1,0,0:0:0:0:
440,124,40438,1,0,0:0:0:0:
440,124,40545,2,0,L|356:156,1,80,8|0,0:0|0:0,0:0:0:0:
292,184,40866,2,0,P|288:248|328:296,1,120,0|0,0:0|0:0,0:0:0:0:
184,208,41402,2,0,P|176:168|156:132,1,80,8|0,0:0|0:0,0:0:0:0:
48,256,41830,5,12,0:0:0:0:
464,128,42259,1,8,0:0:0:0:
196,138,42688,1,8,0:0:0:0:
332,167,42902,1,8,0:0:0:0:
239,270,43116,1,8,0:0:0:0:
239,270,43223,1,0,0:0:0:0:
239,270,43330,1,0,0:0:0:0:
468,260,43545,6,0,B|420:252|384:276|384:276|384:328|332:364,1,160,4|0,0:0|0:0,0:0:0:0:
296,272,44188,1,0,0:0:0:0:
296,272,44295,1,0,0:0:0:0:
296,272,44402,2,0,B|320:208|384:188,2,120,0|0|0,0:0|0:0|0:0,0:0:0:0:
276,72,45259,2,0,P|248:128|192:148,2,120,0|0|0,0:0|0:0|0:0,0:0:0:0:
76,64,46116,2,0,P|52:136|56:220,1,160,0|0,0:0|0:0,0:0:0:0:
196,188,46759,1,0,0:0:0:0:
340,176,46973,5,4,0:0:0:0:
424,264,47188,1,0,0:0:0:0:
424,264,47295,1,0,0:0:0:0:
424,264,47402,2,0,P|372:292|312:284,1,120,8|0,0:0|0:0,0:0:0:0:
244,240,47830,1,0,0:0:0:0:
332,372,48045,1,0,0:0:0:0:
184,292,48259,2,0,L|140:280,1,40,8|0,0:0|0:0,0:0:0:0:
152,364,48473,2,0,L|100:372,1,40
64,304,48688,5,0,0:0:0:0:
88,148,48902,1,0,0:0:0:0:
88,148,49009,1,0,0:0:0:0:
88,148,49116,2,0,P|136:148|192:104,1,120,8|0,0:0|0:0,0:0:0:0:
216,28,49545,1,0,0:0:0:0:
368,76,49759,1,0,0:0:0:0:
280,208,49973,2,0,L|266:245,1,40,8|0,0:0|0:0,0:0:0:0:
364,272,50188,2,0,L|372:312,1,40
452,252,50402,6,0,P|476:172|468:96,1,160,4|0,0:0|0:0,0:0:0:0:
368,32,51045,1,0,0:0:0:0:
368,32,51152,1,0,0:0:0:0:
368,32,51259,2,0,P|352:88|368:152,2,120,0|0|0,0:0|0:0|0:0,0:0:0:0:
180,184,52116,2,0,P|196:128|180:64,2,120,0|0|0,0:0|0:0|0:0,0:0:0:0:
288,308,52973,2,0,P|339:251|414:265,1,160,0|0,0:0|0:0,0:0:0:0:
280,136,53616,1,0,0:0:0:0:
380,68,53830,5,4,0:0:0:0:
440,176,54045,1,0,0:0:0:0:
440,176,54152,1,0,0:0:0:0:
440,176,54259,2,0,L|364:216,1,80,8|0,0:0|0:0,0:0:0:0:
292,236,54580,2,0,P|372:252|396:292,1,120,0|0,0:0|0:0,0:0:0:0:
200,224,55116,2,0,L|175:146,1,80,8|0,0:0|0:0,0:0:0:0:
124,344,55545,5,12,0:0:0:0:
388,40,55973,1,8,0:0:0:0:
348,324,56402,1,8,0:0:0:0:
256,192,56616,1,8,0:0:0:0:
164,60,56830,1,8,0:0:0:0:
164,60,56938,1,0,0:0:0:0:
164,60,57045,1,0,0:0:0:0:
376,160,57259,6,0,L|468:172,2,80,4|0|8,0:0|0:0|0:0,0:0:0:0:
136,224,57902,2,0,L|44:212,2,80,0|0|0,0:0|0:0|0:0,0:0:0:0:
348,324,58545,2,0,P|392:324|428:344,1,80,8|0,0:0|0:0,0:0:0:0:
220,328,58973,6,0,L|128:340,2,80,0|0|8,0:0|0:0|0:0,0:0:0:0:
376,160,59616,2,0,L|468:148,2,80,0|0|0,0:0|0:0|0:0,0:0:0:0:
164,72,60259,2,0,P|128:72|88:56,1,80,8|0,0:0|0:0,0:0:0:0:
248,176,60688,5,12,0:0:0:0:
224,360,60902,1,8,0:0:0:0:
152,256,61116,1,8,0:0:0:0:
152,256,61223,1,0,0:0:0:0:
320,284,61438,1,0,0:0:0:0:
320,284,61545,2,0,P|352:248|364:212,1,80,0|0,0:0|0:0,0:0:0:0:
344,96,61973,1,8,0:0:0:0:
312,84,62080,1,0,0:0:0:0:
276,72,62188,1,0,0:0:0:0:
240,60,62295,1,0,0:0:0:0:
204,48,62402,5,12,0:0:0:0:
76,228,62616,1,8,0:0:0:0:
40,72,62830,1,8,0:0:0:0:
40,72,62938,1,0,0:0:0:0:
232,208,63152,1,0,0:0:0:0:
232,208,63259,2,0,P|264:244|268:276,1,80,0|0,0:0|0:0,0:0:0:0:
400,216,63688,1,8,0:0:0:0:
412,184,63795,1,0,0:0:0:0:
428,152,63902,1,0,0:0:0:0:
444,120,64009,1,0,0:0:0:0:
460,88,64116,6,0,L|376:68,1,80,4|0,0:0|0:0,0:0:0:0:
264,44,64545,1,8,0:0:0:0:
80,200,64759,2,0,L|164:180,1,80,0|0,0:0|0:0,0:0:0:0:
276,156,65188,1,0,0:0:0:0:
468,292,65402,2,0,P|428:292|388:308,1,80,8|0,0:0|0:0,0:0:0:0:
192,332,65830,6,0,L|108:316,1,80,0|0,0:0|0:0,0:0:0:0:
80,200,66259,1,8,0:0:0:0:
308,272,66473,2,0,L|392:256,1,80,0|0,0:0|0:0,0:0:0:0:
420,140,66902,1,0,0:0:0:0:
188,92,67116,2,0,P|140:92|112:72,1,80,8|0,0:0|0:0,0:0:0:0:
292,168,67545,6,0,P|316:209|312:243,1,80,4|0,0:0|0:0,0:0:0:0:
304,40,67973,1,8,0:0:0:0:
292,168,68188,2,0,P|279:214|253:236,1,80,0|0,0:0|0:0,0:0:0:0:
389,84,68616,1,0,0:0:0:0:
292,168,68830,2,0,P|250:192|216:188,1,80,8|0,0:0|0:0,0:0:0:0:
419,177,69258,1,4,0:0:0:0:
292,168,69473,2,0,P|245:155|223:129,1,80,4|8,0:0|0:0,0:0:0:0:
375,264,69901,1,0,0:0:0:0:
292,168,70116,6,0,P|268:126|271:92,1,80,0|0,0:0|0:0,0:0:0:0:
96,256,70545,2,0,P|120:297|116:331,1,80,8|0,0:0|0:0,0:0:0:0:
160,152,70973,6,0,L|76:132,1,80,4|0,0:0|0:0,0:0:0:0:
216,260,71402,1,8,0:0:0:0:
368,192,71616,2,0,L|452:172,1,80,0|0,0:0|0:0,0:0:0:0:
312,300,72045,1,0,0:0:0:0:
212,40,72259,2,0,P|172:46|135:34,1,80,8|0,0:0|0:0,0:0:0:0:
256,176,72688,1,12,0:0:0:0:
364,296,72902,6,0,L|368:340,1,40,0|0,0:0|0:0,0:0:0:0:
256,312,73116,6,0,L|264:272,1,40,0|0,0:0|0:0,0:0:0:0:
152,228,73330,6,0,L|160:268,1,40,0|0,0:0|0:0,0:0:0:0:
200,132,73545,6,0,L|161:118,1,40,8|0,0:0|0:0,0:0:0:0:
296,80,73759,6,0,L|334:66,1,40,8|0,0:0|0:0,0:0:0:0:
292,196,73973,6,0,L|288:232,5,26.6666666666667,0|0|0|0|0|0,0:0|0:0|0:0|0:0|0:0|0:0,0:0:0:0:
292,196,74402,6,0,P|344:184|388:188,1,80,4|0,0:0|0:0,0:0:0:0:
468,312,74830,2,0,P|416:324|372:320,1,80,8|0,0:0|0:0,0:0:0:0:
304,360,75152,2,0,P|254:339|186:335,1,120,0|0,0:3|0:0,0:0:0:0:
52,168,75688,2,0,P|92:172|136:164,1,80,8|0,0:0|0:0,0:0:0:0:
208,148,76009,1,0,0:0:0:0:
208,148,76116,6,0,L|292:156,1,80,0|0,0:0|0:0,0:0:0:0:
468,312,76545,2,0,L|384:320,1,80,8|0,0:0|0:0,0:0:0:0:
388,319,76866,2,0,P|340:344|308:344,1,80,0|0,0:0|0:0,0:0:0:0:
264,280,77188,2,0,P|224:284|190:305,2,80,0|8|0,0:0|0:0|0:0,0:0:0:0:
448,200,77830,6,0,L|472:164,1,40,0|0,0:0|0:0,0:0:0:0:
360,120,78045,1,0,0:0:0:0:
366,80,78152,1,0,0:0:0:0:
64,184,78473,6,0,L|40:220,1,40,0|0,0:0|0:0,0:0:0:0:
152,264,78688,1,0,0:0:0:0:
145,303,78795,1,0,0:0:0:0:
360,120,79116,6,0,P|368:68|364:36,1,80,0|0,0:0|0:0,0:0:0:0:
396,36,79438,1,0,0:0:0:0:
428,28,79545,1,0,0:0:0:0:
268,76,79759,1,0,0:0:0:0:
468,184,79973,2,0,P|432:192|392:216,1,80,8|0,0:0|0:0,0:0:0:0:
312,216,80295,2,0,P|384:260|392:300,1,120,0|0,0:0|0:0,0:0:0:0:
268,328,80830,1,8,0:0:0:0:
228,336,80938,1,0,0:0:0:0:
188,324,81045,1,0,0:0:0:0:
156,300,81152,1,0,0:0:0:0:
140,264,81259,6,0,B|148:224|148:224|136:176,1,80,4|0,0:0|0:0,0:0:0:0:
246,57,81688,2,0,B|238:97|238:97|248:136,1,80,8|0,0:0|0:0,0:0:0:0:
336,216,82009,2,0,P|348:172|336:96,1,120,0|0,0:0|0:0,0:0:0:0:
464,256,82545,2,0,P|456:212|464:176,1,80,8|0,0:0|0:0,0:0:0:0:
480,100,82866,1,0,0:0:0:0:
480,100,82973,6,0,L|396:120,1,80,0|0,0:0|0:0,0:0:0:0:
236,344,83402,2,0,L|316:316,1,80,8|0,0:0|0:0,0:0:0:0:
311,317,83723,2,0,P|272:308|240:284,1,80,0|0,0:0|0:0,0:0:0:0:
116,232,84045,2,0,P|167:223|195:207,2,80,0|8|0,0:0|0:0|0:0,0:0:0:0:
196,48,84688,6,0,L|152:32,1,40,0|0,0:0|0:0,0:0:0:0:
292,80,84902,1,0,0:0:0:0:
295,40,85009,1,0,0:0:0:0:
316,336,85330,6,0,L|360:352,1,40,0|0,0:0|0:0,0:0:0:0:
220,304,85545,1,0,0:0:0:0:
216,343,85652,1,0,0:0:0:0:
292,80,85973,6,0,P|332:56|372:56,1,80,0|0,0:0|0:0,0:0:0:0:
224,264,86402,2,0,L|100:236,1,120,4|0,0:0|0:0,0:0:0:0:
104,156,86830,1,12,0:0:0:0:
263,173,87045,2,0,L|391:141,1,120,0|0,0:0|0:0,0:0:0:0:
464,212,87473,1,0,0:0:0:0:
464,212,87580,1,0,0:0:0:0:
464,212,87688,2,0,L|460:256,1,40,8|0,0:0|0:0,0:0:0:0:
368,328,87902,2,0,L|360:288,1,40,0|0,0:0|0:0,0:0:0:0:
263,173,88116,1,4,0:0:0:0:
256,192,98402,12,4,99902,0:0:0:0:
84,112,100330,6,0,L|136:92,1,40,0|0,0:0|0:0,0:0:0:0:
196,240,100545,2,0,L|172:272,1,40,0|0,0:0|0:0,0:0:0:0:
428,112,100973,6,0,L|376:92,1,40,0|0,0:0|0:0,0:0:0:0:
316,240,101188,2,0,L|340:272,1,40,0|0,0:0|0:0,0:0:0:0:
256,144,101402,5,8,0:0:0:0:
256,124,101509,1,0,0:0:0:0:
256,104,101616,1,8,0:0:0:0:
256,84,101723,1,0,0:0:0:0:
64,220,102045,6,0,L|60:259,1,40,0|0,0:0|0:0,0:0:0:0:
200,336,102259,2,0,L|196:296,1,40,0|0,0:0|0:0,0:0:0:0:
448,164,102688,6,0,L|451:124,1,40,0|0,0:0|0:0,0:0:0:0:
312,48,102902,2,0,L|315:87,1,40,0|0,0:0|0:0,0:0:0:0:
256,164,103116,5,8,0:0:0:0:
256,184,103223,1,0,0:0:0:0:
256,204,103330,1,8,0:0:0:0:
256,224,103437,1,0,0:0:0:0:
256,244,103545,6,0,P|324:288|384:248,1,160,4|0,0:0|0:0,0:0:0:0:
396,88,104188,1,0,0:0:0:0:
396,88,104295,1,0,0:0:0:0:
396,88,104402,2,0,B|364:68|320:108|280:80,2,120,0|0|0,0:0|0:0|0:0,0:0:0:0:
384,252,105259,2,0,B|382:289|439:307|435:356,2,120,0|0|0,0:0|0:0|0:0,0:0:0:0:
228,232,106116,2,0,P|156:260|92:216,1,160,0|0,0:0|0:0,0:0:0:0:
92,216,106759,1,0,0:0:0:0:
368,152,106973,5,4,0:0:0:0:
244,80,107188,1,0,0:0:0:0:
212,84,107295,1,0,0:0:0:0:
180,88,107402,2,0,P|176:156|204:208,1,120,8|0,0:0|0:0,0:0:0:0:
284,176,107830,1,0,0:0:0:0:
108,232,108045,1,0,0:0:0:0:
268,324,108259,2,0,L|272:368,1,40
348,296,108473,2,0,L|352:252,1,40
424,324,108688,5,0,0:0:0:0:
480,148,108902,1,0,0:0:0:0:
480,148,109009,1,0,0:0:0:0:
480,148,109116,2,0,P|424:132|376:92,1,120,8|0,0:0|0:0,0:0:0:0:
332,24,109545,1,0,0:0:0:0:
404,212,109759,1,0,0:0:0:0:
240,104,109973,2,0,L|204:88,1,40,8|0,0:0|0:0,0:0:0:0:
160,180,110188,2,0,L|120:184,1,40
172,284,110402,6,0,B|224:328|272:344|272:344|328:328,1,160,4|0,0:0|0:0,0:0:0:0:
396,244,111045,1,0,0:0:0:0:
412,216,111152,1,0,0:0:0:0:
428,188,111259,2,0,B|372:164|336:172|336:172|308:156,2,120,0|0|0,0:0|0:0|0:0,0:0:0:0:
164,88,112116,2,0,B|220:64|256:72|256:72|284:56,2,120,0|0|0,0:0|0:0|0:0,0:0:0:0:
240,228,112973,2,0,P|160:232|140:308,1,160,0|0,0:0|0:0,0:0:0:0:
137,298,113616,1,0,0:0:0:0:
16,64,113830,5,4,0:0:0:0:
76,180,114045,1,0,0:0:0:0:
76,180,114152,1,0,0:0:0:0:
76,180,114259,2,0,L|64:264,1,80,8|0,0:0|0:0,0:0:0:0:
137,298,114580,2,0,P|180:280|248:312,1,120,0|0,0:0|0:0,0:0:0:0:
212,192,115116,2,0,L|200:112,1,80,8|0,0:0|0:0,0:0:0:0:
392,56,115545,5,12,0:0:0:0:
76,180,115973,1,8,0:0:0:0:
456,296,116402,1,8,0:0:0:0:
320,280,116616,1,8,0:0:0:0:
212,360,116830,1,8,0:0:0:0:
212,360,116938,1,0,0:0:0:0:
212,360,117045,1,0,0:0:0:0:
76,180,117259,6,0,P|164:172|216:128,1,160,4|0,0:0|0:0,0:0:0:0:
312,52,117902,1,0,0:0:0:0:
320,84,118009,1,0,0:0:0:0:
328,116,118116,2,0,P|396:112|440:136,2,120,0|0|0,0:0|0:0|0:0,0:0:0:0:
320,280,118973,2,0,P|252:284|208:260,2,120,0|0|0,0:0|0:0|0:0,0:0:0:0:
200,100,119830,2,0,P|128:104|80:172,1,160,0|0,0:0|0:0,0:0:0:0:
80,171,120473,1,0,0:0:0:0:
320,280,120688,5,4,0:0:0:0:
464,144,120902,2,0,L|448:104,1,40,0|0,0:0|0:0,0:0:0:0:
464,144,121116,2,0,P|408:180|356:176,1,120,8|0,0:0|0:0,0:0:0:0:
280,144,121545,1,0,0:0:0:0:
416,268,121759,1,0,0:0:0:0:
280,144,121973,2,0,L|244:128,1,40,8|0,0:0|0:0,0:0:0:0:
172,208,122188,2,0,L|136:192,1,40
64,268,122402,5,0,0:0:0:0:
252,332,122616,2,0,L|280:364,1,40,0|0,0:0|0:0,0:0:0:0:
252,332,122830,2,0,P|308:304|368:308,1,120,8|0,0:0|0:0,0:0:0:0:
440,340,123259,1,0,0:0:0:0:
300,220,123473,1,0,0:0:0:0:
456,244,123688,2,0,L|496:216,1,40,8|0,0:0|0:0,0:0:0:0:
468,140,123902,2,0,L|508:112,1,40
468,40,124116,6,0,B|432:28|400:52|360:68|312:48,1,160,4|0,0:0|0:0,0:0:0:0:
160,108,124759,1,0,0:0:0:0:
160,108,124866,1,0,0:0:0:0:
160,108,124973,2,0,B|200:104|232:152|276:136,2,120,0|0|0,0:0|0:0|0:0,0:0:0:0:
180,268,125830,2,0,B|140:264|108:312|64:296,2,120,0|0|0,0:0|0:0|0:0,0:0:0:0:
280,344,126688,2,0,B|340:368|352:260|416:276,1,160
412,275,127330,1,0,0:0:0:0:
160,188,127545,5,4,0:0:0:0:
248,72,127759,1,0,0:0:0:0:
280,64,127866,1,0,0:0:0:0:
312,56,127973,2,0,P|340:84|344:128,1,80,8|0,0:0|0:0,0:0:0:0:
268,200,128295,2,0,L|384:240,1,120,0|0,0:0|0:0,0:0:0:0:
490,150,128830,2,0,L|412:168,1,80,8|0,0:0|0:0,0:0:0:0:
152,296,129259,5,4,0:0:0:0:
420,68,129688,1,8,0:0:0:0:
152,296,130116,1,8,0:0:0:0:
256,192,130330,1,8,0:0:0:0:
76,104,130545,1,8,0:0:0:0:
76,104,130652,1,0,0:0:0:0:
76,104,130759,1,0,0:0:0:0:
272,56,130973,6,0,P|340:64|388:36,1,120,4|0,0:0|0:0,0:0:0:0:
383,40,131402,2,0,L|412:120,1,80,8|0,0:0|0:0,0:0:0:0:
452,204,131830,1,0,0:0:0:0:
304,180,132045,1,0,0:0:0:0:
400,332,132259,2,0,P|360:316|320:320,1,80,8|0,0:0|0:0,0:0:0:0:
152,212,132688,6,0,P|84:220|36:192,1,120,0|0,0:0|0:0,0:0:0:0:
40,196,133117,2,0,L|11:275,1,80,8|0,0:0|0:0,0:0:0:0:
108,136,133545,1,0,0:0:0:0:
48,32,133759,1,0,0:0:0:0:
200,68,133973,2,0,P|248:80|284:80,1,80,8|0,0:0|0:0,0:0:0:0:
440,60,134402,5,12,0:0:0:0:
420,260,134616,1,8,0:0:0:0:
324,128,134830,1,8,0:0:0:0:
324,128,134938,1,0,0:0:0:0:
344,328,135152,1,0,0:0:0:0:
344,328,135259,2,0,P|304:312|264:320,1,80,0|0,0:0|0:0,0:0:0:0:
112,272,135688,1,8,0:0:0:0:
92,236,135795,1,0,0:0:0:0:
92,196,135902,1,0,0:0:0:0:
104,160,136009,1,0,0:0:0:0:
136,136,136116,5,12,0:0:0:0:
328,240,136330,1,8,0:0:0:0:
200,60,136545,1,8,0:0:0:0:
200,60,136652,1,0,0:0:0:0:
248,304,136866,1,0,0:0:0:0:
248,304,136973,2,0,P|284:336|316:344,1,80,0|0,0:0|0:0,0:0:0:0:
428,228,137402,1,8,0:0:0:0:
416,188,137509,1,0,0:0:0:0:
388,156,137616,1,0,0:0:0:0:
352,140,137723,1,0,0:0:0:0:
312,136,137830,6,0,P|232:148|188:192,1,120,4|0,0:0|0:0,0:0:0:0:
202,171,138259,2,0,L|176:92,1,80,8|0,0:0|0:0,0:0:0:0:
112,240,138688,2,0,L|96:320,1,80,0|0,0:0|0:0,0:0:0:0:
316,310,139116,2,0,L|332:232,1,80,8|0,0:0|0:0,0:0:0:0:
264,44,139545,6,0,P|323:41|373:8,1,120,0|0,0:0|0:0,0:0:0:0:
372,8,139974,2,0,L|397:83,1,80,8|0,0:0|0:0,0:0:0:0:
424,280,140402,2,0,L|444:200,1,80,0|0,0:0|0:0,0:0:0:0:
200,172,140830,2,0,L|174:247,1,80,8|0,0:0|0:0,0:0:0:0:
388,344,141259,6,0,P|348:332|304:344,1,80,4|0,0:0|0:0,0:0:0:0:
256,188,141688,1,8,0:0:0:0:
188,380,141902,2,0,P|178:339|146:307,1,80,0|0,0:0|0:0,0:0:0:0:
256,188,142331,1,0,0:0:0:0:
55,225,142545,2,0,P|85:196|96:152,1,80,8|0,0:0|0:0,0:0:0:0:
256,188,142974,1,4,0:0:0:0:
123,32,143188,2,0,P|162:43|206:31,1,80,4|8,0:0|0:0,0:0:0:0:
256,188,143617,1,0,0:0:0:0:
328,0,143830,6,0,P|337:37|370:69,1,80,0|0,0:0|0:0,0:0:0:0:
388,344,144259,2,0,P|378:303|346:271,1,80,8|0,0:0|0:0,0:0:0:0:
112,284,144688,6,0,L|32:276,1,80,4|0,0:0|0:0,0:0:0:0:
216,332,145116,1,8,0:0:0:0:
400,184,145330,2,0,L|480:176,1,80,0|0,0:0|0:0,0:0:0:0:
296,232,145758,1,0,0:0:0:0:
116,72,145973,2,0,L|36:64,1,80,8|0,0:0|0:0,0:0:0:0:
220,120,146401,1,12,0:0:0:0:
344,104,146616,6,0,L|324:68,1,40,0|0,0:0|0:0,0:0:0:0:
192,242,146830,6,0,L|212:208,1,40,0|0,0:0|0:0,0:0:0:0:
384,304,147045,6,0,L|376:264,1,40,0|0,0:0|0:0,0:0:0:0:
468,128,147259,6,0,L|460:168,1,40,8|0,0:0|0:0,0:0:0:0:
200,284,147473,6,0,L|192:244,1,40,8|0,0:0|0:0,0:0:0:0:
272,48,147688,6,0,L|252:80,5,26.6666666666667,0|0|0|0|0|0,0:0|0:0|0:0|0:0|0:0|0:0,0:0:0:0:
272,48,148116,6,0,L|368:56,1,80,4|0,0:0|0:0,0:0:0:0:
416,200,148545,2,0,P|380:212|336:204,1,80,8|0,0:0|0:0,0:0:0:0:
284,140,148866,2,0,L|168:168,1,120,0|0,0:0|0:0,0:0:0:0:
104,316,149402,2,0,P|140:328|184:320,1,80,8|0,0:0|0:0,0:0:0:0:
252,284,149723,1,0,0:0:0:0:
252,284,149830,6,0,L|340:296,1,80,0|0,0:0|0:0,0:0:0:0:
476,156,150259,2,0,P|444:168|400:160,1,80,8|0,0:0|0:0,0:0:0:0:
336,112,150580,2,0,P|297:103|259:115,1,80,0|0,0:0|0:0,0:0:0:0:
184,180,150902,2,0,L|168:88,2,80,0|8|0,0:0|0:0|0:0,0:0:0:0:
212,336,151545,5,0,0:0:0:0:
252,344,151652,1,0,0:0:0:0:
352,272,151759,2,0,L|396:284,1,40,0|0,0:0|0:0,0:0:0:0:
248,92,152188,5,0,0:0:0:0:
208,100,152295,1,0,0:0:0:0:
108,28,152402,2,0,L|64:40,1,40,0|0,0:0|0:0,0:0:0:0:
352,272,152830,6,0,P|392:260|432:264,1,80,0|0,0:0|0:0,0:0:0:0:
436,296,153152,1,0,0:0:0:0:
444,328,153259,1,0,0:0:0:0:
404,96,153473,1,0,0:0:0:0:
352,272,153688,2,0,P|312:284|272:280,1,80,8|0,0:0|0:0,0:0:0:0:
168,292,154009,2,0,P|177:251|201:218,1,80,0|0,0:0|0:0,0:0:0:0:
240,124,154330,2,0,P|270:152|286:189,1,80,0|8,0:0|0:0,2:0:0:0:
296,224,154652,1,0,0:0:0:0:
302,262,154759,1,0,0:0:0:0:
285,298,154866,1,0,0:0:0:0:
251,319,154973,6,0,B|208:336|208:336|176:328,1,80,4|0,0:0|0:0,0:0:0:0:
40,184,155402,2,0,B|83:167|83:167|115:175,1,80,8|0,0:0|0:0,0:0:0:0:
104,80,155723,2,0,L|228:132,1,120,0|0,0:0|0:0,0:0:0:0:
352,48,156259,2,0,L|364:128,1,80,8|0,0:0|0:0,0:0:0:0:
376,208,156580,1,0,0:0:0:0:
376,208,156688,6,0,P|328:216|296:208,1,80,4|0,0:0|0:0,0:0:0:0:
404,324,157116,2,0,P|452:316|484:324,1,80,8|0,0:0|0:0,0:0:0:0:
481,323,157438,2,0,P|476:288|444:256,1,80,0|0,0:0|0:0,0:0:0:0:
428,112,157759,2,0,P|433:147|465:179,2,80,0|8|0,0:0|0:0|0:0,0:0:0:0:
276,56,158402,5,0,0:0:0:0:
272,96,158509,1,0,0:0:0:0:
136,128,158616,2,0,L|144:168,1,40,0|0,0:0|0:0,0:0:0:0:
324,232,159045,5,0,0:0:0:0:
328,272,159152,1,0,0:0:0:0:
464,304,159259,2,0,L|456:344,1,40,0|0,0:0|0:0,0:0:0:0:
112,108,159688,6,0,P|112:160|124:192,1,80,0|0,0:0|0:0,0:0:0:0:
136,344,160116,2,0,P|192:324|252:336,1,120,0|0,0:0|0:0,0:0:0:0:
284,356,160545,1,12,0:0:0:0:
384,180,160759,2,0,L|272:128,1,120,0|0,0:0|0:0,0:0:0:0:
272,28,161188,1,0,0:0:0:0:
272,28,161295,1,0,0:0:0:0:
272,28,161402,2,0,L|220:36,1,40,8|0,0:0|0:0,0:0:0:0:
112,104,161616,2,0,L|164:112,1,40,0|0,0:0|0:0,0:0:0:0:
252,208,161830,6,0,P|276:268|264:328,1,120,12|0,0:0|0:0,0:0:0:0:
236,344,162259,1,8,0:0:0:0:
336,192,162473,2,0,P|266:210|214:198,1,120,0|0,0:0|0:0,0:0:0:0:
184,180,162902,1,0,0:0:0:0:
376,96,163116,2,0,L|428:160,1,80,8|0,0:0|0:0,0:0:0:0:
232,72,163545,6,0,P|173:63|116:80,1,120,4|0,0:0|0:0,0:0:0:0:
88,108,163973,1,8,0:0:0:0:
264,44,164188,2,0,P|322:35|379:52,1,120,0|0,0:0|0:0,0:0:0:0:
408,80,164616,1,0,0:0:0:0:
184,180,164830,2,0,L|196:260,1,80,8|0,0:0|0:0,0:0:0:0:
397,307,165259,6,0,P|403:248|384:192,1,120,4|0,0:0|0:0,0:0:0:0:
344,188,165688,1,8,0:0:0:0:
464,60,165902,2,0,P|407:79|348:73,1,120,0|0,0:0|0:0,0:0:0:0:
312,56,166330,1,0,0:0:0:0:
188,160,166545,2,0,P|148:152|108:164,1,80,8|0,0:0|0:0,0:0:0:0:
148,320,166973,6,0,P|204:339|263:333,1,120,4|0,0:0|0:0,0:0:0:0:
300,312,167402,2,0,L|320:352,2,40,8|0|0,0:0|0:0|0:0,0:0:0:0:
212,80,167830,5,8,0:0:0:0:
148,320,168116,1,8,0:0:0:0:
408,168,168402,1,8,0:0:0:0:
408,168,168688,6,0,P|348:188|300:164,1,120,4|0,0:0|0:0,0:0:0:0:
299,163,169116,1,8,0:0:0:0:
88,212,169330,2,0,P|148:192|196:216,1,120,0|0,0:0|0:0,0:0:0:0:
196,216,169758,1,0,0:0:0:0:
345,326,169973,2,0,P|310:308|288:276,1,80,8|0,0:0|0:0,0:0:0:0:
204,96,170402,6,0,P|170:48|112:38,1,120,4|0,0:0|0:0,0:0:0:0:
112,38,170830,1,8,0:0:0:0:
312,56,171045,2,0,P|372:40|436:48,1,120,0|0,0:0|0:0,0:0:0:0:
428,45,171473,1,0,0:0:0:0:
248,208,171688,2,0,L|236:296,1,80,8|0,0:0|0:0,0:0:0:0:
384,148,172116,6,0,P|424:196|432:252,1,120,4|0,0:0|0:0,0:0:0:0:
432,251,172545,1,8,0:0:0:0:
236,288,172759,2,0,P|196:240|188:184,1,120,0|0,0:0|0:0,0:0:0:0:
187,184,173188,1,0,0:0:0:0:
432,251,173402,2,0,L|416:344,1,80,8|0,0:0|0:0,0:0:0:0:
187,184,173830,6,0,L|208:56,1,120,4|0,0:0|0:0,0:0:0:0:
206,65,174259,2,0,L|252:52,2,40,8|0|0,0:0|0:0|0:0,0:0:0:0:
385,59,174688,5,8,0:0:0:0:
306,370,174973,1,8,0:0:0:0:
76,146,175259,1,8,0:0:0:0:
104,92,184116,6,0,P|152:84|192:96,1,80,0|0,0:0|0:0,0:0:0:0:
336,48,184545,1,2,0:0:0:0:
296,200,184759,1,0,0:0:0:0:
296,200,184866,1,0,0:0:0:0:
416,304,185080,1,0,0:0:0:0:
416,304,185188,2,0,P|380:324|356:356,2,80,0|2|0,0:0|0:0|0:0,0:0:0:0:
471,155,185830,6,0,L|392:144,1,80,0|0,0:0|0:0,0:0:0:0:
232,116,186259,1,2,0:0:0:0:
232,276,186473,1,0,0:0:0:0:
232,276,186580,1,0,0:0:0:0:
84,336,186795,1,0,0:0:0:0:
84,336,186902,2,0,P|72:288|72:256,2,80,0|2|0,0:0|0:0|0:0,0:0:0:0:
300,72,187545,6,0,P|232:36|156:92,2,180.000006866455,0|0|2,0:0|0:0|0:0,0:0:0:0:
355,292,189259,2,0,P|289:347|212:312,2,180.000006866455,0|0|2,0:0|0:0|0:0,0:0:0:0:
300,72,190973,6,0,P|216:52|128:80,2,180.000006866455,0|0|2,0:0|0:0|0:0,0:0:0:0:
212,312,192688,1,12,0:0:0:0:
340,216,192902,6,0,L|352:256,1,40,0|0,0:0|0:0,0:0:0:0:
219,152,193116,6,0,L|216:192,1,40,8|0,0:0|0:0,0:0:0:0:
332,80,193330,6,0,L|368:63,1,40,0|8,0:0|0:0,0:0:0:0:
128,60,193545,6,0,L|91:43,1,40,0|8,0:0|0:0,0:0:0:0:
100,248,193759,6,0,L|96:208,1,40,0|0,0:0|0:0,0:0:0:0:
316,320,193973,6,0,L|312:348,5,26.6666666666667,8|0|0|0|0|0,0:0|0:0|0:0|0:0|0:0|0:0,0:0:0:0:
316,320,194402,6,0,P|356:308|392:328,1,80,4|0,0:0|0:0,0:0:0:0:
440,172,194830,1,8,0:0:0:0:
244,136,195045,1,0,0:0:0:0:
244,136,195152,2,0,P|196:160|136:136,1,120,0|0,0:0|0:0,0:0:0:0:
264,36,195688,2,0,P|304:24|340:44,1,80,8|0,0:0|0:0,0:0:0:0:
364,80,196009,1,0,0:0:0:0:
372,128,196116,6,0,L|332:212,1,80,0|0,0:0|0:0,0:0:0:0:
128,332,196545,2,0,L|162:259,1,80,8|0,0:0|0:0,0:0:0:0:
162,259,196866,2,0,P|208:256|244:280,1,80,0|0,0:0|0:0,0:0:0:0:
276,356,197188,2,0,P|311:373|350:368,2,80,0|8|0,0:0|0:0|0:0,0:0:0:0:
144,176,197830,5,0,0:0:0:0:
132,136,197938,1,0,0:0:0:0:
252,144,198045,1,0,0:0:0:0:
261,103,198153,1,0,0:0:0:0:
476,280,198473,5,0,0:0:0:0:
464,320,198581,1,0,0:0:0:0:
347,247,198688,1,0,0:0:0:0:
356,288,198796,1,0,0:0:0:0:
112,308,199116,6,0,P|84:276|76:236,1,80,0|0,0:0|0:0,0:0:0:0:
52,228,199438,1,0,0:0:0:0:
28,216,199545,1,0,0:0:0:0:
204,188,199759,1,0,0:0:0:0:
36,100,199973,2,0,P|80:100|108:76,1,80,8|0,0:0|0:0,0:0:0:0:
188,36,200295,2,0,L|304:80,1,120,0|0,0:0|0:0,0:0:0:0:
444,216,200830,1,8,0:0:0:0:
412,244,200938,1,0,0:0:0:0:
372,256,201045,1,0,0:0:0:0:
332,248,201152,1,0,0:0:0:0:
300,224,201259,6,0,P|260:212|220:220,1,80,4|0,0:0|0:0,0:0:0:0:
168,328,201688,1,8,0:0:0:0:
132,116,201902,1,0,0:0:0:0:
132,116,202009,2,0,P|76:128|16:104,1,120,0|0,0:0|0:0,0:0:0:0:
208,60,202545,2,0,L|288:56,1,80,8|0,0:0|0:0,0:0:0:0:
336,56,202866,1,0,0:0:0:0:
336,56,202973,6,0,P|352:104|340:136,1,80,0|0,0:0|0:0,0:0:0:0:
392,324,203402,2,0,P|408:276|396:244,1,80,8|0,0:0|0:0,0:0:0:0:
399,249,203723,2,0,P|356:236|320:232,1,80,0|0,0:0|0:0,0:0:0:0:
192,328,204045,2,0,P|235:341|271:345,2,80,0|8|0,0:0|0:0|0:0,0:0:0:0:
84,160,204688,5,0,0:0:0:0:
72,200,204795,1,0,0:0:0:0:
184,116,204902,1,0,0:0:0:0:
193,156,205009,1,0,0:0:0:0:
452,300,205330,5,0,0:0:0:0:
440,260,205437,1,0,0:0:0:0:
331,256,205544,1,0,0:0:0:0:
340,216,205651,1,0,0:0:0:0:
96,64,205973,6,0,P|148:72|192:64,1,80,0|0,0:0|0:0,0:0:0:0:
336,60,206402,2,0,P|339:129|300:152,1,120,0|0,0:0|0:0,0:0:0:0:
302,151,206830,1,8,0:0:0:0:
128,248,207045,2,0,P|197:244|220:284,1,120,0|0,0:0|0:0,0:0:0:0:
224,368,207473,1,0,0:0:0:0:
224,368,207580,1,0,0:0:0:0:
224,368,207688,2,0,L|188:352,1,40,8|0,0:0|0:0,0:0:0:0:
272,216,207902,2,0,L|316:240,1,40,0|0,0:0|0:0,0:0:0:0:
464,200,208116,6,0,P|428:180|388:184,1,80,4|0,0:0|0:0,0:0:0:0:
324,284,208544,2,0,P|288:304|248:300,1,80,8|0,0:0|0:0,0:0:0:0:
172,312,208866,2,0,P|173:271|197:239,1,80,0|0,0:0|0:0,0:0:0:0:
224,164,209187,2,0,P|260:186|276:222,1,80,0|8,0:0|0:0,0:0:0:0:
324,68,209616,1,0,0:0:0:0:
92,132,209830,5,0,0:0:0:0:
152,28,210044,2,0,L|244:44,1,80,0|8,0:0|0:0,0:0:0:0:
352,148,210473,1,0,0:0:0:0:
352,148,210580,2,0,P|302:144|267:154,1,80,0|0,0:0|0:0,0:0:0:0:
164,256,210902,2,0,P|204:255|243:266,1,80,0|8,0:0|0:0,0:0:0:0:
368,360,211330,1,0,0:0:0:0:
224,164,211544,6,0,P|185:166|146:155,1,80,0|0,0:0|0:0,0:0:0:0:
208,52,211973,2,0,P|248:51|287:62,1,80,8|0,0:0|0:0,0:0:0:0:
380,28,212294,2,0,P|402:62|411:101,1,80,0|0,0:0|0:0,0:0:0:0:
500,148,212616,2,0,P|482:184|453:211,1,80,0|8,0:0|0:0,0:0:0:0:
340,256,213044,1,0,0:0:0:0:
122,297,213259,6,0,L|200:312,1,80,4|0,0:0|0:0,0:0:0:0:
112,180,213687,1,8,0:0:0:0:
112,180,213902,2,0,P|196:192|284:176,1,160,4|0,0:0|0:0,0:0:0:0:
112,56,214544,2,0,L|68:48,2,40,12|0|0,0:0|0:0|0:0,0:0:0:0:
122,297,214973,5,4,0:0:0:0:
344,204,215187,2,0,P|348:248|340:284,1,80,0|8,0:0|0:0,0:0:0:0:
328,120,215616,1,0,0:0:0:0:
328,120,215723,2,0,P|364:100|404:96,1,80,0|0,0:0|0:0,0:0:0:0:
268,52,216045,2,0,P|234:72|194:77,1,80,0|8,0:0|0:0,0:0:0:0:
228,232,216473,1,0,0:0:0:0:
464,280,216687,5,0,0:0:0:0:
344,204,216902,2,0,P|337:165|341:126,1,80,0|8,0:0|0:0,0:0:0:0:
152,308,217330,1,0,0:0:0:0:
152,308,217437,2,0,P|104:300|76:272,1,80,0|0,0:0|0:0,0:0:0:0:
52,160,217759,2,0,P|100:168|128:196,1,80,0|8,0:0|0:0,0:0:0:0:
156,32,218187,1,0,0:0:0:0:
228,220,218402,6,0,P|252:248|292:268,1,80,4|0,0:0|0:0,0:0:0:0:
272,112,218830,1,8,0:0:0:0:
168,264,219044,2,0,P|248:252|302:196,1,160,0|0,0:0|0:0,0:0:0:0:
64,224,219687,2,0,L|52:264,2,40,8|0|4,0:0|0:0|0:0,0:0:0:0:
368,104,220330,5,0,0:0:0:0:
408,132,220438,1,0,0:0:0:0:
424,176,220545,1,0,0:0:0:0:
420,224,220652,1,0,0:0:0:0:
228,360,220973,5,0,0:0:0:0:
188,332,221081,1,0,0:0:0:0:
172,288,221188,1,0,0:0:0:0:
176,240,221295,1,0,0:0:0:0:
268,276,221402,6,0,L|308:276,1,40,8|0,0:0|0:0,0:0:0:0:
328,192,221616,2,0,L|288:192,1,40,8|0,0:0|0:0,0:0:0:0:
104,56,222045,5,0,0:0:0:0:
64,84,222153,1,0,0:0:0:0:
48,128,222260,1,0,0:0:0:0:
52,176,222367,1,0,0:0:0:0:
300,360,222688,5,0,0:0:0:0:
340,332,222796,1,0,0:0:0:0:
356,288,222903,1,0,0:0:0:0:
352,240,223010,1,0,0:0:0:0:
244,268,223116,6,0,L|176:252,1,70.000000667572,8|0,0:0|0:0,0:0:0:0:
135,143,223330,2,0,L|174:153,1,40,8|0,0:0|0:0,0:0:0:0:
