osu file format v14

[General]
AudioFilename: KCmai.mp3
AudioLeadIn: 0
PreviewTime: 74402
Countdown: 0
SampleSet: Normal
StackLeniency: 0.7
Mode: 0
LetterboxInBreaks: 0
WidescreenStoryboard: 0

[Editor]
Bookmarks: 688,14402,29830,57259,74402,88116,103545,130973,148116,161830,175545,177259,184116,194402,208116,223545
DistanceSpacing: 1
BeatDivisor: 4
GridSize: 4
TimelineZoom: 1

[Metadata]
Title:Hana no Sadame
TitleUnicode:花の運命
Artist:Atoguru
ArtistUnicode:あとぐる
Creator:CSAQ
Version:Hard
Source:艦隊これくしょん~艦これ~
Tags:Mai Kotohge Splash! C-CLAYS KanColle 舞音@Groove 敵大型超弩級戦艦を叩け! Kantai Collection~Kan Colle~
BeatmapID:550086
BeatmapSetID:169848

[Difficulty]
HPDrainRate:6
CircleSize:4
OverallDifficulty:6
ApproachRate:7.5
SliderMultiplier:1.4
SliderTickRate:1

[Events]
//Background and Video events
0,0,"Kongou.jpg",0,0
//Break Periods
2,88316,97577
2,177259,183291
//Storyboard Layer 0 (Background)
//Storyboard Layer 1 (Fail)
//Storyboard Layer 2 (Pass)
//Storyboard Layer 3 (Foreground)
//Storyboard Sound Samples

[TimingPoints]
688,428.571428571429,4,1,1,70,1,0
34545,-100,4,1,1,60,0,0
34973,-100,4,1,1,70,0,0
36259,-100,4,1,1,60,0,0
36688,-100,4,1,1,70,0,0
48259,-100,4,1,1,60,0,0
48688,-100,4,1,1,70,0,0
49973,-100,4,1,1,60,0,0
50402,-100,4,1,1,70,0,0
74402,-100,4,1,1,85,0,1
88116,-100,4,1,1,85,0,0
98402,-100,4,1,1,70,0,0
108259,-100,4,1,1,60,0,0
108688,-100,4,1,1,70,0,0
109973,-100,4,1,1,60,0,0
110402,-100,4,1,1,70,0,0
121973,-100,4,1,1,60,0,0
122402,-100,4,1,1,70,0,0
123688,-100,4,1,1,60,0,0
124116,-100,4,1,1,70,0,0
148116,-100,4,1,1,85,0,1
161830,-100,4,1,1,70,0,0
184116,-100,4,2,1,70,0,0
192688,-100,4,1,1,70,0,0
194402,-100,4,1,1,90,0,1
208116,-100,4,1,1,80,0,0

[Colours]
Combo1 : 238,238,119
Combo2 : 255,87,171
Combo3 : 128,255,128
Combo4 : 60,60,255

[HitObjects]
256,192,12688,12,8,13973,0:0:0:0:
384,108,14402,5,0,0:0:0:0:
296,84,14616,1,0,0:0:0:0:
320,172,14830,2,0,P|284:168|252:184,1,70,8|0,0:0|0:0,0:0:0:0:
232,220,15152,2,0,L|268:292,1,70
284,324,15473,2,0,P|257:345|223:350,1,70,0|8,0:0|0:0,0:0:0:0:
132,336,15902,1,0,0:0:0:0:
60,252,16116,6,0,L|72:180,1,70
88,92,16545,2,0,P|124:100|160:96,1,70,8|0,0:0|0:0,0:0:0:0:
200,88,16866,2,0,P|234:84|268:92,1,70
308,120,17188,2,0,L|296:192,1,70,0|8,0:0|0:0,0:0:0:0:
340,268,17616,1,0,0:0:0:0:
440,220,17830,6,0,P|456:184|460:148,1,70
452,64,18259,1,8,0:0:0:0:
380,120,18473,1,0,0:0:0:0:
380,120,18580,1,0,0:0:0:0:
296,88,18795,1,0,0:0:0:0:
296,88,18902,1,0,0:0:0:0:
220,140,19116,2,0,L|240:212,1,70,8|0,0:0|0:0,0:0:0:0:
272,316,19545,5,4,0:0:0:0:
184,344,19759,1,0,0:0:0:0:
100,308,19973,1,8,0:0:0:0:
60,224,20188,2,0,P|52:188|52:152,1,70,4|0,0:0|0:0,0:0:0:0:
140,176,20616,1,0,0:0:0:0:
140,176,20830,2,0,P|148:140|148:104,1,70,12|0,0:0|0:0,0:0:0:0:
232,32,21259,5,12,0:0:0:0:
312,72,21473,1,0,0:0:0:0:
400,44,21688,2,0,P|428:72|440:104,1,70,8|0,0:0|0:0,0:0:0:0:
408,136,22009,2,0,P|388:170|384:204,1,70
400,244,22330,2,0,L|328:284,1,70,0|8,0:0|0:0,0:0:0:0:
260,320,22759,1,0,0:0:0:0:
152,292,22973,6,0,P|136:252|132:224,1,70
132,136,23402,2,0,P|172:140|204:128,1,70,8|0,0:0|0:0,0:0:0:0:
240,108,23723,2,0,L|308:124,1,70
352,140,24045,2,0,P|356:174|346:207,1,70,0|8,0:0|0:0,0:0:0:0:
296,284,24473,1,0,0:0:0:0:
392,340,24688,6,0,P|440:280|460:220,1,140,4|8,0:0|0:0,0:0:0:0:
460,128,25330,2,0,L|328:84,1,140
240,108,25973,2,0,P|204:112|172:100,1,70,8|4,0:0|0:0,0:0:0:0:
64,296,26616,5,0,0:0:0:0:
64,296,26723,1,0,0:0:0:0:
64,296,26830,2,0,L|92:324,1,35
248,260,27259,1,0,0:0:0:0:
248,260,27366,1,0,0:0:0:0:
248,260,27473,2,0,L|228:294,1,35
160,306,27688,2,8,L|144:234,1,70
448,88,28330,5,0,0:0:0:0:
448,88,28437,1,0,0:0:0:0:
448,88,28544,2,0,L|420:60,1,35
264,124,28973,1,0,0:0:0:0:
264,124,29080,1,0,0:0:0:0:
264,124,29187,2,0,L|283:89,1,35
352,78,29402,2,8,L|368:150,1,70
392,256,29830,6,0,P|340:296|272:272,1,140,4|0,0:0|0:0,0:0:0:0:
216,204,30473,1,0,0:0:0:0:
188,292,30688,2,0,P|136:296|76:288,2,105,0|0|0,0:0|0:0|0:0,0:0:0:0:
216,204,31545,2,0,P|268:208|328:200,2,105,0|0|0,0:0|0:0|0:0,0:0:0:0:
128,188,32402,2,0,P|96:124|128:64,1,140
216,80,33045,1,0,0:0:0:0:
304,56,33259,6,0,L|380:64,1,70,4|0,0:0|0:0,0:0:0:0:
418,71,33580,1,0,0:0:0:0:
418,71,33688,2,0,P|422:111|410:143,1,70,8|0,0:0|0:0,0:0:0:0:
328,172,34116,2,0,P|317:205|322:239,1,70
396,292,34545,1,8,0:0:0:0:
316,336,34759,1,0,0:0:0:0:
228,316,34973,6,0,L|152:308,1,70
114,301,35294,1,0,0:0:0:0:
114,301,35402,2,0,P|110:261|122:229,1,70,8|0,0:0|0:0,0:0:0:0:
204,200,35830,2,0,P|214:166|209:132,1,70
136,80,36259,1,8,0:0:0:0:
216,36,36473,1,0,0:0:0:0:
312,96,36688,6,0,P|380:124|420:80,1,140,4|0,0:0|0:0,0:0:0:0:
488,144,37330,1,0,0:0:0:0:
428,212,37545,2,0,P|400:260|396:316,2,105,0|0|0,0:0|0:0|0:0,0:0:0:0:
344,180,38402,2,0,P|295:207|264:254,2,105,0|0|0,0:0|0:0|0:0,0:0:0:0:
312,96,39259,2,0,P|236:84|172:96,1,140
96,140,39902,1,0,0:0:0:0:
68,228,40116,6,0,L|88:304,1,70,4|0,0:0|0:0,0:0:0:0:
100,340,40438,1,0,0:0:0:0:
100,340,40545,2,0,P|152:328|176:328,1,70,8|0,0:0|0:0,0:0:0:0:
200,296,40866,2,0,L|316:316,1,105
296,224,41402,2,0,L|376:216,1,70,8|0,0:0|0:0,0:0:0:0:
456,208,41830,5,12,0:0:0:0:
256,108,42259,1,8,0:0:0:0:
472,48,42688,1,8,0:0:0:0:
376,108,42902,1,8,0:0:0:0:
256,108,43116,2,0,L|216:92,2,35,8|0|0,0:0|0:0|0:0,0:0:0:0:
316,204,43545,6,0,P|304:280|252:304,1,140,4|0,0:0|0:0,0:0:0:0:
184,244,44188,1,0,0:0:0:0:
120,180,44402,2,0,B|80:176|80:176|44:180|8:188,2,105,0|0|0,0:0|0:0|0:0,0:0:0:0:
208,156,45259,2,0,B|248:160|248:160|284:156|320:148,2,105,0|0|0,0:0|0:0|0:0,0:0:0:0:
140,96,46116,2,0,P|72:100|20:48,1,140
104,8,46759,1,0,0:0:0:0:
192,20,46973,6,0,L|272:28,1,70,4|0,0:0|0:0,0:0:0:0:
308,36,47295,1,0,0:0:0:0:
308,36,47402,2,0,P|316:72|340:92,1,70,8|0,0:0|0:0,0:0:0:0:
432,104,47830,2,0,P|458:126|464:160,1,70
444,248,48259,1,8,0:0:0:0:
356,276,48473,1,0,0:0:0:0:
288,340,48688,6,0,L|208:332,1,70
172,324,49010,1,0,0:0:0:0:
172,324,49117,2,0,P|164:288|140:268,1,70,8|0,0:0|0:0,0:0:0:0:
48,256,49545,2,0,P|21:233|15:199,1,70
40,112,49974,1,8,0:0:0:0:
120,72,50188,1,0,0:0:0:0:
212,140,50402,6,0,P|284:156|340:120,1,140,4|0,0:0|0:0,0:0:0:0:
376,40,51045,1,0,0:0:0:0:
430,112,51259,2,0,P|458:160|466:216,2,105,0|0|0,0:0|0:0|0:0,0:0:0:0:
372,184,52116,2,0,L|368:296,2,105,0|0|0,0:0|0:0|0:0,0:0:0:0:
320,108,52973,2,0,P|260:84|196:116,1,140
212,204,53616,1,0,0:0:0:0:
156,276,53830,6,0,L|192:348,1,70,4|0,0:0|0:0,0:0:0:0:
232,348,54152,1,0,0:0:0:0:
232,348,54259,2,0,P|264:332|304:336,1,70,8|0,0:0|0:0,0:0:0:0:
336,360,54580,2,0,L|444:348,1,105
492,272,55116,2,0,L|420:256,1,70,8|0,0:0|0:0,0:0:0:0:
336,232,55545,5,12,0:0:0:0:
120,292,55973,1,8,0:0:0:0:
176,76,56402,1,8,0:0:0:0:
256,154,56616,1,8,0:0:0:0:
148,184,56830,2,0,L|112:200,2,35,8|0|0,0:0|0:0|0:0,0:0:0:0:
224,264,57259,6,0,P|288:304|336:264,1,140,4|8,0:0|0:0,0:0:0:0:
316,180,57902,2,0,P|372:146|425:187,1,140
480,260,58545,2,0,L|512:196,1,70,8|0,0:0|0:0,0:0:0:0:
480,112,58973,6,0,P|420:68|352:64,1,140,0|8,0:0|0:0,0:0:0:0:
340,152,59616,2,0,P|271:145|216:103,1,140
176,20,60259,2,0,L|112:56,1,70,8|0,0:0|0:0,0:0:0:0:
20,112,60688,5,12,0:0:0:0:
20,112,60902,1,8,0:0:0:0:
96,164,61116,2,0,L|84:208,1,35,8|0,0:0|0:0,0:0:0:0:
176,220,61438,1,0,0:0:0:0:
176,220,61545,2,0,L|160:288,2,70,0|0|8,0:0|0:0|0:0,0:0:0:0:
244,160,62188,1,0,0:0:0:0:
260,248,62402,5,12,0:0:0:0:
260,248,62616,1,8,0:0:0:0:
336,196,62830,2,0,L|324:152,1,35,8|0,0:0|0:0,0:0:0:0:
416,140,63152,1,0,0:0:0:0:
416,140,63259,2,0,L|400:72,2,70,0|0|8,0:0|0:0|0:0,0:0:0:0:
496,188,63902,1,0,0:0:0:0:
444,288,64116,6,0,P|392:336|328:316,1,140,4|8,0:0|0:0,0:0:0:0:
324,228,64759,2,0,P|258:212|211:259,1,140
200,348,65402,2,0,L|124:336,1,70,8|0,0:0|0:0,0:0:0:0:
44,316,65830,6,0,P|16:248|48:192,1,140,0|8,0:0|0:0,0:0:0:0:
124,240,66473,2,0,P|154:179|125:117,1,140
44,76,67116,2,0,L|104:32,1,70,8|0,0:0|0:0,0:0:0:0:
212,48,67545,6,0,P|288:64|336:28,1,140,4|8,0:0|0:0,0:0:0:0:
420,68,68188,2,0,P|428:145|477:179,1,140,0|0,0:0|0:0,0:0:0:0:
465,272,68830,2,0,P|394:303|376:361,1,140,8|0,0:0|0:0,0:0:0:0:
284,380,69473,2,0,P|231:322|171:323,1,140,4|0,0:0|0:0,0:0:0:0:
128,240,70116,2,0,L|152:172,1,70
88,108,70545,2,0,L|64:176,1,70,8|0,0:0|0:0,0:0:0:0:
36,260,70973,6,0,P|80:324|140:332,1,140,4|8,0:0|0:0,0:0:0:0:
212,280,71616,2,0,P|256:216|316:208,1,140
356,288,72259,2,0,P|380:320|408:324,1,70,8|0,0:0|0:0,0:0:0:0:
432,236,72688,1,12,0:0:0:0:
256,192,72795,12,0,73973,0:0:0:0:
364,112,74402,6,0,L|296:100,1,70,4|0,0:0|0:0,0:0:0:0:
196,136,74830,1,8,0:0:0:0:
276,208,75045,1,0,0:0:0:0:
276,208,75152,2,0,P|280:264|252:304,1,105
152,328,75688,2,0,P|148:288|160:256,1,70,8|0,0:0|0:0,0:0:0:0:
180,160,76116,6,0,L|116:124,1,70
32,68,76545,1,8,0:0:0:0:
128,28,76759,1,0,0:0:0:0:
128,28,76866,1,0,0:0:0:0:
228,60,77080,1,0,0:0:0:0:
228,60,77188,2,0,P|296:72|368:56,1,140
440,132,77830,6,0,L|428:164,1,35
452,212,78045,2,0,L|440:244,1,35
288,292,78473,2,0,L|276:260,1,35
300,212,78688,2,0,L|288:180,1,35
168,76,79116,6,0,L|144:148,1,70,0|0,0:0|0:0,0:0:0:0:
112,240,79545,1,0,0:0:0:0:
168,328,79759,1,0,0:0:0:0:
220,240,79973,2,0,P|260:224|292:224,1,70,8|0,0:0|0:0,0:0:0:0:
328,256,80295,2,0,P|384:248|432:220,1,105,0|0,0:0|0:0,0:0:0:0:
456,124,80830,1,8,0:0:0:0:
376,56,81045,1,0,0:0:0:0:
276,84,81259,6,0,L|208:72,1,70,4|0,0:0|0:0,0:0:0:0:
108,104,81688,1,8,0:0:0:0:
56,196,81902,1,0,0:0:0:0:
56,196,82009,2,0,P|112:204|156:236,1,105
152,336,82545,2,0,P|109:330|76:306,1,70,8|0,0:0|0:0,0:0:0:0:
152,232,82973,6,0,L|220:220,1,70
324,204,83402,1,8,0:0:0:0:
284,300,83616,1,0,0:0:0:0:
284,300,83723,1,0,0:0:0:0:
384,328,83938,1,0,0:0:0:0:
384,328,84045,2,0,P|448:312|500:256,1,140
428,180,84688,6,0,L|416:148,1,35
440,100,84903,2,0,L|428:68,1,35
276,20,85330,2,0,L|264:52,1,35,0|0,0:0|0:0,0:0:0:0:
288,100,85545,2,0,L|276:132,1,35
156,236,85974,6,0,L|132:164,1,70
96,72,86402,1,0,0:0:0:0:
44,276,86830,1,12,0:0:0:0:
44,276,87045,2,0,P|88:336|156:344,1,140
244,300,87688,2,0,L|324:288,2,70,8|0|4,0:0|0:0|0:0,0:0:0:0:
256,192,98402,12,0,99902,0:0:0:0:
120,84,100330,5,0,0:0:0:0:
120,84,100438,1,0,0:0:0:0:
120,84,100545,2,0,L|160:68,1,35
68,180,100973,1,0,0:0:0:0:
68,180,101081,1,0,0:0:0:0:
68,180,101188,2,0,L|108:196,1,35
156,148,101402,2,8,L|228:144,1,70
392,300,102045,5,0,0:0:0:0:
392,300,102153,1,0,0:0:0:0:
392,300,102260,2,0,L|352:316,1,35
444,204,102688,1,0,0:0:0:0:
444,204,102796,1,0,0:0:0:0:
444,204,102903,2,0,L|404:188,1,35
356,236,103117,2,8,L|284:240,1,70,8|8,0:0|0:0,0:0:0:0:
176,244,103545,6,0,P|144:180|168:120,1,140,4|0,0:0|0:0,0:0:0:0:
248,76,104188,1,0,0:0:0:0:
332,112,104402,2,0,P|376:116|440:104,2,105,0|0|0,0:0|0:0|0:0,0:0:0:0:
272,180,105259,2,0,P|252:228|252:280,2,105,0|0|0,0:0|0:0|0:0,0:0:0:0:
360,200,106116,2,0,P|412:256|428:316,1,140
344,356,106759,1,0,0:0:0:0:
268,308,106973,6,0,L|200:296,1,70,4|0,0:0|0:0,0:0:0:0:
156,312,107295,1,0,0:0:0:0:
156,312,107402,2,0,P|120:320|84:316,1,70,8|0,0:0|0:0,0:0:0:0:
16,264,107830,2,0,P|8:228|12:192,1,70
40,108,108259,1,8,0:0:0:0:
116,60,108473,1,0,0:0:0:0:
208,60,108688,6,0,L|276:72,1,70
320,56,109010,1,0,0:0:0:0:
320,56,109117,2,0,P|356:48|392:52,1,70,8|0,0:0|0:0,0:0:0:0:
460,104,109545,2,0,P|468:140|464:176,1,70
436,260,109974,1,8,0:0:0:0:
360,308,110188,1,0,0:0:0:0:
260,256,110402,6,0,P|192:236|144:280,1,140,4|0,0:0|0:0,0:0:0:0:
68,232,111045,1,0,0:0:0:0:
44,144,111259,2,0,P|72:96|76:48,2,105,0|0|0,0:0|0:0|0:0,0:0:0:0:
132,168,112116,2,0,L|236:128,2,105,0|0|0,0:0|0:0|0:0,0:0:0:0:
68,232,112973,2,0,P|136:256|180:312,1,140
264,280,113616,1,0,0:0:0:0:
344,320,113830,6,0,L|416:304,1,70,4|0,0:0|0:0,0:0:0:0:
436,264,114152,1,0,0:0:0:0:
436,264,114259,2,0,P|448:228|448:192,1,70,8|0,0:0|0:0,0:0:0:0:
408,180,114580,2,0,L|428:72,1,105
344,36,115116,2,0,L|344:112,1,70,8|0,0:0|0:0,0:0:0:0:
284,176,115545,5,12,0:0:0:0:
120,24,115973,1,8,0:0:0:0:
60,240,116402,1,8,0:0:0:0:
132,328,116616,1,8,0:0:0:0:
244,320,116830,2,0,L|288:316,2,35,8|0|0,0:0|0:0|0:0,0:0:0:0:
180,228,117259,6,0,P|164:160|200:104,1,140,4|0,0:0|0:0,0:0:0:0:
292,96,117902,1,0,0:0:0:0:
380,120,118116,2,0,P|436:148|492:160,2,105,0|0|0,0:0|0:0|0:0,0:0:0:0:
316,184,118973,2,0,B|296:228|332:248|316:288,2,105,0|0|0,0:0|0:0|0:0,0:0:0:0:
228,164,119830,2,0,P|176:224|112:236,1,140
84,152,120473,1,0,0:0:0:0:
24,84,120688,6,0,P|56:60|88:48,1,70,4|0,0:0|0:0,0:0:0:0:
128,44,121009,1,0,0:0:0:0:
128,44,121116,2,0,P|176:44|204:48,1,70,8|0,0:0|0:0,0:0:0:0:
280,88,121545,1,0,0:0:0:0:
364,48,121759,1,0,0:0:0:0:
448,88,121973,2,0,L|464:160,1,70,8|0,0:0|0:0,0:0:0:0:
480,248,122402,6,0,P|448:272|416:284,1,70
376,288,122723,1,0,0:0:0:0:
376,288,122830,2,0,P|328:288|300:284,1,70,8|0,0:0|0:0,0:0:0:0:
224,244,123259,1,0,0:0:0:0:
140,284,123473,1,0,0:0:0:0:
56,244,123687,2,0,L|40:172,1,70,8|0,0:0|0:0,0:0:0:0:
84,72,124116,6,0,P|160:80|200:36,1,140,4|0,0:0|0:0,0:0:0:0:
288,60,124759,1,0,0:0:0:0:
324,144,124973,2,0,P|380:124|428:116,2,105,0|0|0,0:0|0:0|0:0,0:0:0:0:
240,184,125830,2,0,P|184:204|136:212,2,105,0|0|0,0:0|0:0|0:0,0:0:0:0:
316,236,126688,2,0,B|352:264|392:264|392:264|420:284|432:316,1,140
352,360,127330,1,0,0:0:0:0:
268,328,127545,6,0,P|232:308|212:288,1,70,4|0,0:0|0:0,0:0:0:0:
188,252,127866,1,0,0:0:0:0:
188,252,127973,2,0,L|176:176,1,70,8|0,0:0|0:0,0:0:0:0:
220,172,128295,2,0,P|232:120|216:72,1,105
304,88,128830,2,0,L|372:56,1,70,8|0,0:0|0:0,0:0:0:0:
444,12,129259,5,12,0:0:0:0:
488,232,129688,1,8,0:0:0:0:
276,308,130116,1,8,0:0:0:0:
284,196,130330,1,8,0:0:0:0:
376,260,130545,2,0,L|412:292,2,35,8|0|0,0:0|0:0|0:0,0:0:0:0:
284,196,130973,6,0,P|228:160|160:192,1,140,4|8,0:0|0:0,0:0:0:0:
184,276,131616,2,0,P|128:312|60:280,1,140
20,208,132259,2,0,L|36:140,1,70,8|0,0:0|0:0,0:0:0:0:
60,52,132688,6,0,P|128:32|188:64,1,140,0|8,0:0|0:0,0:0:0:0:
208,152,133330,2,0,P|269:182|334:162,1,140
384,84,133973,2,0,L|464:92,1,70,8|0,0:0|0:0,0:0:0:0:
472,200,134402,5,8,0:0:0:0:
472,200,134616,1,8,0:0:0:0:
412,268,134830,2,0,L|368:256,1,35,8|0,0:0|0:0,0:0:0:0:
344,344,135152,1,0,0:0:0:0:
344,344,135259,2,0,L|272:324,1,70
204,268,135688,2,0,P|171:257|131:260,1,70,8|0,0:0|0:0,0:0:0:0:
40,200,136116,5,12,0:0:0:0:
40,200,136330,1,8,0:0:0:0:
100,268,136544,2,0,L|144:256,1,35,8|0,0:0|0:0,0:0:0:0:
168,344,136866,1,0,0:0:0:0:
168,344,136973,2,0,L|240:324,1,70
256,236,137402,2,0,P|288:224|328:228,1,70,8|0,0:0|0:0,0:0:0:0:
376,328,137830,6,0,P|424:268|428:204,1,140,4|8,0:0|0:0,0:0:0:0:
344,244,138473,2,0,P|296:184|292:120,1,140
380,136,139116,2,0,P|404:106|406:74,1,70,8|0,0:0|0:0,0:0:0:0:
316,52,139545,6,0,P|248:44|180:64,1,140,0|8,0:0|0:0,0:0:0:0:
232,140,140188,2,0,P|164:148|96:128,1,140
60,44,140830,2,0,P|28:72|12:96,1,70,8|0,0:0|0:0,0:0:0:0:
20,208,141259,6,0,B|30:249|25:302|25:302|40:346,1,140,4|8,0:0|0:0,0:0:0:0:
126,344,141902,2,0,B|169:346|217:368|217:368|263:367,1,140
293,282,142545,2,0,B|308:241|344:202|344:202|357:158,1,140,8|0,0:0|0:0,0:0:0:0:
286,104,143188,2,0,B|252:76|225:30|225:30|188:4,1,140,4|0,0:0|0:0,0:0:0:0:
113,54,143830,2,0,L|46:93,1,70
36,180,144259,2,0,L|75:247,1,70,8|0,0:0|0:0,0:0:0:0:
123,309,144688,6,0,P|191:307|236:256,1,140,4|8,0:0|0:0,0:0:0:0:
260,172,145330,2,0,P|188:176|148:228,1,140
236,256,145973,2,0,P|264:272|300:280,1,70,8|0,0:0|0:0,0:0:0:0:
392,288,146402,1,12,0:0:0:0:
256,192,146509,12,0,147688,0:0:0:0:
404,176,148116,6,0,L|372:112,1,70,4|0,0:0|0:0,0:0:0:0:
272,80,148545,1,8,0:0:0:0:
180,132,148759,1,0,0:0:0:0:
180,132,148866,2,0,P|164:180|180:232,1,105
244,316,149402,2,0,L|276:252,1,70,8|0,0:0|0:0,0:0:0:0:
316,156,149830,5,0,0:0:0:0:
416,120,150045,2,0,P|440:148|452:180,1,70,0|8,0:0|0:0,0:0:0:0:
440,284,150473,1,0,0:0:0:0:
440,284,150580,1,0,0:0:0:0:
348,336,150795,1,0,0:0:0:0:
348,336,150902,2,0,P|284:308|216:320,1,140
116,288,151545,6,0,L|128:244,1,35
76,232,151759,2,0,L|68:196,1,35
228,196,152188,2,0,L|216:152,1,35
268,140,152402,2,0,L|276:104,1,35
428,144,152830,6,0,L|449:224,1,70,0|0,0:0|0:0,0:0:0:0:
412,312,153259,2,0,P|356:344|344:348,1,70
252,308,153688,2,0,L|168:320,1,70,8|0,0:0|0:0,0:0:0:0:
140,348,154009,2,0,P|96:340|52:296,1,105
24,200,154545,1,8,0:0:0:0:
60,100,154759,1,0,0:0:0:0:
152,48,154973,6,0,L|232:40,1,70,4|0,0:0|0:0,0:0:0:0:
316,84,155402,1,8,0:0:0:0:
264,176,155616,1,0,0:0:0:0:
264,176,155723,2,0,P|316:188|368:176,1,105
440,252,156259,2,0,P|404:252|372:264,1,70,8|0,0:0|0:0,0:0:0:0:
284,320,156688,6,0,P|251:331|216:331,1,70,0|0,0:0|0:0,0:0:0:0:
172,236,157116,1,8,0:0:0:0:
88,172,157330,1,0,0:0:0:0:
88,172,157438,1,0,0:0:0:0:
92,68,157652,1,0,0:0:0:0:
92,68,157759,2,0,P|164:44|232:48,1,140
312,112,158402,6,0,L|352:96,1,35,0|0,0:0|0:0,0:0:0:0:
364,148,158616,2,0,L|404:132,1,35,0|0,0:0|0:0,0:0:0:0:
264,224,159045,2,0,L|224:208,1,35,0|0,0:0|0:0,0:0:0:0:
212,260,159259,2,0,L|172:244,1,35,0|0,0:0|0:0,0:0:0:0:
328,296,159688,6,0,P|368:296|400:288,1,70
480,228,160116,1,0,0:0:0:0:
352,64,160545,1,12,0:0:0:0:
352,64,160759,2,0,P|276:80|220:48,1,140
176,144,161402,2,0,L|104:136,2,70,8|0|12,0:0|0:0|0:0,0:0:0:0:
360,248,162259,5,8,0:0:0:0:
360,248,162473,2,0,P|280:260|248:312,1,140
172,256,163116,2,0,L|160:184,1,70,8|0,0:0|0:0,0:0:0:0:
148,96,163545,5,4,0:0:0:0:
276,224,163973,1,8,0:0:0:0:
276,224,164187,2,0,P|339:173|340:112,1,140
434,123,164830,2,0,L|480:179,1,70,8|0,0:0|0:0,0:0:0:0:
488,268,165259,5,4,0:0:0:0:
316,328,165688,1,8,0:0:0:0:
316,328,165902,2,0,P|240:300|188:320,1,140
184,228,166545,2,0,P|144:232|112:228,1,70,8|0,0:0|0:0,0:0:0:0:
28,200,166973,5,4,0:0:0:0:
144,60,167402,2,0,L|168:32,2,35,8|0|0,0:0|0:0|0:0,0:0:0:0:
100,140,167830,2,0,L|180:196,2,93.3333333333333,8|8|8,0:0|0:0|0:0,0:0:0:0:
4,68,168688,5,4,0:0:0:0:
96,224,169116,1,8,0:0:0:0:
96,224,169330,2,0,P|164:280|176:340,1,140
244,268,169973,2,0,L|312:248,1,70,8|0,0:0|0:0,0:0:0:0:
396,220,170402,5,4,0:0:0:0:
292,72,170830,1,8,0:0:0:0:
292,72,171045,2,0,P|224:100|164:72,1,140
76,64,171688,2,0,L|96:136,1,70,8|0,0:0|0:0,0:0:0:0:
120,220,172116,5,4,0:0:0:0:
288,284,172545,1,8,0:0:0:0:
288,284,172759,2,0,P|356:272|408:320,1,140
436,228,173402,2,0,L|456:160,1,70,8|0,0:0|0:0,0:0:0:0:
480,72,173830,5,4,0:0:0:0:
392,92,174045,1,0,0:0:0:0:
304,72,174259,1,8,0:0:0:0:
224,28,174473,1,0,0:0:0:0:
200,116,174688,2,0,L|176:216,2,93.3333333333333,8|8|8,0:0|0:0|0:0,0:0:0:0:
104,52,184116,6,0,P|108:124|164:156,1,140,0|2,0:0|0:0,0:0:0:0:
228,92,184759,2,0,P|284:128|285:195,1,140
204,240,185402,1,2,0:0:0:0:
204,240,185616,1,0,0:0:0:0:
280,288,185830,6,0,P|352:320|408:300,1,140,0|2,0:0|0:0,0:0:0:0:
472,240,186473,2,0,P|484:192|484:100,1,140
452,16,187116,1,2,0:0:0:0:
284,88,187545,6,0,P|176:120|124:52,2,210,0|0|2,0:0|0:0|0:0,0:0:0:0:
228,296,189259,2,0,P|336:264|388:332,2,210,0|0|2,0:0|0:0|0:0,0:0:0:0:
284,88,190973,6,0,P|192:104|92:48,2,210,0|0|2,0:0|0:0|0:0,0:0:0:0:
228,296,192688,1,12,0:0:0:0:
256,192,192795,12,0,193973,0:0:0:0:
320,208,194402,6,0,P|368:188|392:172,1,70,4|0,0:0|0:0,0:0:0:0:
448,96,194830,1,8,0:0:0:0:
344,80,195045,1,0,0:0:0:0:
344,80,195152,2,0,P|292:68|240:52,1,105
220,156,195688,2,0,P|181:165|142:177,1,70,8|0,0:0|0:0,0:0:0:0:
60,220,196116,5,0,0:0:0:0:
108,316,196330,2,0,P|141:306|175:298,1,70,0|8,0:0|0:0,0:0:0:0:
280,292,196759,1,0,0:0:0:0:
280,292,196866,1,0,0:0:0:0:
380,328,197080,1,0,0:0:0:0:
380,328,197188,2,0,P|392:256|444:208,1,140
468,108,197830,6,0,L|428:96,1,35
384,120,198045,2,0,L|344:132,1,35
208,60,198473,2,0,L|168:72,1,35
124,48,198688,2,0,L|84:36,1,35
56,192,199116,6,0,L|136:216,1,70,0|0,0:0|0:0,0:0:0:0:
144,316,199545,1,0,0:0:0:0:
244,288,199759,1,0,0:0:0:0:
320,216,199973,2,0,P|360:208|392:216,1,70,8|0,0:0|0:0,0:0:0:0:
432,244,200295,2,0,L|456:140,1,105
484,40,200830,1,8,0:0:0:0:
384,12,201045,1,0,0:0:0:0:
284,48,201259,6,0,L|212:52,1,70,4|0,0:0|0:0,0:0:0:0:
108,60,201688,1,8,0:0:0:0:
120,164,201902,1,0,0:0:0:0:
120,164,202009,2,0,P|128:224|124:272,1,105
224,304,202545,2,0,P|220:264|224:228,1,70,8|0,0:0|0:0,0:0:0:0:
248,132,202973,5,0,0:0:0:0:
328,64,203188,2,0,P|372:68|404:80,1,70,0|8,0:0|0:0,0:0:0:0:
472,148,203616,1,0,0:0:0:0:
472,148,203723,1,0,0:0:0:0:
468,252,203938,1,0,0:0:0:0:
468,252,204045,2,0,P|400:260|336:292,1,140
252,356,204688,6,0,L|236:324,1,35
192,300,204902,2,0,L|200:264,1,35
296,140,205330,2,0,L|312:108,1,35
356,84,205544,2,0,L|348:48,1,35
192,48,205973,6,0,P|152:48|120:60,1,70,0|0,0:0|0:0,0:0:0:0:
36,116,206402,1,0,0:0:0:0:
232,196,206830,1,12,0:0:0:0:
232,196,207045,2,0,P|292:232|364:216,1,140
328,320,207688,2,0,L|405:329,2,70,8|0|4,0:0|0:0|0:0,0:0:0:0:
216,300,208330,5,0,0:0:0:0:
192,212,208544,2,0,P|228:216|260:200,1,70,8|0,0:0|0:0,0:0:0:0:
280,164,208866,2,0,L|244:92,1,70
228,60,209187,2,0,P|255:39|289:34,1,70,0|8,0:0|0:0,0:0:0:0:
380,48,209616,1,0,0:0:0:0:
452,132,209830,6,0,L|440:204,1,70
424,292,210259,2,0,P|388:284|352:288,1,70,8|0,0:0|0:0,0:0:0:0:
312,296,210580,2,0,P|278:300|244:292,1,70
204,264,210902,2,0,L|216:192,1,70,0|8,0:0|0:0,0:0:0:0:
172,116,211330,1,0,0:0:0:0:
72,164,211544,6,0,P|56:200|52:236,1,70
60,320,211973,1,8,0:0:0:0:
132,264,212187,1,0,0:0:0:0:
132,264,212294,1,0,0:0:0:0:
216,296,212509,1,0,0:0:0:0:
216,296,212616,1,0,0:0:0:0:
292,244,212830,2,0,L|272:172,1,70,8|0,0:0|0:0,0:0:0:0:
240,68,213259,5,4,0:0:0:0:
328,40,213473,1,0,0:0:0:0:
412,76,213687,1,8,0:0:0:0:
452,160,213902,2,0,P|460:196|460:232,1,70,4|0,0:0|0:0,0:0:0:0:
372,208,214330,1,0,0:0:0:0:
372,208,214544,2,0,P|364:244|364:280,1,70,12|0,0:0|0:0,0:0:0:0:
280,352,214973,5,4,0:0:0:0:
200,312,215187,1,0,0:0:0:0:
112,340,215402,2,0,P|84:312|72:280,1,70,8|0,0:0|0:0,0:0:0:0:
104,248,215723,2,0,P|124:214|128:180,1,70
112,140,216044,2,0,L|184:100,1,70,0|8,0:0|0:0,0:0:0:0:
252,64,216473,1,0,0:0:0:0:
360,92,216687,6,0,P|376:132|380:160,1,70
380,248,217116,2,0,P|340:244|308:256,1,70,8|0,0:0|0:0,0:0:0:0:
272,276,217437,2,0,L|204:260,1,70
160,244,217759,2,0,P|156:210|166:177,1,70,0|8,0:0|0:0,0:0:0:0:
216,100,218187,1,0,0:0:0:0:
120,44,218402,6,0,P|72:104|52:164,1,140,4|8,0:0|0:0,0:0:0:0:
52,256,219044,2,0,L|184:300,1,140
272,276,219687,2,0,P|308:272|340:284,1,70,8|4,0:0|0:0,0:0:0:0:
448,88,220331,5,0,0:0:0:0:
448,88,220438,1,0,0:0:0:0:
448,88,220545,2,0,L|420:60,1,35
312,144,220973,1,0,0:0:0:0:
312,144,221080,1,0,0:0:0:0:
312,144,221187,2,0,L|284:116,1,35
208,156,221402,2,8,L|196:88,1,70
64,296,222045,5,0,0:0:0:0:
64,296,222152,1,0,0:0:0:0:
64,296,222259,2,0,L|92:324,1,35
200,240,222687,1,0,0:0:0:0:
200,240,222794,1,0,0:0:0:0:
200,240,222901,2,0,L|228:268,1,35
304,228,223116,1,8,0:0:0:0:
316,340,223330,1,8,0:0:0:0:
