osu file format v13

[General]
AudioFilename: athlete.mp3
AudioLeadIn: 0
PreviewTime: 52774
Countdown: 0
SampleSet: Normal
StackLeniency: 0.7
Mode: 1
LetterboxInBreaks: 0
WidescreenStoryboard: 0

[Editor]
Bookmarks: 15967,24539,52774,85043,113278,145547,161681,177816,193950,226707
DistanceSpacing: 0.5
BeatDivisor: 4
GridSize: 16
TimelineZoom: 1

[Metadata]
Title:Superhuman Touch
TitleUnicode:Superhuman Touch
Artist:Athlete
ArtistUnicode:Athlete
Creator:Haruka
Version:Muzukashii
Source:
Tags:black swan sweet_serenitee xakyrie xcherry
BeatmapID:517663
BeatmapSetID:221254

[Difficulty]
HPDrainRate:5
CircleSize:5
OverallDifficulty:5
ApproachRate:5
SliderMultiplier:1.2
SliderTickRate:1

[Events]
//Background and Video events
0,0,"a.png",0,-80
//Break Periods
//Storyboard Layer 0 (Background)
//Storyboard Layer 1 (Fail)
//Storyboard Layer 2 (Pass)
//Storyboard Layer 3 (Foreground)
//Storyboard Sound Samples
//Background Colour Transformations
3,100,163,162,255

[TimingPoints]
14455,504.201680672269,4,1,0,70,1,8
52774,-100,4,1,0,70,0,1
85043,-100,4,1,0,70,0,0
113278,-100,4,1,0,70,0,1
145547,-100,4,1,0,70,0,0
161681,-100,4,1,0,40,0,0
174286,-100,4,1,0,50,0,0
174791,-100,4,1,0,60,0,0
175295,-100,4,1,0,70,0,0
177816,-100,4,1,0,70,0,1
193950,-100,4,1,0,70,0,0
224202,576.923076923077,4,1,0,60,1,0
225355,638.297872340426,4,1,0,50,1,0
225993,714.285714285714,4,1,0,40,1,0

[HitObjects]
256,192,15967,5,8,0:0:0:0:
256,192,16093,1,8,0:0:0:0:
256,192,16219,1,8,0:0:0:0:
256,192,16471,1,4,0:0:0:0:
256,192,16976,1,8,0:0:0:0:
256,192,17228,1,0,0:0:0:0:
256,192,17984,1,8,0:0:0:0:
256,192,18488,1,0,0:0:0:0:
256,192,18740,1,0,0:0:0:0:
256,192,18992,1,8,0:0:0:0:
256,192,19244,1,0,0:0:0:0:
256,192,19749,1,0,0:0:0:0:
256,192,20001,1,8,0:0:0:0:
256,192,20505,1,0,0:0:0:0:
256,192,21009,1,8,0:0:0:0:
256,192,21261,1,0,0:0:0:0:
256,192,22018,1,8,0:0:0:0:
256,192,22522,1,8,0:0:0:0:
256,192,22774,1,8,0:0:0:0:
256,192,23278,1,8,0:0:0:0:
256,192,23530,1,0,0:0:0:0:
256,192,23782,1,8,0:0:0:0:
256,192,24034,1,8,0:0:0:0:
256,192,24160,1,8,0:0:0:0:
256,192,24286,1,8,0:0:0:0:
256,192,24539,5,0,0:0:0:0:
256,192,25043,1,8,0:0:0:0:
256,192,25295,1,0,0:0:0:0:
256,192,26051,1,8,0:0:0:0:
256,192,26555,1,0,0:0:0:0:
256,192,26807,1,0,0:0:0:0:
256,192,27060,1,8,0:0:0:0:
256,192,27312,1,0,0:0:0:0:
256,192,27816,1,0,0:0:0:0:
256,192,28068,1,8,0:0:0:0:
256,192,28572,1,0,0:0:0:0:
256,192,29076,1,8,0:0:0:0:
256,192,29328,1,0,0:0:0:0:
256,192,30085,1,8,0:0:0:0:
256,192,30589,1,0,0:0:0:0:
256,192,30841,1,0,0:0:0:0:
256,192,31093,1,8,0:0:0:0:
256,192,31345,1,0,0:0:0:0:
256,192,31849,1,0,0:0:0:0:
256,192,32102,1,8,0:0:0:0:
256,192,32354,1,0,0:0:0:0:
256,192,32606,1,0,0:0:0:0:
256,192,33110,1,8,0:0:0:0:
256,192,33362,1,0,0:0:0:0:
256,192,34118,1,8,0:0:0:0:
256,192,34623,1,0,0:0:0:0:
256,192,34875,1,0,0:0:0:0:
256,192,35127,1,8,0:0:0:0:
256,192,35379,1,0,0:0:0:0:
256,192,35883,1,0,0:0:0:0:
256,192,36135,1,8,0:0:0:0:
256,192,36639,1,0,0:0:0:0:
256,192,37144,1,8,0:0:0:0:
256,192,37396,1,0,0:0:0:0:
256,192,38152,1,8,0:0:0:0:
256,192,38656,1,0,0:0:0:0:
256,192,38908,1,0,0:0:0:0:
256,192,39160,1,8,0:0:0:0:
256,192,39412,1,0,0:0:0:0:
256,192,39917,1,0,0:0:0:0:
256,192,40169,1,8,0:0:0:0:
256,192,40295,1,8,0:0:0:0:
256,192,40421,1,8,0:0:0:0:
256,192,40673,1,4,0:0:0:0:
256,192,41177,1,8,0:0:0:0:
256,192,41681,1,0,0:0:0:0:
256,192,41933,1,8,0:0:0:0:
256,192,42438,1,8,0:0:0:0:
256,192,42690,1,0,0:0:0:0:
256,192,43194,1,8,0:0:0:0:
256,192,43698,1,8,0:0:0:0:
256,192,43950,1,8,0:0:0:0:
256,192,44455,1,0,0:0:0:0:
256,192,44581,1,0,0:0:0:0:
256,192,44707,1,0,0:0:0:0:
256,192,45211,1,8,0:0:0:0:
256,192,45715,1,0,0:0:0:0:
256,192,45967,1,8,0:0:0:0:
256,192,46471,1,8,0:0:0:0:
256,192,46723,1,0,0:0:0:0:
256,192,47228,1,8,0:0:0:0:
256,192,47732,1,8,0:0:0:0:
256,192,47984,1,8,0:0:0:0:
256,192,48488,1,0,0:0:0:0:
256,192,48614,1,0,0:0:0:0:
256,192,48740,1,0,0:0:0:0:
256,192,49244,1,8,0:0:0:0:
256,192,49749,1,0,0:0:0:0:
256,192,50001,1,0,0:0:0:0:
256,192,50253,1,8,0:0:0:0:
256,192,50757,1,0,0:0:0:0:
256,192,51009,1,0,0:0:0:0:
256,192,51261,1,8,0:0:0:0:
256,192,51765,1,0,0:0:0:0:
256,192,52018,1,8,0:0:0:0:
256,192,52270,1,8,0:0:0:0:
256,192,52396,1,8,0:0:0:0:
256,192,52522,1,8,0:0:0:0:
256,192,52774,5,4,0:0:0:0:
256,192,53278,1,8,0:0:0:0:
256,192,53782,1,0,0:0:0:0:
256,192,54034,1,0,0:0:0:0:
256,192,54286,1,8,0:0:0:0:
256,192,55295,1,8,0:0:0:0:
256,192,55799,1,0,0:0:0:0:
256,192,56051,1,0,0:0:0:0:
256,192,56303,1,8,0:0:0:0:
256,192,56807,1,0,0:0:0:0:
256,192,57312,1,8,0:0:0:0:
256,192,57816,1,0,0:0:0:0:
256,192,58068,1,0,0:0:0:0:
256,192,58320,1,8,0:0:0:0:
256,192,59328,1,8,0:0:0:0:
256,192,59833,1,0,0:0:0:0:
256,192,60085,1,0,0:0:0:0:
256,192,60337,1,8,0:0:0:0:
256,192,60589,1,0,0:0:0:0:
256,192,60841,1,0,0:0:0:0:
256,192,61345,1,8,0:0:0:0:
256,192,61849,1,0,0:0:0:0:
256,192,62102,1,0,0:0:0:0:
256,192,62354,1,8,0:0:0:0:
256,192,63362,1,8,0:0:0:0:
256,192,63866,1,0,0:0:0:0:
256,192,64118,1,0,0:0:0:0:
256,192,64370,1,8,0:0:0:0:
256,192,64875,1,0,0:0:0:0:
256,192,65379,1,8,0:0:0:0:
256,192,65883,1,0,0:0:0:0:
256,192,66135,1,0,0:0:0:0:
256,192,66387,1,8,0:0:0:0:
256,192,67396,1,8,0:0:0:0:
256,192,67900,1,0,0:0:0:0:
256,192,68152,1,0,0:0:0:0:
256,192,68404,1,8,0:0:0:0:
256,192,68530,1,8,0:0:0:0:
256,192,68656,1,8,0:0:0:0:
256,192,68908,1,4,0:0:0:0:
256,192,69412,1,8,0:0:0:0:
256,192,69916,1,0,0:0:0:0:
256,192,70168,1,0,0:0:0:0:
256,192,70420,1,8,0:0:0:0:
256,192,70673,1,0,0:0:0:0:
96,192,71177,1,0,0:0:0:0:
256,192,71429,1,8,0:0:0:0:
256,192,71933,1,0,0:0:0:0:
256,192,72185,1,0,0:0:0:0:
256,192,72437,1,8,0:0:0:0:
256,192,72690,1,0,0:0:0:0:
256,192,72941,1,0,0:0:0:0:
256,192,73446,1,8,0:0:0:0:
256,192,73950,1,0,0:0:0:0:
256,192,74202,1,0,0:0:0:0:
256,192,74454,1,8,0:0:0:0:
256,192,74707,1,0,0:0:0:0:
96,192,75211,1,0,0:0:0:0:
256,192,75462,1,8,0:0:0:0:
256,192,75967,1,0,0:0:0:0:
256,192,76219,1,0,0:0:0:0:
256,192,76471,1,8,0:0:0:0:
256,192,76723,1,0,0:0:0:0:
256,192,76849,1,0,0:0:0:0:
256,192,76975,1,0,0:0:0:0:
256,192,77479,1,8,0:0:0:0:
256,192,77983,1,0,0:0:0:0:
256,192,78236,1,0,0:0:0:0:
256,192,78488,1,8,0:0:0:0:
256,192,78740,1,0,0:0:0:0:
96,192,79244,1,0,0:0:0:0:
256,192,79496,1,8,0:0:0:0:
256,192,80000,1,0,0:0:0:0:
256,192,80252,1,0,0:0:0:0:
256,192,80504,1,8,0:0:0:0:
256,192,80757,1,0,0:0:0:0:
256,192,81009,1,0,0:0:0:0:
256,192,81513,1,8,0:0:0:0:
256,192,82017,1,0,0:0:0:0:
256,192,82269,1,0,0:0:0:0:
256,192,82521,1,8,0:0:0:0:
256,192,82774,1,0,0:0:0:0:
256,192,83026,1,8,0:0:0:0:
256,192,83278,1,8,0:0:0:0:
256,192,83782,1,8,0:0:0:0:
256,192,84034,1,0,0:0:0:0:
256,192,84286,1,8,0:0:0:0:
256,192,84539,1,8,0:0:0:0:
256,192,84665,1,8,0:0:0:0:
256,192,84791,1,8,0:0:0:0:
256,192,85043,5,0,0:0:0:0:
256,192,85547,1,8,0:0:0:0:
256,192,85799,1,0,0:0:0:0:
256,192,86555,1,8,0:0:0:0:
256,192,87059,1,0,0:0:0:0:
256,192,87311,1,0,0:0:0:0:
256,192,87564,1,8,0:0:0:0:
256,192,87816,1,0,0:0:0:0:
256,192,88320,1,0,0:0:0:0:
256,192,88572,1,8,0:0:0:0:
256,192,89076,1,0,0:0:0:0:
256,192,89580,1,8,0:0:0:0:
256,192,89832,1,0,0:0:0:0:
256,192,90589,1,8,0:0:0:0:
256,192,91093,1,0,0:0:0:0:
256,192,91345,1,0,0:0:0:0:
256,192,91597,1,8,0:0:0:0:
256,192,91849,1,0,0:0:0:0:
256,192,92353,1,0,0:0:0:0:
256,192,92606,1,8,0:0:0:0:
256,192,92858,1,0,0:0:0:0:
256,192,93110,1,0,0:0:0:0:
256,192,93614,1,8,0:0:0:0:
256,192,93866,1,0,0:0:0:0:
256,192,94622,1,8,0:0:0:0:
256,192,95127,1,0,0:0:0:0:
256,192,95379,1,0,0:0:0:0:
256,192,95631,1,8,0:0:0:0:
256,192,95883,1,0,0:0:0:0:
256,192,96387,1,0,0:0:0:0:
256,192,96639,1,8,0:0:0:0:
256,192,97143,1,0,0:0:0:0:
256,192,97648,1,8,0:0:0:0:
256,192,97900,1,0,0:0:0:0:
256,192,98656,1,8,0:0:0:0:
256,192,99160,1,0,0:0:0:0:
256,192,99412,1,0,0:0:0:0:
256,192,99664,1,8,0:0:0:0:
256,192,99916,1,0,0:0:0:0:
256,192,100421,1,0,0:0:0:0:
256,192,100673,1,8,0:0:0:0:
256,192,100799,1,8,0:0:0:0:
256,192,100925,1,8,0:0:0:0:
256,192,101177,1,4,0:0:0:0:
256,192,101681,1,8,0:0:0:0:
256,192,102185,1,0,0:0:0:0:
256,192,102437,1,8,0:0:0:0:
256,192,102942,1,8,0:0:0:0:
256,192,103194,1,0,0:0:0:0:
256,192,103698,1,8,0:0:0:0:
256,192,104202,1,8,0:0:0:0:
256,192,104454,1,8,0:0:0:0:
256,192,104959,1,0,0:0:0:0:
256,192,105085,1,0,0:0:0:0:
256,192,105211,1,0,0:0:0:0:
256,192,105715,1,8,0:0:0:0:
256,192,106219,1,0,0:0:0:0:
256,192,106471,1,8,0:0:0:0:
256,192,106975,1,8,0:0:0:0:
256,192,107227,1,0,0:0:0:0:
256,192,107732,1,8,0:0:0:0:
256,192,108236,1,8,0:0:0:0:
256,192,108488,1,8,0:0:0:0:
256,192,108992,1,0,0:0:0:0:
256,192,109118,1,0,0:0:0:0:
256,192,109244,1,0,0:0:0:0:
256,192,109748,1,8,0:0:0:0:
256,192,110253,1,0,0:0:0:0:
256,192,110505,1,0,0:0:0:0:
256,192,110757,1,8,0:0:0:0:
256,192,111261,1,8,0:0:0:0:
256,192,111513,1,0,0:0:0:0:
256,192,111765,1,8,0:0:0:0:
256,192,111891,1,8,0:0:0:0:
256,192,112018,1,8,0:0:0:0:
256,192,112270,1,8,0:0:0:0:
256,192,112522,1,8,0:0:0:0:
256,192,112648,1,8,0:0:0:0:
256,192,112774,1,8,0:0:0:0:
256,192,112900,1,8,0:0:0:0:
256,192,113026,1,8,0:0:0:0:
256,192,113278,5,4,0:0:0:0:
256,192,113782,1,8,0:0:0:0:
256,192,114286,1,0,0:0:0:0:
256,192,114538,1,0,0:0:0:0:
256,192,114790,1,8,0:0:0:0:
256,192,115799,1,8,0:0:0:0:
256,192,116303,1,0,0:0:0:0:
256,192,116555,1,0,0:0:0:0:
256,192,116807,1,8,0:0:0:0:
256,192,117311,1,0,0:0:0:0:
256,192,117816,1,8,0:0:0:0:
256,192,118320,1,0,0:0:0:0:
256,192,118572,1,0,0:0:0:0:
256,192,118824,1,8,0:0:0:0:
256,192,119832,1,8,0:0:0:0:
256,192,120337,1,0,0:0:0:0:
256,192,120589,1,0,0:0:0:0:
256,192,120841,1,8,0:0:0:0:
256,192,121093,1,0,0:0:0:0:
256,192,121345,1,0,0:0:0:0:
256,192,121849,1,8,0:0:0:0:
256,192,122353,1,0,0:0:0:0:
256,192,122606,1,0,0:0:0:0:
256,192,122858,1,8,0:0:0:0:
256,192,123866,1,8,0:0:0:0:
256,192,124370,1,0,0:0:0:0:
256,192,124622,1,0,0:0:0:0:
256,192,124874,1,8,0:0:0:0:
256,192,125379,1,0,0:0:0:0:
256,192,125883,1,8,0:0:0:0:
256,192,126387,1,0,0:0:0:0:
256,192,126639,1,0,0:0:0:0:
256,192,126891,1,8,0:0:0:0:
256,192,127900,1,8,0:0:0:0:
256,192,128404,1,0,0:0:0:0:
256,192,128656,1,0,0:0:0:0:
256,192,128908,1,8,0:0:0:0:
256,192,129034,1,8,0:0:0:0:
256,192,129160,1,8,0:0:0:0:
256,192,129412,1,4,0:0:0:0:
256,192,129916,1,8,0:0:0:0:
256,192,130420,1,0,0:0:0:0:
256,192,130672,1,0,0:0:0:0:
256,192,130924,1,8,0:0:0:0:
256,192,131177,1,0,0:0:0:0:
96,192,131681,1,0,0:0:0:0:
256,192,131933,1,8,0:0:0:0:
256,192,132437,1,0,0:0:0:0:
256,192,132689,1,0,0:0:0:0:
256,192,132941,1,8,0:0:0:0:
256,192,133193,1,0,0:0:0:0:
256,192,133445,1,0,0:0:0:0:
256,192,133950,1,8,0:0:0:0:
256,192,134454,1,0,0:0:0:0:
256,192,134706,1,0,0:0:0:0:
256,192,134958,1,8,0:0:0:0:
256,192,135211,1,0,0:0:0:0:
96,192,135715,1,0,0:0:0:0:
256,192,135966,1,8,0:0:0:0:
256,192,136471,1,0,0:0:0:0:
256,192,136723,1,0,0:0:0:0:
256,192,136975,1,8,0:0:0:0:
256,192,137227,1,0,0:0:0:0:
256,192,137353,1,0,0:0:0:0:
256,192,137479,1,0,0:0:0:0:
256,192,137983,1,8,0:0:0:0:
256,192,138487,1,0,0:0:0:0:
256,192,138740,1,0,0:0:0:0:
256,192,138992,1,8,0:0:0:0:
256,192,139244,1,0,0:0:0:0:
96,192,139748,1,0,0:0:0:0:
256,192,140000,1,8,0:0:0:0:
256,192,140504,1,0,0:0:0:0:
256,192,140756,1,0,0:0:0:0:
256,192,141008,1,8,0:0:0:0:
256,192,141261,1,0,0:0:0:0:
256,192,141513,1,0,0:0:0:0:
256,192,142017,1,8,0:0:0:0:
256,192,142521,1,0,0:0:0:0:
256,192,142773,1,0,0:0:0:0:
256,192,143025,1,8,0:0:0:0:
256,192,143278,1,0,0:0:0:0:
256,192,143530,1,0,0:0:0:0:
256,192,144034,1,8,0:0:0:0:
256,192,144539,1,0,0:0:0:0:
256,192,144791,1,0,0:0:0:0:
256,192,145043,1,8,0:0:0:0:
256,192,145169,1,8,0:0:0:0:
256,192,145295,1,8,0:0:0:0:
256,192,145547,5,4,0:0:0:0:
256,192,146051,1,8,0:0:0:0:
256,192,146555,1,8,0:0:0:0:
256,192,146807,1,0,0:0:0:0:
256,192,147060,1,8,0:0:0:0:
256,192,147564,1,0,0:0:0:0:
256,192,148068,1,8,0:0:0:0:
256,192,148320,1,0,0:0:0:0:
256,192,148824,1,0,0:0:0:0:
256,192,149076,1,8,0:0:0:0:
256,192,149328,1,0,0:0:0:0:
256,192,149581,1,0,0:0:0:0:
256,192,150085,1,8,0:0:0:0:
256,192,150589,1,8,0:0:0:0:
256,192,150841,1,0,0:0:0:0:
256,192,151093,1,8,0:0:0:0:
256,192,151597,1,0,0:0:0:0:
256,192,152102,1,8,0:0:0:0:
256,192,152606,1,0,0:0:0:0:
256,192,152858,1,0,0:0:0:0:
256,192,153110,1,8,0:0:0:0:
256,192,153362,1,0,0:0:0:0:
256,192,153614,1,0,0:0:0:0:
256,192,154118,1,8,0:0:0:0:
256,192,154623,1,8,0:0:0:0:
256,192,154875,1,0,0:0:0:0:
256,192,155127,1,8,0:0:0:0:
256,192,155631,1,0,0:0:0:0:
256,192,156135,1,8,0:0:0:0:
256,192,156387,1,0,0:0:0:0:
256,192,156891,1,0,0:0:0:0:
256,192,157144,1,8,0:0:0:0:
256,192,157396,1,0,0:0:0:0:
256,192,157648,1,4,0:0:0:0:
256,192,158152,1,8,0:0:0:0:
256,192,158656,1,0,0:0:0:0:
256,192,158908,1,0,0:0:0:0:
256,192,159160,1,8,0:0:0:0:
256,192,159412,1,0,0:0:0:0:
256,192,159665,1,0,0:0:0:0:
256,192,160169,1,8,0:0:0:0:
256,192,160673,1,0,0:0:0:0:
256,192,160925,1,0,0:0:0:0:
256,192,161177,1,8,0:0:0:0:
256,192,161429,1,0,0:0:0:0:
256,192,161681,5,4,0:0:0:0:
256,192,162186,1,8,0:0:0:0:
256,192,163194,1,8,0:0:0:0:
256,192,164202,1,8,0:0:0:0:
256,192,165211,1,8,0:0:0:0:
256,192,165715,1,0,0:0:0:0:
256,192,166219,1,8,0:0:0:0:
256,192,167228,1,8,0:0:0:0:
256,192,168236,1,8,0:0:0:0:
256,192,169244,1,8,0:0:0:0:
256,192,169749,1,0,0:0:0:0:
256,192,170253,1,8,0:0:0:0:
256,192,171261,1,8,0:0:0:0:
256,192,171765,1,0,0:0:0:0:
256,192,172270,1,8,0:0:0:0:
256,192,173278,1,8,0:0:0:0:
256,192,173782,1,0,0:0:0:0:
256,192,174286,1,8,0:0:0:0:
256,192,174791,1,8,0:0:0:0:
256,192,175295,1,8,0:0:0:0:
256,192,175799,1,0,0:0:0:0:
256,192,176051,1,8,0:0:0:0:
256,192,176429,1,8,0:0:0:0:
256,192,176807,1,8,0:0:0:0:
256,192,177312,1,8,0:0:0:0:
256,192,177438,1,8,0:0:0:0:
256,192,177564,1,8,0:0:0:0:
256,192,177816,5,4,0:0:0:0:
256,192,178320,1,8,0:0:0:0:
256,192,178824,1,0,0:0:0:0:
256,192,179076,1,0,0:0:0:0:
256,192,179328,1,8,0:0:0:0:
256,192,179581,1,0,0:0:0:0:
96,192,180085,1,0,0:0:0:0:
256,192,180337,1,8,0:0:0:0:
256,192,180841,1,0,0:0:0:0:
256,192,181093,1,0,0:0:0:0:
256,192,181345,1,8,0:0:0:0:
256,192,181597,1,0,0:0:0:0:
256,192,181849,1,0,0:0:0:0:
256,192,182354,1,8,0:0:0:0:
256,192,182858,1,0,0:0:0:0:
256,192,183110,1,0,0:0:0:0:
256,192,183362,1,8,0:0:0:0:
256,192,183615,1,0,0:0:0:0:
96,192,184119,1,0,0:0:0:0:
256,192,184370,1,8,0:0:0:0:
256,192,184875,1,0,0:0:0:0:
256,192,185127,1,0,0:0:0:0:
256,192,185379,1,8,0:0:0:0:
256,192,185631,1,0,0:0:0:0:
256,192,185757,1,0,0:0:0:0:
256,192,185883,1,0,0:0:0:0:
256,192,186387,1,8,0:0:0:0:
256,192,186891,1,0,0:0:0:0:
256,192,187144,1,0,0:0:0:0:
256,192,187396,1,8,0:0:0:0:
256,192,187648,1,0,0:0:0:0:
96,192,188152,1,0,0:0:0:0:
256,192,188404,1,8,0:0:0:0:
256,192,188908,1,0,0:0:0:0:
256,192,189160,1,0,0:0:0:0:
256,192,189412,1,8,0:0:0:0:
256,192,189665,1,0,0:0:0:0:
256,192,189917,1,0,0:0:0:0:
256,192,190421,1,8,0:0:0:0:
256,192,190925,1,0,0:0:0:0:
256,192,191177,1,0,0:0:0:0:
256,192,191429,1,8,0:0:0:0:
256,192,191681,1,0,0:0:0:0:
256,192,191934,1,0,0:0:0:0:
256,192,192438,1,8,0:0:0:0:
256,192,192943,1,0,0:0:0:0:
256,192,193195,1,0,0:0:0:0:
256,192,193447,1,8,0:0:0:0:
256,192,193573,1,8,0:0:0:0:
256,192,193699,1,8,0:0:0:0:
256,192,193950,5,4,0:0:0:0:
256,192,194455,1,8,0:0:0:0:
256,192,194959,1,0,0:0:0:0:
256,192,195211,1,0,0:0:0:0:
256,192,195463,1,8,0:0:0:0:
256,192,196472,1,8,0:0:0:0:
96,192,196723,1,0,0:0:0:0:
256,192,197228,1,0,0:0:0:0:
256,192,197480,1,8,0:0:0:0:
96,192,197732,1,0,0:0:0:0:
256,192,197984,1,0,0:0:0:0:
256,192,198489,1,8,0:0:0:0:
256,192,198993,1,0,0:0:0:0:
256,192,199245,1,0,0:0:0:0:
256,192,199497,1,8,0:0:0:0:
256,192,200505,1,8,0:0:0:0:
256,192,201010,1,0,0:0:0:0:
256,192,201262,1,0,0:0:0:0:
256,192,201514,1,8,0:0:0:0:
256,192,201766,1,0,0:0:0:0:
256,192,202018,1,0,0:0:0:0:
256,192,202522,1,8,0:0:0:0:
256,192,203026,1,0,0:0:0:0:
256,192,203279,1,0,0:0:0:0:
256,192,203531,1,8,0:0:0:0:
256,192,204539,1,8,0:0:0:0:
96,192,204791,1,0,0:0:0:0:
256,192,205295,1,0,0:0:0:0:
256,192,205547,1,8,0:0:0:0:
96,192,205799,1,0,0:0:0:0:
256,192,206052,1,0,0:0:0:0:
256,192,206556,1,8,0:0:0:0:
256,192,207060,1,0,0:0:0:0:
256,192,207312,1,0,0:0:0:0:
256,192,207564,1,8,0:0:0:0:
256,192,208573,1,8,0:0:0:0:
256,192,209077,1,0,0:0:0:0:
256,192,209329,1,0,0:0:0:0:
256,192,209581,1,8,0:0:0:0:
256,192,209707,1,8,0:0:0:0:
256,192,209833,1,8,0:0:0:0:
256,192,210085,1,0,0:0:0:0:
256,192,210589,1,8,0:0:0:0:
256,192,211093,1,0,0:0:0:0:
256,192,211345,1,0,0:0:0:0:
256,192,211597,1,8,0:0:0:0:
256,192,212606,1,8,0:0:0:0:
96,192,212858,1,0,0:0:0:0:
256,192,213362,1,0,0:0:0:0:
256,192,213614,1,8,0:0:0:0:
96,192,213866,1,0,0:0:0:0:
256,192,214118,1,0,0:0:0:0:
256,192,214623,1,8,0:0:0:0:
256,192,215127,1,0,0:0:0:0:
256,192,215379,1,0,0:0:0:0:
256,192,215631,1,8,0:0:0:0:
256,192,216639,1,8,0:0:0:0:
256,192,217144,1,0,0:0:0:0:
256,192,217396,1,0,0:0:0:0:
256,192,217648,1,8,0:0:0:0:
256,192,217900,1,0,0:0:0:0:
256,192,218152,1,0,0:0:0:0:
256,192,218656,1,8,0:0:0:0:
256,192,219160,1,0,0:0:0:0:
256,192,219413,1,0,0:0:0:0:
256,192,219665,1,8,0:0:0:0:
256,192,220673,1,8,0:0:0:0:
96,192,220925,1,0,0:0:0:0:
256,192,221429,1,0,0:0:0:0:
256,192,221681,1,8,0:0:0:0:
96,192,221933,1,0,0:0:0:0:
256,192,222186,1,0,0:0:0:0:
256,192,222690,1,8,0:0:0:0:
256,192,223194,1,0,0:0:0:0:
256,192,223446,1,0,0:0:0:0:
256,192,223698,1,8,0:0:0:0:
256,192,224202,1,4,0:0:0:0:
256,192,224778,1,8,0:0:0:0:
256,192,225355,1,4,0:0:0:0:
256,192,225993,1,8,0:0:0:0:
256,192,226707,1,4,0:0:0:0:
