osu file format v10

[General]
AudioFilename: Atari Kousuke - Natsu Yuuzora (TV Size).mp3
AudioLeadIn: 1500
PreviewTime: 52785
Countdown: 0
SampleSet: Soft
StackLeniency: 0.7
Mode: 0
LetterboxInBreaks: 0

[Editor]
DistanceSpacing: 1
BeatDivisor: 4
GridSize: 8

[Metadata]
Title:Natsu Yuuzora (TV Size)
TitleUnicode:夏夕空
Artist:Atari Kousuke
ArtistUnicode:中孝介
Creator:Colin Hou
Version:Normal
Source:Natsume Yuujinchou
Tags:ED Ending theme
BeatmapID:173629
BeatmapSetID:55736

[Difficulty]
HPDrainRate:4
CircleSize:4
OverallDifficulty:5
ApproachRate:6
SliderMultiplier:2
SliderTickRate:2

[Events]
//Background and Video events
0,0,"BG.jpg"
Video,0,"BGV.avi"
//Break Periods
//Storyboard Layer 0 (Background)
//Storyboard Layer 1 (Fail)
//Storyboard Layer 2 (Pass)
//Storyboard Layer 3 (Foreground)
//Storyboard Sound Samples
//Background Colour Transformations
3,100,163,162,255

[TimingPoints]
616,895.522388059701,4,2,1,20,1,0
54347,-100,4,2,1,20,0,1
79421,-100,4,2,1,20,0,0
87929,-100,4,2,1,5,0,0

[HitObjects]
456,208,616,2,0,B|456:312,2,100,8|0|2,0:0|0:0|0:0,0:0:0
375,148,1959,1,0,0:0:0
329,237,2407,2,0,B|301:296|207:316|149:297,1,200,0|0,0:0|0:0,0:0:0
93,217,3750,1,0,0:0:0
142,130,4198,6,0,B|192:160|192:220,1,100,8|0,0:0|0:0,0:0:0
152,303,5093,2,0,B|53:328,2,100
245,126,6884,1,2,0:0:0
428,206,7780,6,0,B|377:216|322:218,1,100,8|0,0:0|0:0,0:0:0
245,273,8675,1,2,0:0:0
160,220,9123,1,0,0:0:0
65,251,9571,2,0,B|125:239|157:152|119:83,1,200,0|0,0:0|0:0,0:0:0
120,85,10914,1,0,0:0:0
207,37,11362,6,0,B|258:63|308:31,2,100,8|0|0,0:0|0:0|0:0,0:0:0
160,125,12705,1,0,0:0:0
256,160,13153,2,0,B|256:264,2,100,2|0|8,0:0|0:0|0:0,0:0:0
352,125,14496,6,0,B|415:125,2,50,0|0|8,0:0|0:0|0:0,0:0:0
273,62,15392,1,0,0:0:0
180,99,15839,2,0,B|210:148|202:241|128:273,1,200,2|0,0:0|0:0,0:0:0
31,263,17183,2,0,B|62:159,1,100
59,167,18078,5,0,0:0:0
158,156,18526,1,8,0:0:0
237,216,18974,1,0,0:0:0
336,205,19422,1,0,0:0:0
411,269,19869,1,0,0:0:0
510,258,20317,2,0,B|508:189|419:142|360:180,1,200,2|0,0:0|0:0,0:0:0
273,228,21660,5,0,0:0:0
185,276,22108,2,0,B|141:314|84:301,2,100,8|0|2,0:0|0:0|0:0,0:0:0
113,205,23451,1,0,0:0:0
113,205,23899,2,0,B|63:179|72:120,1,100,0|0,0:0|0:0,0:0:0
171,127,24795,2,0,B|154:73|202:37,1,100
269,111,25690,1,8,0:0:0
368,99,26138,6,0,B|411:127,2,50,0|2|0,0:0|0:0|0:0,0:0:0
331,192,27033,2,0,B|230:215,1,100,2|0,0:0|0:0,0:0:0
39,263,28377,2,0,B|140:240,2,100,0|2|8,0:0|0:0|0:0,0:0:0
64,166,29720,5,0,0:0:0
90,69,30168,1,2,0:0:0
161,139,30615,1,0,0:0:0
186,42,31063,2,0,B|243:56|256:110|256:110|354:135,1,200,0|0,0:0|0:0,0:0:0
447,158,32407,5,0,0:0:0
396,243,32854,2,0,B|373:298|311:297,1,100,8|0,0:0|0:0,0:0:0
301,198,33750,2,0,B|193:169,1,100
105,154,34645,2,0,B|147:194|155:285|97:337,1,200,2|0,0:0|0:0,0:0:0
280,248,36436,6,0,B|380:268,2,100,8|0|2,0:0|0:0|0:0,0:0:0
201,185,37780,1,0,0:0:0
232,90,38227,2,0,B|271:133|367:143|425:78,1,200,0|0,0:0|0:0,0:0:0
414,89,39571,5,0,0:0:0
499,140,40018,1,8,0:0:0
390,308,40914,2,0,B|293:326,1,100
319,230,41810,2,0,B|110:267,1,200,2|0,0:0|0:0,0:0:0
16,95,43601,5,8,0:0:0
109,128,44048,1,0,0:0:0
159,41,44496,2,0,B|203:72|256:54,1,100,2|0,0:0|0:0,0:0:0
352,37,45392,2,0,B|284:62|267:157|327:204,1,200,0|0,0:0|0:0,0:0:0
393,128,46735,1,0,0:0:0
422,223,47183,6,0,B|453:320,2,100,8|0|0,0:0|0:0|0:0,0:0:0
337,276,48526,1,0,0:0:0
249,324,48974,2,0,B|218:228,1,100,2|0,0:0|0:0,0:0:0
126,190,49869,1,0,0:0:0
35,148,50317,1,0,0:0:0
116,90,50765,1,8,0:0:0
199,35,51213,6,0,B|253:57,2,50,0|0|2,0:0|0:0|0:0,0:0:0
203,134,52108,2,0,B|250:170|238:230,1,100,0|2,0:0|0:0,0:0:0
139,215,53004,1,0,0:0:0
176,307,53451,2,0,B|220:339|272:321,1,100,2|0,0:0|0:0,0:0:0
295,224,54347,6,0,B|289:288|352:351|437:334,1,200,8|0,0:0|0:0,0:0:0
415,216,55690,1,0,0:0:0
411,95,56138,2,0,B|355:95|319:139|319:139|264:125|229:170,1,200,2|0,0:0|0:0,0:0:0
171,243,57481,6,0,B|132:290,2,50,0|0|8,0:0|0:0|0:0,0:0:0
117,158,58377,1,0,0:0:0
174,76,58824,2,0,B|125:76|67:53,2,100,0|0|2,0:0|0:0|0:0,0:0:0
355,160,60615,6,0,B|404:160|462:137,2,100,0|0|8,0:0|0:0|0:0,0:0:0
266,112,61959,1,0,0:0:0
194,181,62407,2,0,B|145:161|96:161,2,100,2|0|0,0:0|0:0|0:0,0:0:0
327,329,64198,5,0,0:0:0
408,270,64645,1,0,0:0:0
351,187,65093,2,0,B|340:139|365:89,1,100,10|0,0:0|0:0,0:0:0
438,22,65989,2,0,B|473:64|457:128,2,100,0|0|2,0:0|0:0|0:0,0:0:0
244,73,67780,5,0,0:0:0
171,141,68227,1,0,0:0:0
94,77,68675,2,0,B|-7:84,2,100,8|0|2,0:0|0:0|0:0,0:0:0
185,37,70018,2,0,B|239:32,2,50,0|0|0,0:0|0:0|0:0,0:0:0
134,123,70914,1,0,0:0:0
233,131,71362,6,0,B|192:156|163:247|195:327,1,200,2|8,0:0|0:0,0:0:0
286,343,72705,1,0,0:0:0
351,267,73153,2,0,B|414:268|442:307,2,100,0|0|2,0:0|0:0|0:0,0:0:0
208,126,74944,5,0,0:0:0
208,126,75392,1,0,0:0:0
208,126,75839,2,0,B|165:162|112:159,1,100,2|0,0:0|0:0,0:0:0
55,238,76735,1,0,0:0:0
155,238,77183,1,0,0:0:0
185,333,77630,2,0,B|228:285|299:277|379:302,1,200,0|0,0:0|0:0,0:0:0
351,201,78974,2,0,B|391:104,1,100,0|10,0:0|0:0,0:0:0
321,31,79869,6,0,B|282:123,1,100
197,176,80765,1,0,0:0:0
106,132,81213,1,2,0:0:0
38,205,81660,2,0,B|45:256,1,50,0|2,0:0|0:0,0:0:0
117,324,82332,6,0,B|164:292|220:295|276:320,1,150,2|10,0:0|0:0,0:0:0
345,260,83451,1,0,0:0:0
263,201,83899,1,0,0:0:0
345,144,84347,2,0,B|345:40,1,100,0|2,0:0|0:0,0:0:0
256,192,86362,12,0,87929,0:0:0
