osu file format v12

[General]
AudioFilename: moemoemoe.mp3
AudioLeadIn: 0
PreviewTime: 58136
Countdown: 0
SampleSet: Soft
StackLeniency: 0.7
Mode: 0
LetterboxInBreaks: 0
WidescreenStoryboard: 0

[Editor]
Bookmarks: 11649,86244
DistanceSpacing: 0.5
BeatDivisor: 4
GridSize: 4
TimelineZoom: 1

[Metadata]
Title:Hanagonomi (TV Size)
TitleUnicode:はなごのみ (TV Size)
Artist:Asumi Kana
ArtistUnicode:阿澄佳奈
Creator:Sekai-nyan
Version:Hana
Source:ニセコイ
Tags:Nisekoi False Fake Love Ending Tachibana Marika Sekai Tsukuyomi baldrace koreapenguin
BeatmapID:421156
BeatmapSetID:174429

[Difficulty]
HPDrainRate:6
CircleSize:4
OverallDifficulty:6
ApproachRate:7
SliderMultiplier:1.8
SliderTickRate:1

[Events]
//Background and Video events
0,0,"k.jpg",0,0
Video,1600,"Video.avi"
//Break Periods
//Storyboard Layer 0 (Background)
//Storyboard Layer 1 (Fail)
//Storyboard Layer 2 (Pass)
//Storyboard Layer 3 (Foreground)
//Storyboard Sound Samples
//Background Colour Transformations
3,100,163,162,255

[TimingPoints]
1910,540.540540540541,4,2,1,60,1,0
10558,-100,4,2,1,65,0,0
17045,-133.333333333333,4,2,1,65,0,0
17585,-100,4,2,1,65,0,0
19207,-133.333333333333,4,2,1,65,0,0
19747,-100,4,2,1,65,0,0
21369,-100,4,2,1,45,0,0
38666,-100,4,2,1,55,0,0
58126,-100,4,2,1,70,0,1
75423,-100,4,2,1,60,0,0
84612,-100,4,2,1,50,0,0
85153,-100,4,2,1,40,0,0
85693,-100,4,2,1,20,0,0

[Colours]
Combo1 : 255,128,128
Combo2 : 243,189,161
Combo3 : 216,152,106
Combo4 : 255,218,217
Combo5 : 254,165,196
Combo6 : 148,226,246
Combo7 : 64,193,255
Combo8 : 255,179,179

[HitObjects]
112,192,1910,6,0,P|92:272|184:348,1,180,2|2,0:0|0:0,0:0:0:0:
400,192,2991,2,0,P|420:272|328:348,1,180,2|2,0:0|0:0,0:0:0:0:
188,156,4072,6,0,P|152:124|96:116,1,90,2|0,0:0|0:0,0:0:0:0:
192,244,4612,2,0,P|237:228|272:184,1,90,2|0,0:0|0:0,0:0:0:0:
112,204,5153,2,0,P|102:251|123:303,1,90,2|0,0:0|0:0,0:0:0:0:
188,156,5693,1,2,0:0:0:0:
328,132,5964,1,2,0:0:0:0:
328,132,6099,1,2,0:0:0:0:
328,132,6234,6,0,B|372:116|420:132|420:132|432:88|484:68,1,180,2|2,0:0|0:0,0:0:0:0:
328,252,7315,2,0,B|372:268|420:252|420:252|432:296|484:316,1,180,2|2,0:0|0:0,0:0:0:0:
256,200,8396,6,0,P|240:256|256:304,1,90,2|0,0:0|0:0,0:0:0:0:
184,352,8937,1,4,3:0:0:0:
100,320,9207,1,2,0:0:0:0:
100,320,9342,1,2,0:0:0:0:
100,320,9477,2,0,P|56:283|37:249,1,90,2|0,0:0|0:0,0:0:0:0:
0,172,10018,1,8,0:0:0:0:
0,172,10153,1,8,3:0:0:0:
0,172,10288,1,4,3:0:0:0:
56,100,10558,6,0,P|144:88|204:152,1,180,4|8,0:0|0:0,0:0:0:0:
256,224,11369,1,0,0:0:0:0:
308,148,11639,2,0,P|370:87|456:100,1,180,2|8,0:0|0:0,0:0:0:0:
460,192,12450,1,0,0:0:0:0:
292,300,12720,6,0,B|236:320|196:288|196:288|156:252|100:276,1,180,4|8,0:0|0:0,0:0:0:0:
76,192,13531,1,0,0:0:0:0:
120,112,13801,1,2,0:0:0:0:
120,112,13937,1,4,3:0:0:0:
120,112,14072,1,0,0:0:0:0:
184,48,14342,2,0,P|226:34|262:7,1,90,8|0,0:0|0:0,0:0:0:0:
340,56,14882,6,0,B|384:132|384:132|320:224,1,180,4|8,0:0|0:0,0:0:0:0:
256,268,15693,1,0,0:0:0:0:
188,207,15964,2,0,B|136:132|136:132|180:56,1,180,4|8,0:0|0:0,0:0:0:0:
256,4,16774,1,0,0:0:0:0:
256,268,17045,6,0,P|192:296|120:268,1,135.000005149842,4|0,0:0|0:0,0:0:0:0:
316,192,18126,1,0,1:0:0:0:
336,204,18261,1,0,0:0:0:0:
356,216,18396,1,0,0:0:0:0:
432,192,18666,1,0,1:0:0:0:
452,204,18801,1,0,0:0:0:0:
472,216,18937,1,0,0:0:0:0:
316,112,19207,6,0,P|252:136|240:216,1,135.000005149842,4|0,0:0|0:0,0:0:0:0:
392,340,20288,1,2,0:0:0:0:
44,64,21369,6,0,P|122:104|206:80,1,180,2|8,0:0|0:0,0:0:0:0:
256,4,22180,1,0,0:0:0:0:
305,80,22450,2,0,P|389:104|468:64,1,180,2|8,0:0|0:0,0:0:0:0:
504,148,23261,1,0,0:0:0:0:
452,220,23531,6,0,P|428:276|436:316,1,90,2|0,0:0|0:0,0:0:0:0:
364,364,24072,1,8,0:0:0:0:
296,304,24342,1,0,0:0:0:0:
296,304,24477,1,0,0:0:0:0:
296,304,24612,2,0,P|232:288|132:360,1,180,2|8,0:0|0:0,0:0:0:0:
52,368,25423,1,0,0:0:0:0:
40,280,25693,6,0,P|28:192|80:96,1,180,2|8,0:0|0:0,0:0:0:0:
116,32,26504,1,0,0:0:0:0:
116,32,26774,2,0,P|156:72|164:124,1,90,2|0,0:0|0:0,0:0:0:0:
192,192,27315,1,8,0:0:0:0:
256,132,27585,1,0,0:0:0:0:
192,192,27855,6,0,B|176:240|208:276|208:276|248:324|224:368,3,180,2|8|2|8,0:0|0:0|0:0|0:0,0:0:0:0:
312,64,30018,5,2,0:0:0:0:
256,132,30288,1,0,0:0:0:0:
312,64,30558,2,0,L|404:84,1,90,8|0,0:0|0:0,0:0:0:0:
480,124,31099,2,0,P|504:192|456:308,1,180,2|8,0:0|0:0,0:0:0:0:
412,360,31910,1,0,0:0:0:0:
322,339,32180,6,0,B|280:304|204:324|204:324|204:288|188:272,1,180,2|8,0:0|0:0,0:0:0:0:
148,192,32991,1,0,0:0:0:0:
188,112,33261,2,0,B|204:96|204:60|204:60|280:80|322:45,1,180,2|8,0:0|0:0,0:0:0:0:
148,192,34072,5,0,0:0:0:0:
148,192,34207,1,0,0:0:0:0:
148,192,34342,2,0,P|104:152|104:104,1,90,2|0,0:0|0:0,0:0:0:0:
224,192,34882,2,0,P|204:248|148:268,1,90,8|0,0:0|0:0,0:0:0:0:
294,112,35423,2,0,L|384:112,1,90,2|0,0:0|0:0,0:0:0:0:
478,192,35964,2,0,L|388:192,1,90,8|0,0:0|0:0,0:0:0:0:
256,192,36504,6,0,B|280:236|256:280|256:280|224:328|256:372,3,180,2|8|2|8,0:0|0:0|0:0|0:0,0:0:0:0:
92,40,38666,5,4,3:0:0:0:
177,79,38937,1,0,0:0:0:0:
177,79,39072,1,0,0:0:0:0:
177,79,39207,2,0,P|221:67|255:40,1,90,8|0,0:0|0:0,0:0:0:0:
92,129,39747,2,0,P|60:185|100:285,1,180,4|8,3:0|0:0,0:0:0:0:
156,356,40558,1,4,3:0:0:0:
204,280,40828,6,0,B|256:280|288:256|288:256|328:284|388:284,1,180,4|8,3:0|0:0,0:0:0:0:
448,336,41639,1,4,3:0:0:0:
468,248,41910,2,0,P|469:170|381:79,1,180,4|8,3:0|0:0,0:0:0:0:
324,60,42720,5,0,0:0:0:0:
324,60,42855,1,0,0:0:0:0:
324,60,42991,2,0,P|252:108|156:88,1,180,4|8,0:0|0:0,0:0:0:0:
84,52,43801,1,4,3:0:0:0:
52,136,44072,2,0,P|32:196|80:304,1,180,4|8,3:0|0:0,0:0:0:0:
132,368,44882,1,0,0:0:0:0:
192,192,45153,6,0,P|271:159|363:201,1,180,4|8,0:0|0:0,0:0:0:0:
404,268,45964,1,0,0:0:0:0:
448,192,46234,1,0,0:0:0:0:
448,192,46369,1,0,1:0:0:0:
448,192,46504,1,0,0:0:0:0:
404,268,46774,2,0,L|448:308,2,45,0|0|0,1:0|0:0|0:0,0:0:0:0:
252,148,47315,1,4,0:0:0:0:
256,52,47585,5,0,0:0:0:0:
256,52,47720,1,0,0:0:0:0:
256,52,47855,1,2,0:0:0:0:
160,104,48126,5,0,0:0:0:0:
160,104,48261,1,0,0:0:0:0:
160,104,48396,1,2,0:0:0:0:
204,204,48666,5,0,0:0:0:0:
204,204,48801,1,0,0:0:0:0:
204,204,48937,2,0,P|248:224|292:212,1,90,2|2,0:0|0:0,0:0:0:0:
100,192,49477,6,0,P|100:268|176:336,3,180,2|2|2|2,0:0|0:0|0:0|0:0,0:0:0:0:
472,16,51639,5,4,0:0:0:0:
408,80,51910,1,0,0:0:0:0:
392,96,52045,1,0,0:0:0:0:
376,112,52180,1,2,0:0:0:0:
412,192,52450,1,0,0:0:0:0:
428,180,52585,1,0,0:0:0:0:
448,168,52720,1,2,0:0:0:0:
436,280,52991,1,0,1:0:0:0:
344,264,53261,5,2,1:2:0:0:
320,264,53396,1,0,1:0:0:0:
296,264,53531,1,0,1:0:0:0:
272,264,53666,1,0,1:0:0:0:
248,264,53801,6,0,P|192:248|160:132,1,180,4|0,0:0|0:0,0:0:0:0:
256,140,54612,1,0,1:0:0:0:
256,140,54747,1,0,1:0:0:0:
256,140,54882,2,0,L|72:140,1,180,4|8,0:0|3:0,0:0:0:0:
76,140,55693,1,8,3:0:0:0:
256,192,55964,12,8,57585,0:0:0:0:
152,192,58126,6,0,P|132:264|188:348,1,180,4|8,0:0|0:0,0:0:0:0:
256,288,58937,1,0,0:0:0:0:
325,347,59207,2,0,P|377:277|360:192,1,180,2|8,0:0|0:0,0:0:0:0:
372,104,60018,5,0,0:0:0:0:
372,104,60153,1,0,0:0:0:0:
372,104,60288,2,0,P|320:112|280:160,1,90,2|0,0:0|0:0,0:0:0:0:
256,216,60828,1,8,0:0:0:0:
196,148,61099,1,0,0:0:0:0:
256,216,61369,1,0,1:0:0:0:
168,228,61639,1,8,0:0:0:0:
148,216,61774,1,0,0:0:0:0:
128,204,61910,1,8,0:0:0:0:
256,48,62180,5,0,0:0:0:0:
256,48,62315,1,0,0:0:0:0:
256,48,62450,2,0,P|340:32|428:84,1,180,4|8,0:0|0:0,0:0:0:0:
479,148,63261,1,0,0:0:0:0:
412,208,63531,1,0,1:0:0:0:
412,208,63666,1,0,1:0:0:0:
412,208,63801,1,0,0:0:0:0:
368,288,64072,2,0,P|332:252|324:192,1,90,8|0,0:0|0:0,0:0:0:0:
280,136,64612,6,0,P|192:124|124:196,3,180,4|8|4|8,0:0|0:0|0:0|0:0,0:0:0:0:
325,347,66774,6,0,P|377:277|360:192,1,180,4|8,0:0|0:0,0:0:0:0:
256,288,67585,1,0,0:0:0:0:
187,347,67855,2,0,P|134:276|152:191,1,180,2|8,0:0|0:0,0:0:0:0:
80,136,68666,5,0,0:0:0:0:
80,136,68801,1,0,0:0:0:0:
80,136,68937,2,0,L|160:72,1,90,2|0,0:0|0:0,0:0:0:0:
256,120,69477,2,0,L|176:184,1,90,8|0,0:0|0:0,0:0:0:0:
320,48,70018,1,0,1:0:0:0:
320,48,70153,1,0,1:0:0:0:
320,48,70288,1,0,0:0:0:0:
372,120,70558,2,0,L|442:176,1,90,8|0,0:0|0:0,0:0:0:0:
452,268,71099,6,0,P|396:328|296:328,1,180,4|8,0:0|0:0,0:0:0:0:
256,252,71910,1,0,0:0:0:0:
256,152,72180,1,0,1:0:0:0:
236,162,72315,1,0,0:0:0:0:
216,172,72450,1,0,0:0:0:0:
320,96,72720,2,0,P|339:140|319:200,1,90,8|0,0:0|0:0,0:0:0:0:
256,252,73261,6,0,P|168:244|136:148,1,180,4|8,0:0|0:0,0:0:0:0:
80,96,74072,1,0,1:0:0:0:
80,96,74207,1,0,1:0:0:0:
80,96,74342,1,4,0:0:0:0:
148,36,74612,1,0,1:0:0:0:
224,96,74882,1,8,0:0:0:0:
224,96,75018,1,0,0:0:0:0:
224,96,75153,1,0,1:0:0:0:
224,96,75288,1,0,0:0:0:0:
224,96,75423,6,0,P|308:72|396:104,1,180,4|2,0:0|0:0,0:0:0:0:
484,120,76234,1,0,0:0:0:0:
432,196,76504,2,0,P|404:268|464:356,1,180,2|2,0:0|0:0,0:0:0:0:
256,4,77585,6,0,B|272:52|248:92|248:92|224:144|256:192,3,180,2|2|2|2,0:0|0:0|0:0|0:0,0:0:0:0:
184,32,79477,5,0,0:0:0:0:
184,32,79612,1,0,0:0:0:0:
184,32,79747,2,0,P|144:104|40:120,1,180,2|2,0:0|0:0,0:0:0:0:
0,192,80558,1,0,0:0:0:0:
57,259,80828,2,0,P|143:276|188:352,1,180,2|2,0:0|0:0,0:0:0:0:
256,192,81910,1,2,0:0:0:0:
256,192,82045,12,2,84072,0:0:0:0:
256,192,84207,12,2,86234,0:0:0:0:
