osu file format v12

[General]
AudioFilename: Nisekoi ED 4.mp3
AudioLeadIn: 0
PreviewTime: 58120
Countdown: 0
SampleSet: Soft
StackLeniency: 0.7
Mode: 0
LetterboxInBreaks: 0
WidescreenStoryboard: 0

[Editor]
DistanceSpacing: 0.9
BeatDivisor: 16
GridSize: 4
TimelineZoom: 3.999998

[Metadata]
Title:Hanagonomi (TV Size)
TitleUnicode:はなごのみ (TV Size)
Artist:Asumi Kana
ArtistUnicode:阿澄佳奈
Creator:Flask
Version:Insane
Source:Nisekoi
Tags:ニセコイ shaft false fake love ending ed4 tachibana marika hana gonomi
BeatmapID:420899
BeatmapSetID:174300

[Difficulty]
HPDrainRate:6
CircleSize:4
OverallDifficulty:6
ApproachRate:7
SliderMultiplier:1.8
SliderTickRate:1

[Events]
//Background and Video events
0,0,"BG.jpg",0,0
Video,1637,"Video.avi"
//Break Periods
//Storyboard Layer 0 (Background)
//Storyboard Layer 1 (Fail)
//Storyboard Layer 2 (Pass)
//Storyboard Layer 3 (Foreground)
//Storyboard Sound Samples
//Background Colour Transformations
3,100,163,162,255

[TimingPoints]
1904,540.540540540541,4,2,0,50,1,0
2309,-133.333333333333,4,2,0,30,0,0
2849,-133.333333333333,4,2,0,50,0,0
3390,-133.333333333333,4,2,0,30,0,0
3931,-133.333333333333,4,2,0,50,0,0
4471,-133.333333333333,4,2,0,30,0,0
5012,-133.333333333333,4,2,0,50,0,0
6633,-133.333333333333,4,2,0,30,0,0
7174,-133.333333333333,4,2,0,50,0,0
7714,-133.333333333333,4,2,0,30,0,0
8255,-133.333333333333,4,2,1,50,0,0
9066,-133.333333333333,4,2,2,30,0,0
9336,-133.333333333333,4,2,0,50,0,0
9606,-133.333333333333,4,2,2,50,0,0
10012,-133.333333333333,4,2,1,50,0,0
10147,-133.333333333333,4,2,2,50,0,0
10552,-100,4,2,1,50,0,0
17039,-200,4,2,1,50,0,0
21363,-125,4,2,1,40,0,0
23931,-125,4,2,1,30,0,0
24201,-125,4,2,1,40,0,0
25012,-125,4,2,1,20,0,0
25687,-125,4,2,1,40,0,0
28255,-125,4,2,1,20,0,0
28525,-125,4,2,1,40,0,0
29201,-125,4,2,1,20,0,0
29336,-125,4,2,1,40,0,0
29471,-125,4,2,1,20,0,0
30012,-125,4,2,1,40,0,0
33390,-125,4,2,1,20,0,0
34336,-125,4,2,1,40,0,0
38255,-125,4,2,2,40,0,0
38525,-100,4,2,1,50,0,0
46093,-100,4,2,1,30,0,0
46904,-100,4,2,2,50,0,0
47309,-100,4,2,1,50,0,0
53390,-100,4,2,1,30,0,0
53795,-200,4,2,1,50,0,0
58120,-100,4,2,1,65,0,1
75147,-100,4,2,1,30,0,1
75417,-133.333333333333,4,2,1,40,0,0
75552,-133.333333333333,4,2,1,30,0,0
76363,-133.333333333333,4,2,1,40,0,0
76633,-133.333333333333,4,2,1,30,0,0
77444,-133.333333333333,4,2,1,40,0,0
77714,-133.333333333333,4,2,1,30,0,0
79606,-133.333333333333,4,2,1,40,0,0
79876,-133.333333333333,4,2,1,30,0,0
80687,-133.333333333333,4,2,1,40,0,0
80958,-133.333333333333,4,2,1,30,0,0
81768,-133.333333333333,4,2,1,40,0,0

[Colours]
Combo1 : 128,255,255
Combo2 : 255,157,111
Combo3 : 255,255,77
Combo4 : 128,255,128

[HitObjects]
88,121,1904,5,2,0:0:0:0:
105,38,2444,1,2,0:0:0:0:
189,30,2985,1,2,0:0:0:0:
223,106,3525,1,2,0:0:0:0:
160,162,4066,5,2,0:0:0:0:
223,106,4606,1,2,0:0:0:0:
295,147,5147,1,2,0:0:0:0:
278,230,5687,1,2,0:0:0:0:
194,238,6228,5,2,0:0:0:0:
279,230,6768,1,2,0:0:0:0:
312,301,7309,1,2,0:0:0:0:
252,361,7849,1,2,0:0:0:0:
177,319,8390,6,0,P|110:312|40:319,1,135.000005149842,2|0,0:0|0:0,0:0:0:0:
96,122,9201,1,0,1:0:0:0:
96,122,9336,1,2,0:0:0:0:
96,122,9471,2,0,L|100:235,1,101.250003862381,2|2,0:0|0:0,0:0:0:0:
115,210,10012,1,8,0:0:0:0:
132,199,10147,1,2,0:0:0:0:
149,188,10282,1,2,0:0:0:0:
257,38,10552,6,0,P|303:42|366:38,1,90,4|0,0:0|0:0,0:0:0:0:
445,29,11093,1,8,0:0:0:0:
366,141,11363,1,0,0:0:0:0:
193,125,11633,1,2,0:0:0:0:
193,125,11768,2,0,P|150:113|100:115,1,90,4|0,0:3|0:0,0:0:0:0:
32,138,12174,2,0,L|24:35,1,90,8|0,0:0|0:0,0:0:0:0:
108,237,12714,6,0,P|112:282|101:331,1,90,2|0,0:0|0:0,0:0:0:0:
127,138,13255,1,8,0:0:0:0:
17,271,13525,1,0,0:0:0:0:
194,348,13795,1,2,0:0:0:0:
194,348,13931,2,0,L|292:353,1,90,4|0,0:3|0:0,0:0:0:0:
365,359,14336,2,0,P|407:355|448:328,1,90,8|0,0:0|0:0,0:0:0:0:
358,166,14876,5,2,0:0:0:0:
317,256,15147,1,0,0:0:0:0:
457,182,15417,2,0,P|455:139|450:77,1,90,8|0,0:0|0:0,0:0:0:0:
222,229,15958,1,4,0:3:0:0:
222,229,16093,2,0,P|219:184|228:131,1,90,4|0,0:3|0:0,0:0:0:0:
292,94,16498,2,0,P|294:52|286:1,1,90,8|0,0:0|0:0,0:0:0:0:
89,58,17039,6,0,B|84:84|89:114|89:114|29:131|26:188|26:188|65:233|49:310,1,270,4|0,0:0|1:0,0:0:0:0:
64,315,18795,1,0,1:0:0:0:
81,332,18931,1,0,1:0:0:0:
100,347,19066,1,0,0:0:0:0:
125,357,19201,6,0,B|164:367|205:345|205:345|230:362|260:361,1,135,4|0,0:0|0:0,0:0:0:0:
254,277,20147,2,2,L|272:284,2,11.25,0|0|2,0:0|0:0|0:0,0:0:0:0:
447,98,21363,6,0,P|414:42|336:36,1,144,2|0,0:0|0:0,0:0:0:0:
264,76,22174,1,2,0:0:0:0:
264,76,22309,1,0,0:0:0:0:
264,76,22444,2,0,L|186:70,1,72
54,147,22985,1,2,0:0:0:0:
137,140,23255,1,0,0:0:0:0:
91,4,23525,6,0,P|87:42|88:81,1,72,2|0,0:0|0:0,0:0:0:0:
207,189,24066,1,0,1:0:0:0:
86,290,24336,2,0,L|128:292,1,36,2|0,0:0|0:0,0:0:0:0:
137,314,24606,2,0,L|215:318,1,72,2|0,0:0|0:0,0:0:0:0:
399,353,25147,1,0,1:0:0:0:
403,328,25282,1,0,1:0:0:0:
403,302,25417,1,0,1:0:0:0:
402,276,25552,1,0,1:0:0:0:
396,251,25687,6,0,P|437:253|485:251,1,72,2|0,0:0|0:0,0:0:0:0:
317,307,26228,1,0,0:0:0:0:
399,353,26498,1,2,0:0:0:0:
438,171,26768,2,0,P|418:125|354:108,1,108
341,111,27309,2,0,P|303:113|268:112,1,72,2|0,0:0|0:0,0:0:0:0:
397,38,27849,5,2,0:0:0:0:
302,193,28120,1,0,0:0:0:0:
225,29,28390,1,0,1:0:0:0:
383,138,28660,1,0,0:0:0:0:
383,138,28795,1,0,0:0:0:0:
383,138,28931,6,0,L|437:142,1,36,2|0,0:0|0:0,0:0:0:0:
302,193,29201,2,0,L|354:208,1,36,0|0,1:0|0:0,0:0:0:0:
227,251,29471,1,0,1:0:0:0:
250,260,29606,1,0,1:0:0:0:
272,270,29741,1,0,1:0:0:0:
294,280,29876,1,0,1:0:0:0:
316,290,30012,6,0,P|328:328|333:368,1,72,2|0,0:0|0:0,0:0:0:0:
144,256,30552,2,0,P|145:218|156:183,1,72,0|2,0:0|0:0,0:0:0:0:
250,260,31093,1,0,0:0:0:0:
177,368,31363,1,0,0:0:0:0:
71,316,31633,2,0,L|-5:314,1,72,2|0,0:0|0:0,0:0:0:0:
29,123,32174,6,0,P|37:164|39:205,1,72,2|0,0:0|0:0,0:0:0:0:
145,110,32714,2,0,P|143:76|146:38,1,72,2|0,0:0|0:0,0:0:0:0:
166,53,33120,1,0,0:0:0:0:
166,53,33255,2,0,L|243:51,1,72,2|0,0:0|1:0,0:0:0:0:
368,162,33795,1,0,1:0:0:0:
348,145,33931,1,0,1:0:0:0:
334,125,34066,1,0,1:0:0:0:
323,107,34201,1,0,1:0:0:0:
317,82,34336,6,0,L|309:164,1,72,2|0,0:0|0:0,0:0:0:0:
422,49,34876,1,2,0:0:0:0:
454,136,35147,1,0,0:0:0:0:
257,178,35417,2,0,L|183:171,1,72,2|0,0:0|0:0,0:0:0:0:
281,312,35958,2,0,B|345:302|345:302|365:316|390:320,1,108,2|0,0:0|0:0,0:0:0:0:
409,323,36498,6,0,P|441:311|463:273,1,72,2|0,0:0|0:0,0:0:0:0:
336,119,37039,2,0,L|328:192,1,72,2|0,0:0|0:0,0:0:0:0:
305,201,37444,1,0,0:0:0:0:
283,213,37579,1,2,0:0:0:0:
189,89,37849,1,2,0:0:0:0:
385,116,38120,1,2,0:0:0:0:
309,307,38390,1,2,0:0:0:0:
157,194,38660,6,0,P|98:173|32:213,1,135,4|0,0:0|0:0,0:0:0:0:
11,219,39133,2,0,L|-13:217,1,22.5,0|2,0:0|0:0,0:0:0:0:
85,90,39471,1,4,0:3:0:0:
104,259,39741,1,4,0:3:0:0:
236,160,40012,1,0,0:0:0:0:
16,204,40282,2,0,L|4:300,1,90,0|0,1:0|0:0,0:0:0:0:
80,352,40687,5,0,0:0:0:0:
80,352,40822,2,0,P|132:352|176:328,1,90,4|0,0:3|0:0,0:0:0:0:
200,256,41228,2,0,L|208:316,1,45
348,304,41633,1,2,0:0:0:0:
352,320,41768,1,0,0:0:0:0:
356,336,41904,1,2,0:0:0:0:
436,182,42174,2,0,L|444:236,1,45,2|0,0:0|0:0,0:0:0:0:
470,246,42444,2,0,P|482:294|482:342,1,90,0|0,1:0|0:0,0:0:0:0:
348,132,42985,6,0,P|344:80|360:0,1,135,4|0,0:0|0:0,0:0:0:0:
384,16,43458,2,0,L|412:16,1,22.5,2|0,0:0|0:0,0:0:0:0:
264,20,43795,1,4,0:3:0:0:
144,178,44066,1,4,0:3:0:0:
156,56,44336,1,0,0:0:0:0:
254,121,44606,1,0,1:0:0:0:
59,91,44876,1,0,0:0:0:0:
66,260,45147,6,0,P|66:305|75:356,1,90,4|0,0:0|0:0,0:0:0:0:
215,269,45687,1,0,0:0:0:0:
54,176,45958,1,4,0:3:0:0:
192,83,46228,1,4,1:2:0:0:
209,78,46363,1,0,1:0:0:0:
226,73,46498,1,0,1:0:0:0:
243,72,46633,1,0,1:0:0:0:
260,73,46768,2,0,P|305:77|354:73,1,90,2|2,0:0|0:0,0:0:0:0:
410,35,47174,1,0,0:0:0:0:
410,35,47309,5,4,0:0:0:0:
442,177,47579,2,0,L|503:193,2,45,2|0|0,0:0|0:0|1:0,0:0:0:0:
327,290,48120,2,0,L|316:333,2,45,2|0|0,0:0|0:0|1:0,0:0:0:0:
286,137,48660,1,2,0:0:0:0:
286,137,48795,1,0,0:0:0:0:
286,137,48931,1,0,1:0:0:0:
359,202,49201,1,0,0:0:0:0:
377,112,49471,5,0,1:0:0:0:
424,267,49741,1,0,0:0:0:0:
265,237,50012,2,0,P|218:235|171:234,1,90,0|0,1:0|0:0,0:0:0:0:
92,315,50552,1,0,1:0:0:0:
223,353,50822,1,0,0:0:0:0:
348,320,51093,2,0,P|397:318|445:322,1,90,0|0,1:0|0:0,0:0:0:0:
483,259,51498,5,0,0:0:0:0:
483,259,51633,1,4,0:0:0:0:
450,54,51904,2,0,L|449:106,1,45,2|0,0:0|0:0,0:0:0:0:
448,176,52174,1,0,1:0:0:0:
256,192,52444,2,0,L|256:144,1,45,2|0,0:0|0:0,0:0:0:0:
256,72,52714,1,0,1:0:0:0:
62,54,52985,2,0,L|63:106,1,45
49,174,53255,1,0,1:0:0:0:
48,191,53390,1,0,1:0:0:0:
46,208,53525,1,0,1:0:0:0:
44,225,53660,1,0,1:0:0:0:
38,298,53795,6,0,B|73:342|109:338|109:338|128:315|155:311,1,135,4|0,0:0|1:0,0:0:0:0:
232,315,54741,1,0,1:0:0:0:
232,315,54876,2,0,B|270:320|298:283|298:283|330:326|314:382,1,180,4|2,0:0|0:0,0:0:0:0:
256,44,57579,1,8,0:0:0:0:
256,44,58120,6,0,L|357:51,1,90,4|0,0:0|0:0,0:0:0:0:
413,87,58525,1,0,0:0:0:0:
413,87,58660,2,0,P|421:133|415:186,1,90,8|0,1:0|0:0,0:0:0:0:
256,253,59201,1,0,1:0:0:0:
256,253,59336,2,0,B|210:248|164:253,1,90,0|0,1:0|0:0,0:0:0:0:
102,296,59741,1,8,1:0:0:0:
219,357,60012,1,2,0:0:0:0:
339,186,60282,6,0,L|356:292,1,90,0|2,1:0|0:0,0:0:0:0:
465,43,60822,2,0,L|458:133,1,90,8|2,0:0|0:0,0:0:0:0:
449,251,61363,1,0,1:0:0:0:
449,251,61498,1,0,0:0:0:0:
449,251,61633,1,2,0:0:0:0:
357,87,61904,2,0,P|307:72|252:77,1,90,8|2,0:0|0:0,0:0:0:0:
105,158,62444,5,0,1:0:0:0:
101,247,62714,1,2,0:0:0:0:
192,112,62985,1,8,1:0:0:0:
116,64,63255,1,2,0:0:0:0:
190,207,63525,1,0,1:0:0:0:
190,207,63660,1,0,1:0:0:0:
190,207,63795,1,2,0:0:0:0:
22,197,64066,1,8,1:0:0:0:
94,332,64336,1,2,0:0:0:0:
103,124,64606,6,0,P|68:102|14:91,1,90,0|2,1:0|0:0,0:0:0:0:
307,315,65147,2,0,L|201:320,1,90,8|2,1:0|0:0,0:0:0:0:
377,135,65687,1,0,1:0:0:0:
377,112,65822,1,0,0:0:0:0:
373,89,65958,1,2,0:0:0:0:
285,202,66228,2,0,L|336:216,1,45,8|4,1:0|0:3,0:0:0:0:
417,218,66498,2,0,L|465:200,1,45,4|4,0:3|0:3,0:0:0:0:
492,126,66768,5,4,0:0:0:0:
468,329,67039,1,0,0:0:0:0:
468,329,67174,1,0,0:0:0:0:
468,329,67309,2,0,P|417:333|374:345,1,90,8|0,1:0|0:0,0:0:0:0:
124,353,67849,2,0,P|186:369|270:369,1,135,0|0,1:0|0:0,0:0:0:0:
237,383,68390,2,0,L|230:292,1,90,8|2,1:0|0:0,0:0:0:0:
192,110,68931,5,0,1:0:0:0:
161,199,69201,1,2,0:0:0:0:
352,184,69471,2,0,P|313:177|247:181,1,90,8|2,1:0|0:0,0:0:0:0:
59,120,70012,1,0,1:0:0:0:
81,119,70147,1,0,1:0:0:0:
103,119,70282,2,0,P|147:111|208:112,1,90,2|8,0:0|1:0,0:0:0:0:
225,281,70822,5,2,0:0:0:0:
225,281,70958,1,0,0:0:0:0:
225,281,71093,1,0,1:0:0:0:
379,273,71363,1,2,0:0:0:0:
292,148,71633,1,8,1:0:0:0:
310,352,71904,1,2,0:0:0:0:
481,339,72174,1,0,1:0:0:0:
481,339,72309,2,0,P|493:294|491:248,1,90,0|0,1:0|0:0,0:0:0:0:
442,184,72714,2,0,P|396:180|349:182,1,90,8|0,1:0|0:0,0:0:0:0:
268,234,73255,5,4,0:0:0:0:
385,282,73525,1,0,0:0:0:0:
391,78,73795,1,8,1:0:0:0:
194,147,74066,1,0,1:0:0:0:
194,147,74201,1,0,1:0:0:0:
194,147,74336,2,0,P|167:146|141:145,1,45,4|0,0:0|1:0,0:0:0:0:
128,155,74606,2,0,P|88:157|32:152,1,90,0|8,0:0|1:0,0:0:0:0:
245,243,75147,5,0,1:0:0:0:
245,243,75282,1,0,1:0:0:0:
245,243,75417,2,0,P|284:195|283:114,1,135.000005149842,2|2,0:0|0:0,0:0:0:0:
194,147,76228,1,0,0:0:0:0:
139,240,76498,2,0,P|155:303|215:349,1,135.000005149842,2|2,0:0|0:0,0:0:0:0:
301,341,77309,1,0,0:0:0:0:
390,331,77579,6,0,B|430:327|472:340|472:340|495:289,1,135.000005149842,2|2,0:0|0:0,0:0:0:0:
426,153,78390,2,0,L|432:240,1,67.5000025749208,0|2,0:0|0:0,0:0:0:0:
360,87,78931,1,0,0:0:0:0:
489,86,79201,1,2,0:0:0:0:
338,178,79471,1,0,0:0:0:0:
192,110,79741,6,0,P|133:104|48:114,1,135.000005149842,2|2,0:0|0:0,0:0:0:0:
9,192,80552,1,0,0:0:0:0:
105,317,80822,2,0,P|119:252|98:184,1,135.000005149842,2|2,0:0|0:0,0:0:0:0:
9,192,81633,1,0,0:0:0:0:
203,226,81904,1,2,0:0:0:0:
256,192,82039,12,2,84066,0:0:0:0:
