osu file format v13

[General]
AudioFilename: moemoemoe.mp3
AudioLeadIn: 1500
PreviewTime: 57991
Countdown: 0
SampleSet: Soft
StackLeniency: 0.3
Mode: 0
LetterboxInBreaks: 0
WidescreenStoryboard: 1

[Editor]
Bookmarks: 11649,86244
DistanceSpacing: 1.6
BeatDivisor: 6
GridSize: 8
TimelineZoom: 3.599999

[Metadata]
Title:Hanagonomi
TitleUnicode:はなごのみ
Artist:Asumi Kana
ArtistUnicode:阿澄佳奈
Creator:Kodora
Version:Insane
Source:ニセコイ
Tags:nisekoi false fake love ending hana gonomi Irie Miyuki No_Gu Yuzu- Yuzu
BeatmapID:570872
BeatmapSetID:183498

[Difficulty]
HPDrainRate:6
CircleSize:4.5
OverallDifficulty:7
ApproachRate:7.7
SliderMultiplier:1.7
SliderTickRate:1

[Events]
//Background and Video events
Video,1823,"Hanagonomi TVsize ver.flv"
0,0,"233.jpg",0,0
//Break Periods
//Storyboard Layer 0 (Background)
//Storyboard Layer 1 (Fail)
//Storyboard Layer 2 (Pass)
//Storyboard Layer 3 (Foreground)
//Storyboard Sound Samples

[TimingPoints]
1910,540.540540540541,4,2,1,60,1,0
1910,-153.846153846153,4,2,1,60,0,0
9139,-153.846153846153,4,2,1,60,0,0
9410,-153.846153846153,4,1,1,50,0,0
9545,-153.846153846153,4,2,1,60,0,0
9950,-153.846153846153,4,2,2,60,0,0
10085,-153.846153846153,4,3,2,60,0,0
10355,-153.846153846153,4,2,2,60,0,0
10558,-117.647058823529,4,2,2,60,0,0
11572,-117.647058823529,4,1,2,50,0,0
11842,-117.647058823529,4,2,2,60,0,0
12653,-117.647058823529,4,1,2,50,0,0
12788,-117.647058823529,4,2,2,60,0,0
13734,-117.647058823529,4,1,2,50,0,0
14004,-117.647058823529,4,2,2,60,0,0
14815,-117.647058823529,4,1,2,50,0,0
14950,-117.647058823529,4,2,2,60,0,0
15896,-117.647058823529,4,1,2,50,0,0
16166,-117.647058823529,4,2,2,60,0,0
17045,-200,4,2,1,60,0,0
17495,-200,4,2,1,5,0,0
17675,-200,4,2,1,60,0,0
18126,-117.647058823529,4,2,1,60,0,0
18734,-117.647058823529,4,3,2,60,0,0
19004,-117.647058823529,4,3,2,60,0,0
19207,-200,4,2,1,60,0,0
19657,-200,4,2,1,5,0,0
19837,-200,4,2,1,60,0,0
20828,-117.647058823529,4,2,1,60,0,0
38328,-117.647058823529,4,1,2,50,0,0
38464,-117.647058823529,4,2,1,60,0,0
39004,-117.647058823529,4,1,2,40,0,0
39207,-133.333333333333,4,1,2,50,0,0
39415,-133.333333333333,4,1,2,50,0,0
39815,-133.333333333333,4,2,2,60,0,0
40220,-133.333333333333,4,2,1,60,0,0
40355,-133.333333333333,4,2,2,60,0,0
40761,-133.333333333333,4,1,2,50,0,0
42112,-133.333333333333,4,2,1,60,0,0
43328,-133.333333333333,4,1,2,50,0,0
44139,-133.333333333333,4,2,1,60,0,0
45355,-133.333333333333,4,1,1,40,0,0
45828,-133.333333333333,4,2,1,60,0,0
47585,-117.647058823529,4,2,1,60,0,0
47788,-117.647058823529,4,1,2,50,0,0
47923,-117.647058823529,4,2,1,60,0,0
48328,-117.647058823529,4,1,2,50,0,0
48464,-117.647058823529,4,2,1,60,0,0
48869,-117.647058823529,4,1,1,50,0,0
49004,-117.647058823529,4,2,1,60,0,0
49410,-117.647058823529,4,1,1,50,0,0
49545,-117.647058823529,4,2,1,60,0,0
49950,-117.647058823529,4,1,1,50,0,0
50085,-117.647058823529,4,2,1,60,0,0
50491,-117.647058823529,4,1,1,50,0,0
50626,-117.647058823529,4,2,1,60,0,0
50761,-117.647058823529,4,1,1,50,0,0
51031,-117.647058823529,4,2,1,60,0,0
51166,-117.647058823529,4,1,1,50,0,0
51301,-117.647058823529,4,2,1,60,0,0
52112,-117.647058823529,4,1,1,50,0,0
52247,-117.647058823529,4,2,1,60,0,0
52653,-117.647058823529,4,1,1,50,0,0
52788,-117.647058823529,4,2,1,60,0,0
53193,-117.647058823529,4,3,2,60,0,0
53734,-117.647058823529,4,2,1,60,0,0
56437,-117.647058823529,4,2,1,50,0,0
56977,-117.647058823529,4,2,1,40,0,0
57518,-117.647058823529,4,2,2,60,0,0
58126,-100,4,2,2,60,0,0
59139,-100,4,1,2,50,0,0
59274,-100,4,2,2,60,0,0
60220,-100,4,1,2,50,0,0
60355,-100,4,2,2,60,0,0
61301,-100,4,1,2,50,0,0
61437,-100,4,2,2,60,0,0
62382,-100,4,1,2,50,0,0
62518,-100,4,2,2,60,0,0
63458,-100,4,1,2,50,0,0
63869,-100,4,2,2,60,0,0
64545,-100,4,1,2,50,0,0
64680,-100,4,2,2,60,0,0
65355,-100,4,1,2,50,0,0
65761,-100,4,2,2,60,0,0
65896,-100,4,1,2,50,0,0
66031,-100,4,2,2,60,0,0
66166,-100,4,2,2,60,0,0
66437,-100,4,1,2,50,0,0
66707,-100,4,2,2,60,0,0
66842,-100,4,2,2,60,0,0
67788,-100,4,1,2,50,0,0
67923,-100,4,2,2,60,0,0
68869,-100,4,1,2,50,0,0
69004,-100,4,2,2,60,0,0
69950,-100,4,1,2,50,0,0
70491,-100,4,2,2,60,0,0
71031,-100,4,1,2,50,0,0
71166,-100,4,2,2,60,0,0
72112,-100,4,1,2,50,0,0
72247,-100,4,2,2,60,0,0
74004,-100,4,1,2,50,0,0
74274,-100,4,2,2,60,0,0
74815,-100,4,1,2,50,0,0
75423,-100,4,2,1,60,0,0
76504,-117.647058823529,4,2,1,60,0,0
77585,-100,4,2,1,60,0,0
79747,-117.647058823529,4,2,1,60,0,0
81910,-117.647058823529,4,2,1,30,0,0
84072,-117.647058823529,4,2,32,30,0,0

[Colours]
Combo1 : 154,139,182
Combo2 : 219,60,107
Combo3 : 238,101,98
Combo4 : 249,101,30
Combo5 : 255,222,36
Combo6 : 242,121,172

[HitObjects]
82,264,1910,6,0,P|98:216|66:144,1,110.499994941712,2|0,0:0|0:0,0:0:0:0:
176,68,2991,2,0,P|160:116|192:188,1,110.499994941712,2|0,0:0|0:0,0:0:0:0:
271,245,4072,5,2,0:0:0:0:
376,211,4612,1,0,0:0:0:0:
399,103,5153,1,2,0:0:0:0:
302,48,5693,1,0,0:0:0:0:
301,147,5964,2,0,L|302:163,3,13.812499367714
295,172,6234,6,0,B|239:184|183:180,1,110.499994941712,2|0,0:0|0:0,0:0:0:0:
93,284,7315,2,0,B|149:272|205:276,1,110.499994941712,2|0,0:0|0:0,0:0:0:0:
310,301,8396,1,2,0:0:0:0:
317,286,9207,5,8,0:0:0:0:
324,271,9342,1,2,0:0:0:0:
331,256,9477,1,0,1:0:0:0:
328,48,9882,5,8,0:0:0:0:
332,64,10018,1,8,0:0:0:0:
335,80,10153,1,8,0:0:0:0:
339,96,10288,1,8,0:0:0:0:
342,112,10423,1,0,0:0:0:0:
345,130,10558,6,0,P|298:152|220:160,1,108.375002067089,4|0,0:0|0:0,0:0:0:0:
200,149,11099,2,0,P|189:108|194:64,1,72.2500013780594,8|0,0:0|0:0,0:0:0:0:
131,211,11639,1,0,0:0:0:0:
131,211,11774,2,0,P|141:253|129:306,1,72.2500013780594
107,312,12180,2,0,L|12:318,1,72.2500013780594,8|0,0:0|0:0,0:0:0:0:
217,342,12720,6,0,P|273:352|340:334,1,108.375002067089,0|0,1:0|0:0,0:0:0:0:
334,300,13261,2,0,P|328:262|334:218,1,72.2500013780594,8|0,0:0|0:0,0:0:0:0:
390,75,13801,1,0,0:0:0:0:
390,75,13937,2,0,P|396:113|390:157,1,72.2500013780594
351,161,14342,2,0,L|252:159,1,72.2500013780594,8|0,0:0|0:0,0:0:0:0:
132,43,14882,6,0,L|119:196,1,144.500002756119,0|8,1:0|0:0,0:0:0:0:
185,339,15964,1,0,0:0:0:0:
185,339,16099,2,0,P|197:299|184:240,1,72.2500013780594
229,242,16504,2,0,L|308:229,1,72.2500013780594,8|0,0:0|0:0,0:0:0:0:
407,194,17045,6,0,P|432:139|402:64,1,127.5,4|2,0:0|0:0,0:0:0:0:
318,133,18126,1,0,0:0:0:0:
312,154,18261,1,8,0:0:0:0:
305,174,18396,1,0,0:0:0:0:
298,194,18531,1,0,0:0:0:0:
282,230,18666,5,8,0:0:0:0:
288,251,18801,1,8,0:0:0:0:
295,271,18936,1,8,0:0:0:0:
302,291,19072,1,8,0:0:0:0:
309,308,19207,6,0,B|341:308|361:327|361:327|377:327|390:312|390:312|410:309|432:320|432:320|434:345|421:355|406:352,1,170,4|2,0:0|0:0,0:0:0:0:
404,79,21369,6,0,L|410:7,1,72.2500013780594,2|0,0:0|0:0,0:0:0:0:
342,139,21910,2,0,L|335:210,1,72.2500013780594,0|0,0:0|0:0,0:0:0:0:
364,295,22450,1,2,0:0:0:0:
318,368,22720,1,0,0:0:0:0:
293,286,22991,6,0,P|329:284|364:295,1,72.2500013780594,0|0,0:0|0:0,0:0:0:0:
213,318,23531,2,0,L|202:163,1,144.500002756119,2|0,0:0|0:0,0:0:0:0:
272,122,24342,1,0,0:0:0:0:
272,122,24477,1,0,0:0:0:0:
272,122,24612,1,2,0:0:0:0:
190,91,24882,1,0,0:0:0:0:
123,146,25153,2,0,P|84:149|38:128,1,72.2500013780594,2|0,0:0|0:0,0:0:0:0:
190,91,25693,6,0,L|206:242,1,144.500002756119,2|0,0:0|0:0,0:0:0:0:
220,320,26504,1,0,0:0:0:0:
290,269,26774,2,0,P|295:233|280:184,1,72.2500013780594,2|0,0:0|0:0,0:0:0:0:
371,125,27315,2,0,P|366:160|374:196,1,72.2500013780594,0|0,0:0|0:0,0:0:0:0:
452,160,27855,6,0,L|297:170,1,144.500002756119,2|0,0:0|0:0,0:0:0:0:
221,178,28666,1,0,0:0:0:0:
221,178,28801,1,0,0:0:0:0:
221,178,28937,1,2,0:0:0:0:
188,254,29207,1,0,0:0:0:0:
175,107,29477,1,2,0:0:0:0:
307,168,29747,1,0,0:0:0:0:
382,125,30018,6,0,P|394:90|389:29,1,72.2500013780594,2|0,0:0|0:0,0:0:0:0:
307,168,30558,2,0,P|295:203|300:264,1,72.2500013780594
359,295,31099,2,0,P|292:272|213:309,1,144.500002756119,2|0,0:0|0:0,0:0:0:0:
158,352,31910,1,0,0:0:0:0:
106,282,32180,2,0,L|94:121,2,144.500002756119,2|0|2,0:0|0:0|0:0,0:0:0:0:
191,270,33531,1,0,0:0:0:0:
228,191,33801,5,2,0:0:0:0:
235,170,33937,1,0,0:0:0:0:
234,148,34072,1,0,0:0:0:0:
227,127,34207,1,0,0:0:0:0:
211,112,34342,6,0,P|246:109|277:92,1,72.2500013780594,2|0,0:0|0:0,0:0:0:0:
136,68,34882,2,0,P|90:74|53:108,1,72.2500013780594
131,222,35423,2,0,P|136:186|126:152,1,72.2500013780594,2|0,0:0|0:0,0:0:0:0:
66,288,35964,2,0,P|111:310|187:290,1,108.375002067089
206,284,36504,6,0,P|244:276|288:288,1,72.2500013780594,2|0,0:0|0:0,0:0:0:0:
348,330,37045,1,0,0:0:0:0:
415,275,37315,1,0,0:0:0:0:
422,254,37450,1,0,0:0:0:0:
429,233,37585,5,2,0:0:0:0:
394,114,37855,1,0,0:0:0:0:
422,254,38126,1,2,0:0:0:0:
413,104,38396,1,0,0:0:0:0:
415,275,38666,5,4,0:0:0:0:
246,353,39072,1,0,0:0:0:0:
246,353,39207,2,0,P|279:360|314:352,1,63.7500024318696
283,275,39747,2,0,P|295:243|292:200,1,63.7500024318696,0|2,0:0|0:0,0:0:0:0:
248,74,40288,2,0,P|236:103|235:135,1,63.7500024318696,8|2,0:0|0:0,0:0:0:0:
333,125,40828,6,0,L|387:45,2,95.6250036478044
295,213,41910,1,0,0:0:0:0:
348,291,42180,2,0,L|364:316,3,21.2500008106232,0|0|0|8,0:0|0:0|0:0|0:0,0:0:0:0:
201,335,42991,5,4,0:0:0:0:
76,194,43396,1,0,0:0:0:0:
76,194,43531,2,0,P|48:210|28:236,1,63.7500024318696,0|0,0:0|0:0,0:0:0:0:
119,135,44072,2,0,P|121:99|114:70,1,63.7500024318696,0|2,0:0|0:0,0:0:0:0:
159,208,44612,2,0,P|187:224|220:228,1,63.7500024318696,8|2,0:0|0:0,0:0:0:0:
329,132,45153,6,0,L|319:220,1,63.7500024318696,4|0,0:0|0:0,0:0:0:0:
319,214,45558,1,0,0:0:0:0:
317,233,45693,1,0,0:0:0:0:
359,340,45964,1,0,0:0:0:0:
317,233,46234,5,4,0:0:0:0:
319,214,46369,1,8,0:0:0:0:
323,195,46504,1,2,0:0:0:0:
282,87,46774,1,8,0:0:0:0:
192,160,47045,2,0,P|172:172|137:175,2,31.8750012159348,2|0|4,0:0|0:0|0:0,0:0:0:0:
178,46,47585,6,0,P|157:35|131:2,2,36.1250006890297,2|0|0,0:0|0:0|0:0,0:0:0:0:
282,88,48126,2,0,P|304:79|346:82,2,36.1250006890297,2|0|0,0:0|0:0|0:0,0:0:0:0:
192,160,48666,1,2,0:0:0:0:
189,181,48801,1,0,0:0:0:0:
185,202,48937,1,0,0:0:0:0:
249,297,49207,1,2,0:0:0:0:
197,139,49477,5,0,0:0:0:0:
253,318,49747,1,2,0:0:0:0:
192,160,50018,1,0,0:0:0:0:
258,339,50288,1,2,0:0:0:0:
197,139,50558,5,0,0:0:0:0:
203,118,50693,1,8,0:0:0:0:
209,97,50828,1,0,0:0:0:0:
370,137,51099,2,0,P|408:133|450:112,1,72.2500013780594,8|2,0:0|0:0,0:0:0:0:
374,33,51639,5,4,0:2:0:0:
255,64,51910,1,2,0:0:0:0:
238,49,52045,1,0,0:0:0:0:
217,40,52180,2,0,P|178:31|123:50,1,72.2500013780594,0|0,0:0|0:0,0:0:0:0:
128,47,52585,1,0,0:0:0:0:
110,59,52720,2,0,L|103:144,1,72.2500013780594,0|2,0:0|0:0,0:0:0:0:
162,233,53126,1,0,0:0:0:0:
162,233,53261,6,0,L|157:188,1,36.1250006890297,8|8,0:0|0:0,0:0:0:0:
97,276,53531,2,0,L|91:311,1,36.1250006890297,8|8,0:0|0:0,0:0:0:0:
153,356,53801,6,0,L|230:350,1,72.2500013780594,4|0,0:0|0:0,0:0:0:0:
283,286,54342,2,0,L|358:301,1,72.2500013780594,0|8,0:0|0:0,0:0:0:0:
374,306,54747,1,8,0:0:0:0:
394,311,54882,2,0,L|398:233,1,72.2500013780594,4|2,0:0|0:0,0:0:0:0:
440,93,55423,2,0,P|456:129|444:175,1,72.2500013780594,8|0,0:0|0:0,0:0:0:0:
317,270,55964,5,2,0:0:0:0:
312,275,56504,5,2,0:0:0:0:
307,281,57045,5,2,0:0:0:0:
302,286,57585,5,8,0:0:0:0:
71,129,58126,6,0,P|140:130|186:90,1,127.5,4|0,1:2|0:0,0:0:0:0:
230,46,58666,2,0,L|320:53,1,85,8|2,0:0|0:0,0:0:0:0:
400,91,59207,1,0,0:0:0:0:
412,104,59342,1,0,0:0:0:0:
423,117,59477,1,0,0:0:0:0:
471,197,59747,1,8,0:0:0:0:
426,279,60018,5,2,0:0:0:0:
301,332,60288,2,0,L|205:325,1,85,0|0,0:2|0:0,0:0:0:0:
87,264,60828,2,0,P|128:259|168:225,1,85,8|2,0:0|0:0,0:0:0:0:
216,156,61369,1,0,0:0:0:0:
221,134,61504,1,0,0:0:0:0:
216,112,61639,1,2,0:0:0:0:
152,43,61910,1,8,0:0:0:0:
72,92,62180,5,2,0:0:0:0:
20,208,62450,2,0,L|29:317,1,85,0|0,0:0|0:0,0:0:0:0:
101,350,62991,1,8,0:0:0:0:
175,293,63261,1,2,0:0:0:0:
196,287,63396,1,0,0:0:0:0:
217,285,63531,2,0,P|238:288|270:302,2,42.5,0|0|0,0:0|0:0|0:0,0:0:0:0:
227,191,64072,6,0,P|273:197|326:232,1,85,8|2,0:0|0:0,0:0:0:0:
440,170,64612,2,0,P|452:114|421:47,1,127.5,0|0,0:2|0:0,0:0:0:0:
407,40,65153,1,8,0:0:0:0:
374,212,65423,1,0,0:0:0:0:
374,212,65558,1,0,0:0:0:0:
374,212,65693,2,0,L|380:258,1,42.5
330,362,65964,2,0,L|324:319,1,42.5
288,253,66234,1,8,0:0:0:0:
199,281,66504,1,0,0:0:0:0:
180,270,66639,1,0,0:0:0:0:
133,249,66774,6,0,L|2:268,1,127.5,4|0,0:0|0:0,0:0:0:0:
0,247,67315,2,0,L|84:235,1,85,8|2,0:0|0:0,0:0:0:0:
175,146,67855,1,0,0:0:0:0:
187,127,67991,1,0,0:0:0:0:
188,105,68126,1,0,0:0:0:0:
140,24,68396,1,8,0:0:0:0:
56,66,68666,5,2,0:0:0:0:
80,200,68937,2,0,L|70:296,1,85,0|2,0:0|0:0,0:0:0:0:
127,359,69477,1,8,0:0:0:0:
240,270,69747,1,2,0:0:0:0:
250,288,69882,1,0,0:0:0:0:
235,304,70018,6,0,L|178:291,1,42.5
293,354,70288,2,0,L|346:331,1,42.5
397,355,70558,1,8,0:0:0:0:
442,226,70828,5,2,0:0:0:0:
455,208,70964,1,0,0:0:0:0:
485,166,71099,2,0,L|478:80,1,85,4|0,0:2|0:0,0:0:0:0:
385,11,71639,2,0,L|375:105,1,85,8|2,0:0|0:0,0:0:0:0:
338,181,72180,1,4,0:2:0:0:
340,202,72315,1,0,0:0:0:0:
343,223,72450,1,0,0:0:0:0:
327,315,72720,1,8,0:0:0:0:
248,365,72991,1,2,0:0:0:0:
156,276,73261,6,0,L|64:312,1,85,4|2,0:0|0:0,0:0:0:0:
9,371,73801,1,0,0:0:0:0:
66,296,74072,1,0,0:0:0:0:
105,281,74207,1,0,0:0:0:0:
145,265,74342,1,4,0:0:0:0:
210,199,74612,1,0,0:0:0:0:
276,132,74882,6,0,L|281:90,1,42.5,0|0,0:0|0:0,0:0:0:0:
346,131,75153,2,0,L|363:171,1,42.5,0|0,0:0|0:0,0:0:0:0:
415,262,75423,6,0,L|411:372,1,85,2|0,0:0|0:0,0:0:0:0:
428,162,75964,2,0,L|424:272,1,85,2|0,0:0|0:0,0:0:0:0:
268,35,76504,2,0,P|339:47|362:133,1,144.500002756119,2|0,0:0|0:0,0:0:0:0:
217,249,77585,6,0,P|246:213|253:171,1,85,2|0,0:0|0:0,0:0:0:0:
135,256,78126,2,0,P|151:299|184:326,1,85,2|0,0:0|0:0,0:0:0:0:
169,189,78666,2,0,P|123:181|83:196,1,85,2|0,0:0|0:0,0:0:0:0:
217,249,79207,2,0,P|246:213|253:171,1,85,2|0,0:0|0:0,0:0:0:0:
343,233,79747,6,0,L|354:68,1,144.500002756119,2|0,0:0|0:0,0:0:0:0:
463,159,80828,2,0,L|453:303,1,144.500002756119,2|0,0:0|0:0,0:0:0:0:
256,192,81910,12,4,84072,0:0:0:0:
