osu file format v9

[General]
AudioFilename: working2op.mp3
AudioLeadIn: 2000
PreviewTime: 55703
Countdown: 0
SampleSet: Normal
StackLeniency: 0.7
Mode: 0
LetterboxInBreaks: 0

[Editor]
DistanceSpacing: 0.8
BeatDivisor: 3
GridSize: 8

[Metadata]
Title:COOLISH WALK (TV Size)
Artist:Asumi Kana & Fujita Saki & Kitamura Eri
Creator:biwako
Version:Insane
Source:WORKING'!!
Tags:Opening Taneshima Popura Inami Mahiru Todoroki Yachiyo Yamada Aoi Hirohashi Ryou WORKING!!

[Difficulty]
HPDrainRate:6
CircleSize:4
OverallDifficulty:7
ApproachRate:8
SliderMultiplier:1.5
SliderTickRate:1

[Events]
//Background and Video events
Video,0,"working2op.flv"
0,0,"100702_working_1920.jpg"
//Break Periods
//Storyboard Layer 0 (Background)
//Storyboard Layer 1 (Fail)
//Storyboard Layer 2 (Pass)
//Storyboard Layer 3 (Foreground)
//Storyboard Sound Samples
//Background Colour Transformations
3,100,163,162,255

[TimingPoints]
166,247.933884297521,4,1,0,70,1,0
57686,-100,4,1,0,70,0,1
73554,-100,4,1,0,70,0,0
85455,-100,4,2,0,5,0,0

[Colours]
Combo1 : 255,255,128
Combo2 : 255,128,128
Combo3 : 252,196,90

[HitObjects]
184,88,166,2,0,B|256:80|336:88,1,150,4|0
416,72,579,1,0
416,72,661,1,0
440,152,827,2,0,B|376:200|344:272,1,150
184,296,1405,5,8
64,192,1653,1,8
184,88,1901,1,8
304,64,2149,6,0,B|320:112|344:160,1,100,4|0
342,156,2397,1,0
264,176,2562,1,0
264,176,2645,2,0,B|286:220|302:268,1,100
424,280,3058,6,0,B|328:256|224:280,1,200,4|8
424,280,3637,1,8
56,120,4132,6,0,B|64:192|56:272,1,150,4|0
160,328,4628,1,0
160,328,4794,2,0,B|232:288|304:272,1,150,0|4
368,72,5289,5,0
368,72,5372,2,8,B|296:88|216:72,2,150
400,192,6116,5,8
112,192,6364,1,8
400,192,6612,1,8
112,192,6860,1,8
256,192,7108,5,4
184,312,7604,1,0
184,312,7769,2,0,B|256:328|336:312,1,150
368,328,8099,6,0,B|384:248|424:184,1,150,4|8
400,72,8595,1,0
288,32,8843,1,8
208,24,9008,6,0,B|128:16|56:48|56:48,1,150
60,45,9339,1,8
88,192,9587,1,0
120,336,9835,1,8
240,352,10083,6,0,B|320:344|376:296,1,150,0|8
392,168,10496,2,0,B|312:176|256:224,1,150
255,224,10827,1,8
200,280,10992,6,2,B|184:200|144:136,1,150
146,140,11323,1,8
216,40,11570,1,2
296,32,11736,1,0
296,32,11818,1,8
296,32,11901,1,0
296,32,11984,1,0
296,32,12066,6,0,B|368:40|432:96,1,150,0|8
392,168,12480,2,0,B|360:320,1,150
361,314,12810,1,8
432,352,12975,6,0,B|368:304|288:304,1,150
292,304,13306,1,8
216,336,13471,1,0
216,336,13554,2,0,B|176:272|176:192,1,150,0|8
56,224,14050,6,0,B|96:160|96:80,1,150,0|8
176,96,14463,2,0,B|256:80|328:96,1,150
324,95,14794,1,8
408,288,14959,6,2,B|328:304|256:288,1,150
259,288,15289,1,8
259,288,15372,1,0
259,288,15455,1,0
259,288,15537,1,2
184,328,15703,1,0
184,328,15785,2,0,B|176:280|160:232,1,100,10|0
159,231,16033,1,4
259,96,16281,5,8
259,96,16446,2,0,B|184:88|112:112,1,150
111,112,16777,1,8
40,224,16942,6,0,B|192:192,1,150
186,193,17273,1,8
259,96,17521,1,0
344,312,17769,1,8
432,96,18017,6,0,B|456:168|448:248,1,150,0|8
344,312,18430,2,0,B|272:296|192:304,1,150
194,303,18761,1,8
112,312,18926,6,2,B|96:232|112:160,1,150
111,163,19256,1,8
192,72,19504,1,2
272,64,19670,2,0,B|320:72,1,50,0|8
384,128,19918,5,0
384,128,20000,2,0,B|312:120|232:144|232:144,1,150,0|8
184,208,20413,1,0
256,304,20661,1,0
256,304,20744,1,8
328,208,20909,6,0,B|336:128|304:56,1,150
306,61,21240,1,8
192,40,21488,1,0
70,55,21653,1,0
70,55,21736,2,0,B|80:160,1,100,8|0
64,192,21984,6,2,B|136:216|176:288,1,150,2|10
296,312,22480,1,2
408,288,22645,1,0
408,288,22893,2,2,B|432:192|408:88,1,200,2|8
408,89,23471,1,8
176,48,23967,6,0,B|104:72|48:128|48:128,1,150,4|8
128,272,24463,2,0,B|200:248|256:192|256:192,1,150,0|8
272,88,24876,5,0
272,88,24958,2,0,B|200:112|144:168|144:168,1,150,0|8
128,272,25372,2,0,B|280:280,1,150
277,279,25703,1,8
400,272,25951,5,0
392,152,26199,1,8
320,56,26446,1,0
200,48,26694,1,8
120,56,26860,5,0
120,56,26942,2,0,B|112:104|120:160,1,100,8|0
88,184,27191,2,0,B|142:184|192:192,1,100,8|0
176,232,27438,2,0,B|221:224|275:224,1,100,8|0
312,248,27686,2,0,B|320:200|312:144,1,100,8|0
312,148,27934,1,0
424,112,28182,5,8
424,272,28430,2,0,B|352:296|272:288,1,150,0|8
184,208,28843,5,0
184,208,28926,2,0,B|256:184|336:192,1,150,0|8
232,96,29339,2,0,B|160:120|80:112,1,150
83,112,29670,1,8
72,344,29918,6,0,B|96:192,1,150,0|8
440,40,30413,2,0,B|416:192,1,150,0|8
400,296,30909,5,8
312,88,31157,1,8
200,296,31405,1,8
112,88,31653,1,8
200,296,31901,5,4
200,296,32149,1,8
200,296,32397,2,0,B|112:296|80:224,1,150,0|8
112,88,32893,5,0
112,88,33058,2,0,B|200:88|232:160,1,150
344,192,33554,1,0
344,192,33637,1,8
440,120,33885,6,0,B|480:192|440:264,1,150,0|8
343,334,34380,2,0,B|304:263|343:191,1,150,0|8
440,120,34876,5,8
184,8,35124,1,8
72,264,35372,1,8
328,376,35620,1,8
440,264,35785,5,0
440,264,35868,2,0,B|384:208|304:208,1,150,0|8
192,256,36364,1,0
96,192,36612,1,8
56,80,36860,6,0,B|112:24|192:24,1,150,0|8
392,136,37273,2,0,B|336:192|256:192,1,150
257,191,37604,1,8
107,191,37851,6,0,B|257:191,1,150,0|8
392,136,38347,1,0
448,192,38513,1,0
448,192,38595,1,8
264,318,38761,6,2,B|312:256|392:248,1,150
392,136,39091,2,0,B|352:160|296:168,1,100,8|0
297,167,39339,1,2
216,112,39504,1,2
96,40,39752,6,0,B|56:96|56:184,1,150,4|0
56,182,40083,1,8
128,280,40331,2,0,B|280:264,1,150,0|8
352,360,40827,6,0,B|304:288|352:216|352:216,1,150,0|8
160,24,41323,2,0,B|208:96|160:168|160:168,1,150,0|8
256,240,41818,5,0
352,168,42066,1,8
256,240,42314,1,0
160,312,42562,1,8
352,168,42809,6,0,B|384:232|376:320,2,150,0|8|0
312,96,43471,1,0
312,96,43554,1,8
232,72,43719,5,0
232,72,43802,2,0,B|80:88,1,150,0|8
16,192,44298,2,0,B|168:176,1,150,0|8
312,244,44794,6,0,B|328:168|312:96,2,150,0|8|0
200,288,45537,1,8
165,175,45785,6,0,B|16:160,2,150,0|8|0
72,96,46529,2,0,B|216:112,1,100,8|0
256,88,46777,6,2,B|304:96|360:88,1,100
156,295,47190,1,2
424,192,47438,1,2
136,192,47686,6,0,B|120:112|136:40,1,150,4|0
135,43,48017,1,8
256,16,48265,1,0
256,192,48513,1,8
256,368,48761,5,0
416,120,49008,2,0,B|432:192|416:272|416:272,1,150,8|0
256,368,49504,1,8
95,269,49752,6,0,B|96:272|80:192|95:120,2,150,0|8|0
186,96,50496,2,0,B|336:96,1,150,8|0
416,120,50909,5,0
416,120,50992,1,8
448,192,51157,1,0
448,192,51240,1,0
416,264,51405,1,0
416,264,51488,1,8
256,304,51736,5,4
120,232,51984,1,8
256,152,52232,1,0
88,80,52480,1,8
120,232,52727,5,0
256,304,52975,1,8
392,232,53223,1,0
424,80,53471,1,8
389,231,53719,6,0,B|341:175|256:176,1,150,0|8
122,231,54215,2,0,B|170:175|256:176,1,150,0|8
256,304,54710,5,0
256,80,54959,1,8
256,304,55207,1,0
256,80,55372,1,0
256,80,55455,1,8
328,40,55620,5,0
328,40,55703,2,2,B|344:88|336:144,1,100
184,256,56116,1,2
328,256,56364,1,2
184,40,56612,1,2
184,40,56694,1,2
80,104,56942,6,0,B|64:176|80:256,1,150
79,252,57356,1,0
152,344,57604,6,0,B|256:368|352:344,1,200,4|8
432,256,58182,1,0
384,192,58347,1,0
384,192,58430,1,8
432,128,58595,6,0,B|400:48|320:32,1,150
324,32,58926,1,8
208,40,59174,2,0,B|104:48,1,100
108,47,59422,1,8
48,152,59670,6,0,B|72:224|160:248,1,150,0|8
323,192,60083,1,0
323,192,60166,2,0,B|224:200,1,100
224,200,60413,1,8
256,344,60579,6,2,B|296:280|376:256,1,150
373,256,60909,1,8
256,112,61157,1,2
138,256,61323,1,0
138,256,61405,2,0,B|40:248,1,100,8|0
38,247,61653,6,0,B|16:176|40:96,1,150,0|8
156,104,62149,2,0,B|256:112,1,100
255,111,62397,1,8
416,96,62562,6,0,B|438:171|416:243,1,150
416,243,62893,1,8
312,296,63141,2,0,B|264:280|216:272,1,100
215,271,63389,1,8
96,296,63637,6,0,B|72:224|80:144,1,150,0|8
248,72,64132,2,0,B|272:144|264:224,1,150,0|8
397,56,64546,6,2,B|400:56|248:72,1,150
248,71,64876,1,8
128,88,65124,1,8
128,248,65290,1,8
128,248,65537,6,0,B|200:232|280:240,1,150,4|0
277,239,65868,1,8
384,192,66116,2,0,B|392:88,1,100
391,92,66364,1,8
328,40,66529,6,0,B|256:56|176:48,1,150
178,48,66860,1,8
64,88,67108,2,0,B|71:187,1,100
71,187,67356,1,8
80,304,67604,6,0,B|160:296|224:256,1,150,0|8
256,328,68017,2,0,B|217:266|209:186,1,150
209,186,68347,1,8
256,56,68513,6,2,B|294:117|302:197,1,150
302,197,68843,1,8
256,328,69091,1,2
320,280,69256,1,0
320,280,69339,1,8
176,336,69587,6,0,B|104:304|72:232,1,150,0|8
200,96,70083,2,0,B|271:127|303:199,1,150,0|8
408,296,70496,6,0,B|336:280|256:288,1,150
258,287,70827,1,8
104,200,71075,2,0,B|176:184|256:192,1,150,0|8
376,176,71570,5,0
344,104,71736,1,0
344,104,71818,1,8
272,72,71984,2,0,B|192:56|120:72,1,150
104,200,72480,6,0,B|104:328|232:328|232:328,1,200
304,304,72975,1,0
304,304,73058,1,0
368,256,73223,1,0
368,256,73306,1,0
408,192,73471,5,0
408,192,73554,2,0,B|400:112|360:48,1,150,4|0
248,24,74050,2,0,B|144:32,1,100
148,31,74463,1,0
120,192,74794,5,8
392,192,75042,1,8
120,192,75289,1,8
208,280,75537,6,0,B|256:272|312:280,1,100,4|0
344,288,75785,2,0,B|360:184,1,100
359,189,76033,1,0
368,112,76198,6,0,B|296:96|216:112,1,150,0|4
120,192,76694,1,0
120,192,76777,1,8
392,192,77025,1,8
168,104,77521,6,0,B|200:72|256:56|256:56,1,100,4|0
254,56,77769,1,0
336,72,77934,1,0
336,72,78017,2,0,B|440:88,1,100
392,192,78430,6,0,B|320:216|288:296,1,150
288,293,78761,1,8
168,104,79008,1,8
288,293,79256,1,8
168,104,79504,6,8,B|104:144|80:224,1,150,8|8
344,280,80000,2,8,B|408:240|432:160,1,150
256,192,80496,5,0
299,79,80745,2,0,B|251:71|200:72,1,100,8|0
200,72,80992,2,0,B|148:71|100:79,1,100,8|0
100,79,81240,1,8
64,192,81488,5,0
112,304,81736,1,8
160,192,81984,1,0
208,304,82232,1,8
256,192,82480,5,0
304,304,82645,1,0
304,304,82727,2,0,B|360:304|400:280,1,100,8|0
432,256,82975,2,0,B|440:208|432:152,1,100,8|0
433,157,83223,1,8
326,94,83471,5,0
256,312,83719,1,8
185,94,83967,1,0
370,229,84215,1,8
141,229,84463,1,4
141,229,84959,5,0
208,272,85124,1,0
208,272,85207,2,0,B|256:280|312:272,1,100,0|4
256,192,85455,12,0,88926
