osu file format v14

[General]
AudioFilename: War (F.O.O.L & Didrick Remix).mp3
AudioLeadIn: 2000
PreviewTime: 43185
Countdown: 0
SampleSet: Soft
StackLeniency: 0.7
Mode: 0
LetterboxInBreaks: 0
WidescreenStoryboard: 0

[Editor]
Bookmarks: 30060,45060,75060,91747,108442,125136,141831,172633,202633,232164
DistanceSpacing: 0.9
BeatDivisor: 4
GridSize: 4
TimelineZoom: 1.9

[Metadata]
Title:War (F.O.O.L & Didrick Remix)
TitleUnicode:War (F.O.O.L & Didrick Remix)
Artist:Astronaut & Far Too Loud
ArtistUnicode:Astronaut & Far Too Loud
Creator:JBHyperion
Version:Easy
Source:
Tags:Monstercat Destination EP electro house WildOne94
BeatmapID:683232
BeatmapSetID:305031

[Difficulty]
HPDrainRate:2
CircleSize:2
OverallDifficulty:2
ApproachRate:2
SliderMultiplier:1.1
SliderTickRate:2

[Events]
//Background and Video events
0,0,"WAREasy1366x768.jpg",0,0
//Break Periods
2,78575,88110
2,142085,148406
2,150166,156085
//Storyboard Layer 0 (Background)
//Storyboard Layer 1 (Fail)
//Storyboard Layer 2 (Pass)
//Storyboard Layer 3 (Foreground)
//Storyboard Sound Samples

[TimingPoints]
60,468.75,4,2,1,50,1,0
26310,-100,4,2,1,55,0,0
27247,-100,4,2,1,60,0,0
28185,-100,4,2,1,65,0,0
29122,-100,4,2,1,70,0,0
30528,-100,4,2,1,40,0,0
33810,-100,4,2,1,50,0,0
35685,-100,4,2,1,60,0,0
37560,-100,4,2,1,70,0,0
44591,-100,4,2,1,50,0,0
45528,-100,4,2,1,80,0,1
60060,-100,4,2,1,80,0,0
60528,-100,4,2,1,80,0,1
75060,-100,4,2,1,70,0,0
75997,-100,4,2,1,60,0,0
76935,-100,4,2,1,50,0,0
77872,-100,4,2,1,40,0,0
78341,-100,4,2,1,5,0,0
89670,517.241379310345,4,2,1,50,1,0
90187,480,4,2,1,40,1,0
90667,750,4,2,1,30,1,0
91747,521.739130434783,4,2,1,60,1,0
92529,-100,4,2,1,30,0,0
95920,-100,4,2,1,35,0,0
98007,-100,4,2,1,40,0,0
100094,-100,4,2,1,50,0,0
106355,-100,4,2,1,70,0,0
108442,-100,4,2,1,80,0,1
125138,-100,4,2,1,80,0,0
125660,-100,4,2,1,80,0,1
141831,508.474576271186,4,2,1,70,1,0
149966,483.870967741935,4,2,1,70,1,0
155772,468.384074941452,4,2,1,70,1,0
158113,-100,4,2,1,30,0,0
161392,-100,4,2,1,35,0,0
163266,-100,4,2,1,40,0,0
165139,-100,4,2,1,45,0,0
167013,-100,4,2,1,50,0,0
168886,-100,4,2,1,55,0,0
169823,-100,4,2,1,60,0,0
170760,-100,4,2,1,70,0,0
172633,468.75,4,2,1,50,1,0
173101,-100,4,2,1,80,0,1
187633,-100,4,2,1,80,0,0
188101,-100,4,2,1,80,0,1
202633,-100,4,2,1,70,0,0
203101,-100,4,2,1,60,0,0
232164,-100,4,2,1,80,0,0

[Colours]
Combo1 : 207,145,249
Combo2 : 154,142,159
Combo3 : 162,150,226
Combo4 : 128,163,227
Combo5 : 151,244,242

[HitObjects]
256,192,60,5,2,0:0:0:0:
300,280,528,2,0,P|352:296|404:280,1,110,8|0,0:0|0:0,0:0:0:0:
352,196,1466,1,8,0:0:0:0:
312,104,1935,5,2,0:0:0:0:
264,16,2403,2,0,P|212:0|160:16,1,110,8|0,0:0|0:0,0:0:0:0:
212,100,3341,1,8,0:0:0:0:
160,184,3810,5,2,0:0:0:0:
212,268,4278,2,0,P|191:322|131:349,2,110,8|0|8,0:0|0:0|0:0,0:0:0:0:
264,184,5685,5,2,0:0:0:0:
312,96,6153,2,0,P|327:39|385:7,2,110,8|0|8,0:0|0:0|0:0,0:0:0:0:
360,184,7560,5,2,0:0:0:0:
360,284,8028,2,0,P|334:331|286:357,1,110,8|0,0:0|0:0,0:0:0:0:
264,260,8966,1,8,0:0:0:0:
164,260,9435,5,2,0:0:0:0:
141,357,9903,2,0,P|93:331|68:284,1,110,8|0,0:0|0:0,0:0:0:0:
68,184,10841,1,8,0:0:0:0:
140,112,11310,5,2,0:0:0:0:
208,184,11778,2,0,L|208:296,2,110,8|0|8,0:0|0:0|0:0,0:0:0:0:
276,112,13185,5,2,0:0:0:0:
360,60,13653,2,0,L|472:60,2,110,8|0|8,0:0|0:0|0:0,0:0:0:0:
276,8,15060,5,2,0:0:0:0:
176,8,15528,2,0,P|122:19|85:58,1,110,8|0,0:0|0:0,0:0:0:0:
171,108,16466,1,8,0:0:0:0:
220,197,16935,5,2,0:0:0:0:
123,197,17403,2,0,P|83:160|70:107,2,110,8|0|8,0:0|0:0|0:0,0:0:0:0:
172,284,18810,5,2,0:0:0:0:
260,328,19278,2,0,L|384:328,1,110,8|0,0:0|0:0,0:0:0:0:
404,236,20216,1,8,0:0:0:0:
304,236,20685,5,2,0:0:0:0:
284,140,21153,2,0,P|236:165|210:212,2,110,8|0|8,0:0|0:0|0:0,0:0:0:0:
384,136,22560,5,2,0:0:0:0:
436,217,23028,2,0,P|455:267|444:319,1,110,8|0,0:0|0:0,0:0:0:0:
356,275,23966,1,8,0:0:0:0:
263,228,24435,5,2,0:0:0:0:
164,248,24903,2,0,P|185:297|231:326,2,110,8|0|8,0:0|0:0|0:0,0:0:0:0:
256,192,26310,12,8,29591,0:0:0:0:
256,192,30060,5,4,0:0:0:0:
340,140,30528,2,0,P|355:192|340:244,2,110,8|0|8,0:0|0:0|0:0,0:0:0:0:
252,92,31935,5,2,0:0:0:0:
171,140,32403,2,0,P|156:192|172:244,1,110,8|0,0:0|0:0,0:0:0:0:
256,296,33341,1,8,0:0:0:0:
336,351,33810,5,2,0:0:0:0:
346,251,34278,2,0,L|414:152,1,110,8|0,0:0|0:0,0:0:0:0:
416,60,35216,1,8,0:0:0:0:
335,4,35685,5,2,0:0:0:0:
326,104,36153,2,0,L|257:202,1,110,8|0,0:0|0:0,0:0:0:0:
208,276,37091,1,8,0:0:0:0:
163,190,37560,5,4,0:0:0:0:
215,105,38028,2,0,P|162:89|111:105,2,110,8|0|8,0:0|0:0|0:0,0:0:0:0:
263,194,39435,5,2,0:0:0:0:
322,276,39903,2,0,P|374:291|425:275,1,110,8|0,0:0|0:0,0:0:0:0:
372,192,40841,1,8,0:0:0:0:
327,104,41310,6,0,P|275:89|224:105,1,110,8|8,0:0|0:0,0:0:0:0:
276,190,42247,2,0,P|224:206|172:191,1,110,8|8,0:0|0:0,0:0:0:0:
124,104,43185,5,4,0:0:0:0:
304,340,44591,5,8,0:0:0:0:
244,260,45060,1,0,0:0:0:0:
344,244,45528,6,0,P|359:191|343:140,1,110,12|0,0:0|0:0,0:0:0:0:
256,92,46466,1,8,0:0:0:0:
156,92,46935,5,2,0:0:0:0:
72,144,47403,2,0,P|56:91|72:40,2,110,8|0|8,0:0|0:0|0:0,0:0:0:0:
124,228,48810,5,2,0:0:0:0:
212,272,49278,1,8,0:0:0:0:
312,272,49747,1,0,0:0:0:0:
400,228,50216,1,8,0:0:0:0:
456,144,50685,6,0,B|471:91|456:36|456:36|353:132|224:40,1,330,2|8,0:0|0:0,0:0:0:0:
168,12,52560,5,4,0:0:0:0:
96,80,53028,2,0,P|80:132|96:183,1,110,8|0,0:0|0:0,0:0:0:0:
180,132,53966,1,8,0:0:0:0:
264,184,54435,5,2,0:0:0:0:
360,209,54903,2,0,P|333:256|285:281,2,110,8|0|8,0:0|0:0|0:0,0:0:0:0:
332,112,56310,5,2,0:0:0:0:
264,40,56778,1,8,0:0:0:0:
164,40,57247,1,0,0:0:0:0:
100,116,57716,1,8,0:0:0:0:
164,192,58185,6,0,B|168:236|148:272|148:272|264:256|289:341|391:269,1,330,2|0,0:0|0:0,0:0:0:0:
436,192,60060,5,0,0:0:0:0:
403,101,60528,6,0,P|376:52|328:28,1,110,12|0,0:0|0:0,0:0:0:0:
308,124,61466,1,8,0:0:0:0:
208,124,61935,5,2,0:0:0:0:
113,100,62403,2,0,P|139:51|187:27,2,110,8|0|8,0:0|0:0|0:0,0:0:0:0:
140,196,63810,6,0,P|166:245|214:269,2,110,2|8|0,0:0|0:0|0:0,0:0:0:0:
236,172,65216,1,8,0:0:0:0:
338,176,65685,6,0,P|386:200|411:248,2,110,2|8|0,0:0|0:0|0:0,0:0:0:0:
316,272,67091,1,8,0:0:0:0:
252,344,67560,6,0,B|208:292|228:240|228:240|168:264|116:220,1,220,4|0,0:0|0:0,0:0:0:0:
188,148,68966,1,8,0:0:0:0:
192,48,69435,6,0,B|248:48|276:108|276:108|304:52|364:48,1,220,2|0,0:0|0:0,0:0:0:0:
368,148,70841,1,8,0:0:0:0:
284,204,71310,5,2,0:0:0:0:
372,249,71778,2,0,P|334:290|282:303,1,110,8|0,0:0|0:0,0:0:0:0:
200,254,72716,1,8,0:0:0:0:
200,154,73185,5,2,0:0:0:0:
160,12,73888,2,0,P|120:23|93:53,1,82.5,8|0,0:0|0:0,0:0:0:0:
72,124,74591,2,0,L|72:184,1,55,8|0,0:0|0:0,0:0:0:0:
256,192,75060,12,0,78341,0:0:0:0:
256,192,89670,5,8,0:0:0:0:
312,192,91747,5,4,0:0:0:0:
420,92,92529,2,0,L|516:92,2,82.5,2|0|2,0:0|0:0|0:0,0:0:0:0:
320,92,93833,5,2,0:0:0:0:
212,192,94616,2,0,L|212:288,2,82.5,2|0|2,0:0|0:0|0:0,0:0:0:0:
212,92,95920,5,2,0:0:0:0:
320,192,96703,2,0,L|412:192,2,82.5,2|0|2,0:0|0:0|0:0,0:0:0:0:
220,192,98007,5,2,0:0:0:0:
328,292,98790,2,0,L|328:380,2,82.5,2|0|2,0:0|0:0|0:0,0:0:0:0:
408,236,100094,6,0,L|479:184,2,82.5,8|0|2,0:0|0:0|0:0,0:0:0:0:
260,240,101660,1,2,0:0:0:0:
180,296,102181,6,0,L|103:339,2,82.5,8|0|2,0:0|0:0|0:0,0:0:0:0:
180,148,103747,1,2,0:0:0:0:
104,84,104268,6,0,L|36:27,2,82.5,8|2|2,0:0|0:0|0:0,0:0:0:0:
252,84,105833,1,2,0:0:0:0:
332,144,106355,5,4,0:0:0:0:
415,92,106877,2,0,P|431:143|416:196,1,110
332,248,107920,1,8,0:0:0:0:
248,196,108442,5,4,0:0:0:0:
224,98,108964,2,0,P|176:124|151:172,1,110,8|0,0:0|0:0,0:0:0:0:
180,268,110007,1,8,0:0:0:0:
248,340,110529,6,0,P|300:354|351:338,2,110,2|8|0,0:0|0:0|0:0,0:0:0:0:
299,256,112094,1,8,0:0:0:0:
394,225,112616,5,0,0:0:0:0:
394,126,113138,1,8,0:0:0:0:
299,95,113660,1,0,0:0:0:0:
241,175,114181,1,8,0:0:0:0:
196,264,114703,6,0,P|156:274|117:262,1,82.5,2|0,0:0|0:0,0:0:0:0:
80,200,115486,1,8,0:0:0:0:
128,60,116268,1,8,0:0:0:0:
228,60,116790,5,4,0:0:0:0:
324,32,117312,2,0,P|371:58|396:106,1,110,8|0,0:0|0:0,0:0:0:0:
300,124,118355,1,8,0:0:0:0:
212,172,118877,6,0,P|197:224|213:275,2,110,2|8|0,0:0|0:0|0:0,0:0:0:0:
296,223,120442,1,8,0:0:0:0:
300,320,120964,5,0,0:0:0:0:
400,320,121486,1,0,0:0:0:0:
488,276,122007,1,0,0:0:0:0:
488,176,122529,1,8,0:0:0:0:
448,84,123051,6,0,P|421:52|382:40,1,82.5,2|0,0:0|0:0,0:0:0:0:
315,69,123833,1,8,0:0:0:0:
274,211,124616,1,8,0:0:0:0:
328,293,125138,6,0,P|276:309|224:296,1,110,4|8,0:0|0:0,0:0:0:0:
176,208,126181,5,0,0:0:0:0:
220,120,126703,1,8,0:0:0:0:
248,24,127225,6,0,P|193:22|147:51,1,110,0|8,0:0|0:0,0:0:0:0:
104,140,128268,1,0,0:0:0:0:
32,208,128790,2,0,P|16:259|32:312,1,110,8|0,0:0|0:0,0:0:0:0:
116,260,129833,5,8,0:0:0:0:
200,312,130355,1,0,0:0:0:0:
300,312,130877,1,8,0:0:0:0:
384,260,131399,6,0,P|412:230|421:190,1,82.5,2|0,0:0|0:0,0:0:0:0:
386,127,132181,1,8,0:0:0:0:
241,99,132964,1,8,0:0:0:0:
164,163,133486,5,4,0:0:0:0:
142,258,134007,1,8,0:0:0:0:
190,346,134529,2,0,P|241:360|293:344,1,110,0|8,0:0|0:0,0:0:0:0:
376,288,135573,5,2,0:0:0:0:
404,192,136094,2,0,P|395:138|359:99,2,110,10|0|8,0:0|0:0|0:0,0:0:0:0:
304,184,137660,6,0,P|269:162|228:162,1,82.5,4|0,0:0|0:0,0:0:0:0:
160,188,138442,1,8,0:0:0:0:
140,336,139225,1,8,0:0:0:0:
64,272,139747,6,0,P|40:237|38:196,1,82.5,4|0,0:0|0:0,0:0:0:0:
83,139,140529,1,8,0:0:0:0:
228,112,141312,1,8,0:0:0:0:
256,208,141831,5,4,0:0:0:0:
256,192,149966,5,4,0:0:0:0:
256,192,157645,5,0,0:0:0:0:
356,192,158113,1,8,0:0:0:0:
212,328,159050,6,2,P|159:342|108:328,1,110,10|2,0:0|0:0,0:0:0:0:
160,244,159987,1,8,0:0:0:0:
252,68,160924,1,8,0:0:0:0:
436,140,161860,6,0,P|450:192|436:244,1,110,8|2,0:0|0:0,0:0:0:0:
352,192,162797,1,8,0:0:0:0:
268,244,163266,6,0,B|220:262|175:204|175:204|173:198|259:146|203:35|130:26,1,330,2|4,0:0|0:0,0:0:0:0:
108,126,165139,5,2,0:0:0:0:
44,204,165608,2,0,P|29:256|44:308,1,110,8|2,0:0|0:0,0:0:0:0:
128,256,166544,1,8,0:0:0:0:
212,308,167013,5,2,0:0:0:0:
216,208,167481,2,0,P|242:160|289:134,1,110,8|2,0:0|0:0,0:0:0:0:
312,230,168418,1,8,0:0:0:0:
384,164,168886,6,0,P|384:109|357:63,1,110,8|8,0:0|0:0,0:0:0:0:
288,136,169823,2,0,P|233:136|187:108,1,110,8|8,0:0|0:0,0:0:0:0:
128,32,170760,5,4,0:0:0:0:
120,328,172165,5,8,0:0:0:0:
164,240,172633,1,2,0:0:0:0:
215,324,173101,6,0,P|267:339|319:323,1,110,12|0,0:0|0:0,0:0:0:0:
368,240,174039,1,8,0:0:0:0:
320,152,174508,5,2,0:0:0:0:
372,68,174976,2,0,P|319:53|268:68,2,110,8|0|8,0:0|0:0|0:0,0:0:0:0:
424,152,176383,5,2,0:0:0:0:
336,196,176851,1,8,0:0:0:0:
248,152,177320,1,2,0:0:0:0:
160,192,177789,1,8,0:0:0:0:
76,240,178258,6,0,B|20:280|40:336|40:336|112:380|192:316|192:316|260:340,1,330,2|8,0:0|0:0,0:0:0:0:
336,364,180133,5,4,0:0:0:0:
408,294,180601,2,0,P|423:241|407:190,1,110,8|0,0:0|0:0,0:0:0:0:
324,243,181539,1,8,0:0:0:0:
240,192,182008,5,2,0:0:0:0:
219,94,182476,2,0,P|170:118|143:166,2,110,8|0|8,0:0|0:0|0:0,0:0:0:0:
320,92,183883,5,2,0:0:0:0:
396,156,184351,1,8,0:0:0:0:
396,256,184820,1,0,0:0:0:0:
320,320,185289,1,8,0:0:0:0:
244,256,185758,6,0,P|212:224|208:176,1,82.5,8|0,0:0|0:0,0:0:0:0:
204,116,186461,2,0,B|204:76|152:56|152:56|116:64|108:116|108:116|116:124|116:124|108:132|108:132|116:140|116:140|108:148|108:148|116:156|116:156|108:164|108:164|116:172|116:172|108:180|108:180|115:187|115:187|107:196|107:196|112:212,1,275,8|4,0:0|0:0,0:0:0:0:
87,292,188101,6,0,P|114:341|162:365,1,110,8|0,0:0|0:0,0:0:0:0:
182,268,189039,1,8,0:0:0:0:
280,268,189508,5,2,0:0:0:0:
375,293,189976,2,0,P|348:341|300:365,2,110,8|0|8,0:0|0:0|0:0,0:0:0:0:
348,195,191383,6,0,P|322:145|274:121,2,110,2|8|0,0:0|0:0|0:0,0:0:0:0:
251,219,192789,1,8,0:0:0:0:
152,219,193258,6,0,P|104:194|79:147,2,110,2|8|0,0:0|0:0|0:0,0:0:0:0:
175,121,194664,1,8,0:0:0:0:
180,24,195133,6,0,B|240:32|264:88|264:88|288:32|348:24,1,220,4|0,0:0|0:0,0:0:0:0:
354,121,196539,1,8,0:0:0:0:
416,196,197008,6,0,B|367:232|311:210|311:210|333:266|297:314,1,220,2|0,0:0|0:0,0:0:0:0:
224,250,198414,1,8,0:0:0:0:
246,150,198883,5,2,0:0:0:0:
336,104,199351,2,0,P|298:62|247:49,1,110,8|0,0:0|0:0,0:0:0:0:
160,96,200289,1,8,0:0:0:0:
84,156,200758,6,0,P|116:188|164:192,1,82.5,8|0,0:0|0:0,0:0:0:0:
224,196,201461,2,0,B|264:196|284:248|284:248|276:284|224:292|224:292|216:284|216:284|208:292|208:292|200:284|200:284|192:292|192:292|184:284|184:284|176:292|176:292|168:284|168:284|160:292|160:292|153:285|153:285|144:293|144:293|128:288,1,275,8|4,0:0|0:0,0:0:0:0:
60,244,203101,6,0,P|44:192|60:140,1,110,8|0,0:0|0:0,0:0:0:0:
144,88,204039,1,8,0:0:0:0:
240,116,204508,5,2,0:0:0:0:
288,28,204976,2,0,P|340:12|392:28,1,110,8|0,0:0|0:0,0:0:0:0:
340,113,205914,1,8,0:0:0:0:
392,197,206383,5,2,0:0:0:0:
340,284,206851,2,0,P|391:300|454:276,2,110,8|0|8,0:0|0:0|0:0,0:0:0:0:
292,196,208258,5,2,0:0:0:0:
236,113,208726,2,0,P|184:96|121:120,2,110,8|0|8,0:0|0:0|0:0,0:0:0:0:
184,200,210133,5,2,0:0:0:0:
84,208,210601,2,0,P|101:258|144:292,1,110,8|0,0:0|0:0,0:0:0:0:
232,340,211539,1,8,0:0:0:0:
332,340,212008,5,2,0:0:0:0:
420,293,212476,2,0,P|462:259|480:208,1,110,8|0,0:0|0:0,0:0:0:0:
380,200,213414,1,8,0:0:0:0:
300,140,213883,5,2,0:0:0:0:
380,84,214351,2,0,L|496:84,2,110,8|0|8,0:0|0:0|0:0,0:0:0:0:
300,24,215758,5,2,0:0:0:0:
220,84,216226,2,0,L|104:84,2,110,8|0|8,0:0|0:0|0:0,0:0:0:0:
300,144,217633,5,2,0:0:0:0:
300,242,218101,2,0,P|288:295|249:332,1,110,8|0,0:0|0:0,0:0:0:0:
204,248,219039,1,8,0:0:0:0:
130,173,219508,5,2,0:0:0:0:
107,272,219976,2,0,P|59:245|34:197,2,110,8|0|8,0:0|0:0|0:0,0:0:0:0:
176,344,221383,5,2,0:0:0:0:
244,272,221851,2,0,L|324:196,1,110,8|0,0:0|0:0,0:0:0:0:
380,276,222789,1,8,0:0:0:0:
444,200,223258,5,2,0:0:0:0:
376,128,223726,2,0,P|422:101|476:106,2,110,8|0|8,0:0|0:0|0:0,0:0:0:0:
304,196,225133,5,2,0:0:0:0:
240,270,225601,2,0,P|196:301|143:304,1,110,8|0,0:0|0:0,0:0:0:0:
163,208,226539,1,8,0:0:0:0:
183,107,227008,5,2,0:0:0:0:
140,15,227476,2,0,P|98:47|81:99,2,110,8|0|8,0:0|0:0|0:0,0:0:0:0:
256,192,228883,12,4,232164,0:0:0:0:
