osu file format v9

[General]
AudioFilename: Astroline - Close My Eyes (Nightcore Mix).mp3
AudioLeadIn: 2000
PreviewTime: 63839
Countdown: 0
SampleSet: Soft
StackLeniency: 0.5
Mode: 0
LetterboxInBreaks: 0
EpilepsyWarning: 1

[Editor]
DistanceSpacing: 1.2
BeatDivisor: 4
GridSize: 8

[Metadata]
Title:Close My Eyes (Nightcore Mix)
Artist:Astroline
Creator:osuplayer111
Version:Insane
Source:Nightcore III
Tags:Trance Lucifer Louis Cyphre kanpakyin

[Difficulty]
HPDrainRate:8
CircleSize:4
OverallDifficulty:8
ApproachRate:8
SliderMultiplier:1.6
SliderTickRate:1

[Events]
//Background and Video events
0,0,"Baby.jpg"
//Break Periods
//Storyboard Layer 0 (Background)
//Storyboard Layer 1 (Fail)
//Storyboard Layer 2 (Pass)
//Storyboard Layer 3 (Foreground)
//Storyboard Sound Samples
Sample,44096,0,"soft-hitclap.wav",65
Sample,46729,0,"soft-hitclap.wav",65
Sample,49361,0,"soft-hitclap.wav",65
Sample,51993,0,"soft-hitclap.wav",65
//Background Colour Transformations
3,100,158,1,75

[TimingPoints]
335,329.037565122018,4,2,1,80,1,0
9589,-100,4,2,1,50,0,0
10864,-100,4,2,1,80,0,0
15882,-100,4,1,1,60,0,0
16046,-100,4,2,1,80,0,0
20118,-100,4,2,1,50,0,0
20406,-100,4,2,1,80,0,0
20447,-100,4,2,1,50,0,0
20735,-100,4,2,1,80,0,0
20776,-100,4,2,1,50,0,0
21064,-100,4,2,1,80,0,0
21105,-100,4,2,1,50,0,0
21393,-100,4,2,1,80,0,1
31922,-100,4,2,1,80,0,0
32251,-100,4,1,1,36,0,0
32909,-100,4,1,1,50,0,0
33238,-100,4,2,1,80,0,0
33403,-100,4,2,1,50,0,0
42369,-100,4,1,1,50,0,0
43767,-100,4,2,1,80,0,0
52898,-100,4,1,1,50,0,0
54297,-100,4,2,1,80,0,0
59314,-100,4,1,1,60,0,0
59479,-100,4,2,1,80,0,0
64209,-100,4,2,1,50,0,0
64497,-100,4,2,1,80,0,0
64538,-100,4,2,1,50,0,0
64826,-100,4,2,1,80,0,1
75355,-100,4,2,1,80,0,0

[Colours]
Combo1 : 140,255,85
Combo2 : 242,231,83
Combo3 : 0,159,255
Combo4 : 255,74,255

[HitObjects]
152,264,335,1,4
208,344,499,1,0
304,344,664,1,2
360,264,828,1,0
256,112,1157,2,0,B|256:200,1,80,0|2
256,272,1486,1,0
360,120,1651,5,0
304,40,1815,1,0
208,40,1980,1,2
152,120,2144,1,0
256,272,2473,2,0,B|256:184,1,80,0|2
256,112,2802,1,0
152,120,2967,6,0,B|104:120|96:72,1,80
360,120,3296,2,0,B|408:120|416:72,1,80,2|0
56,272,3789,2,0,B|56:328|104:352,1,80,0|2
456,272,4283,2,0,B|456:328|408:352,2,80,0|0|2
400,192,4777,1,0
80,192,5106,2,0,B|160:192,1,80,0|2
256,192,5435,1,0
200,272,5599,1,0
256,344,5764,5,0
48,40,6093,1,2
464,40,6422,2,0,B|368:40,1,80
256,104,6751,2,0,B|352:104,1,80,0|2
312,272,7244,1,0
160,224,7573,1,2
160,224,7738,1,0
160,224,7902,2,0,B|64:224|24:152,1,160
96,104,8396,6,0,B|272:104,1,160,2|0
424,192,9054,1,2
360,264,9219,1,0
424,336,9383,1,0
256,264,9548,2,0,B|224:264,32,20,4|0|0|0|0|0|0|0|0|0|0|0|0|0|0|0|0|0|0|0|0|0|0|0|0|0|0|0|0|0|0|0|4
136,344,11110,6,0,B|80:312|80:312|64:248,2,120,0|2|0
160,200,11851,1,0
96,128,12015,1,0
176,80,12180,2,0,B|232:40|232:40|288:40,2,120,0|0|2
304,144,12920,1,0
424,64,13167,1,0
472,144,13331,1,0
400,208,13496,2,0,B|440:256|440:256|392:320,2,120,0|0|2
264,264,14236,1,0
128,312,14483,5,0
72,240,14648,1,0
152,192,14812,2,0,B|208:144|208:144|208:96,2,120,0|0|2
32,112,15552,1,0
152,48,15799,1,0
248,40,15964,1,0
256,136,16128,1,4
160,144,16293,5,0
256,336,16622,1,2
352,136,16951,1,0
360,48,17115,2,0,B|456:48,2,80,0|0|2
152,48,17773,2,0,B|64:56|40:168,1,160,0|2
44,151,18267,1,0
44,151,18432,1,0
256,336,18925,5,2
256,144,19254,1,0
96,288,19583,2,0,B|128:240|184:240,1,80,0|2
256,240,19912,1,0
352,242,20077,2,0,B|384:242,32,20,4|0|0|0|0|0|0|0|4|0|0|0|0|0|0|4|4|0|0|0|0|0|0|0|4|0|0|0|0|0|0|0|4
304,109,21640,6,0,B|280:80|256:72|256:72|232:80|208:112,2,120,0|2|0
424,192,22380,2,0,B|472:256,1,80
416,336,22709,2,0,B|280:336,2,120,0|0|2
296,256,23449,1,0
176,336,23696,6,0,B|136:336|96:296,1,80
40,241,24025,2,0,B|16:224|8:192|8:192|16:152|40:136,1,120
152,48,24519,2,0,B|208:48|208:48|264:88,1,120,2|0
360,192,25012,2,0,B|360:240|360:240|392:272,1,80
464,304,25341,2,0,B|416:352|416:352|360:352,2,120,0|0|2
472,160,26082,1,0
344,96,26328,5,0
256,48,26493,1,0
168,96,26658,2,0,B|120:128|120:128|96:192,2,120,0|0|2
256,208,27398,2,0,B|256:336,1,120
256,328,27809,1,0
352,344,27974,2,0,B|408:312|408:312|408:256,2,120,0|0|2
344,200,28714,2,0,B|344:136|344:136|288:96,1,120
208,72,29125,1,0
120,40,29290,6,0,B|56:64|56:64|56:136,2,120,0|0|2
128,184,30030,1,0
72,328,30277,1,0
160,288,30441,1,0
256,328,30606,2,0,B|384:328,2,120,0|0|2
256,184,31346,1,0
168,72,31593,1,0
256,32,31758,1,0
344,72,31922,1,4
181,231,32580,5,0
189,215,32662,1,0
213,207,32745,1,0
237,199,32827,1,0
261,207,32909,1,0
285,215,32991,1,0
293,231,33074,2,0,B|333:231,2,40,0|0|4
176,344,33567,6,0,B|336:344,1,160,8|0
432,344,34061,1,0
496,272,34225,1,8
448,192,34390,2,0,B|448:104|360:56,1,160
64,192,34883,2,0,B|64:104|152:56,1,160,8|2
256,168,35459,6,0,B|256:232,1,40,0|8
176,256,35706,1,0
208,344,35871,1,2
304,344,36035,1,0
336,256,36200,1,8
256,280,36364,1,0
88,192,36693,6,0,B|64:152|88:112,1,80,0|8
160,56,37022,2,0,B|160:96|160:96|192:136,1,80
256,40,37351,1,0
352,56,37516,2,0,B|352:96|352:96|320:136,1,80,8|0
424,192,37845,2,0,B|448:152|424:112,2,80,0|0|8
368,296,38503,5,0
304,232,38667,1,0
208,232,38832,1,8
144,296,38996,2,0,B|56:296|16:184,1,160
72,128,39490,1,8
144,72,39654,2,0,B|232:72|272:184,1,160
208,232,40148,1,8
256,304,40313,1,0
304,232,40477,2,0,B|344:288|408:288,1,120,2|0
404,287,40806,1,8
440,200,40971,1,0
352,144,41135,6,0,B|368:104|336:64,1,80,2|0
172,68,41464,2,0,B|144:104|160:144,1,80,8|0
256,312,41958,2,0,B|256:224,2,80,0|8|0
168,272,42451,5,0
256,152,42616,1,0
344,272,42780,1,0
176,184,42945,1,0
336,184,43109,1,0
336,184,43192,1,0
336,184,43274,2,0,B|376:184,6,40,0|0|0|0|0|0|4
256,152,43932,6,0,B|184:120|232:48|144:32,1,160
32,128,44590,2,0,B|24:176|72:208,1,80,0|8
176,248,44919,2,0,B|184:200|136:168,1,80
104,298,45413,2,0,B|176:338|176:338|256:294,1,160,8|0
176,248,45906,1,0
176,248,46071,1,8
256,152,46564,6,0,B|328:120|280:48|368:32,1,160
472,136,47222,1,0
392,192,47387,1,8
472,248,47551,1,0
392,296,47716,2,0,B|384:341|344:357|344:357|304:333|304:293,1,160,0|8
256,136,48374,1,0
208,48,48539,1,0
304,48,48703,1,8
48,272,49197,6,0,B|72:240|120:208|152:240|192:280,1,160
360,344,49855,1,0
424,272,50019,1,8
368,192,50184,1,0
448,136,50348,2,0,B|392:72|296:72,1,160,0|8
64,136,51006,2,0,B|120:72|216:72,1,160,0|8
256,352,51829,6,0,B|256:184,1,160
112,288,52487,2,0,B|128:336|176:336,1,80,0|8
56,224,52816,1,0
56,136,52981,5,0
64,128,53063,1,0
72,120,53145,1,0
80,112,53227,1,0
88,104,53310,1,0
96,96,53392,1,0
104,88,53474,1,0
112,80,53556,1,0
120,72,53639,2,0,B|136:56,16,20,0|0|0|0|0|0|0|0|0|0|0|0|0|0|0|0|4
256,144,54543,6,0,B|285:168|293:192|293:192|285:216|253:240,2,120,0|2|0
424,192,55284,2,0,B|472:128,1,80
416,48,55613,2,0,B|280:48,2,120,0|0|2
296,128,56353,1,0
176,48,56600,2,0,B|136:48|96:88,1,80
40,142,56929,2,0,B|16:160|8:192|8:192|16:232|40:248,1,120
152,336,57423,2,0,B|208:336|208:336|264:296,1,120,2|0
360,192,57916,6,0,B|360:144|360:144|392:112,1,80
464,80,58245,2,0,B|416:32|416:32|360:32,2,120,0|0|2
472,224,58985,1,0
344,288,59232,1,0
256,336,59397,1,0
168,288,59561,2,0,B|120:256|120:256|96:192,2,120,4|0|2
256,176,60302,2,0,B|256:48,1,120
256,56,60713,1,0
352,40,60877,6,0,B|408:72|408:72|408:128,2,120,0|0|2
344,184,61618,2,0,B|344:248|344:248|288:288,1,120
208,312,62029,1,0
120,344,62194,2,0,B|56:320|56:320|56:248,2,120,0|0|2
128,200,62934,1,0
88,72,63181,6,0,B|144:72|176:120,1,80
256,72,63510,1,4
424,72,63674,2,0,B|368:72|336:120,1,80,0|4
256,192,64003,1,0
256,312,64168,2,0,B|256:344,16,20,4|0|0|0|0|0|0|0|4|0|0|0|0|0|0|0|4
256,192,65073,6,0,B|312:224|312:224|328:288,2,120,0|2|0
112,176,65813,1,0
88,264,65977,1,0
176,304,66142,2,0,B|232:344|232:344|288:344,2,120,0|0|2
304,240,66882,1,0
424,320,67129,1,0
472,240,67294,1,0
400,176,67458,2,0,B|440:128|440:128|392:64,2,120,0|0|2
320,128,68116,1,0
128,72,68445,5,0
72,144,68610,1,0
152,192,68774,2,0,B|208:240|208:240|208:288,2,120,0|0|2
72,240,69432,1,0
208,360,69761,2,0,B|296:360,1,80
352,288,70090,2,0,B|392:248|392:248|392:176,1,120
312,64,70584,2,0,B|192:64,1,120,2|0
48,64,71078,5,0
120,128,71242,1,0
192,192,71407,2,0,B|320:192,1,120
432,136,71900,2,0,B|456:192|456:192|432:256,2,120,2|0|0
352,192,72558,1,0
352,192,72723,2,0,B|296:168|296:168|224:168,1,120
96,128,73216,2,0,B|56:176|56:176|96:216,1,120,2|0
176,336,73710,5,0
256,280,73874,1,0
336,336,74039,2,0,B|392:312|392:312|459:340,2,120,0|0|2
256,192,74779,2,0,B|256:72,1,120
256,72,75191,1,0
256,72,75355,1,4
