osu file format v14

[General]
AudioFilename: Assertive Fluttershy fixes ArtAttack (ft. Metajoker) - Still Shy VIP (Assertive Remix).mp3
AudioLeadIn: 0
PreviewTime: 85368
Countdown: 0
SampleSet: Soft
StackLeniency: 0.7
Mode: 0
LetterboxInBreaks: 1
WidescreenStoryboard: 0

[Editor]
DistanceSpacing: 0.6
BeatDivisor: 4
GridSize: 4
TimelineZoom: 1

[Metadata]
Title:Still Shy VIP (Assertive Remix)
TitleUnicode:Still Shy VIP (Assertive Remix)
Artist:Assertive Fluttershy
ArtistUnicode:Assertive Fluttershy
Creator:Damnjelly
Version:Extra jelly
Source:
Tags:
BeatmapID:287394
BeatmapSetID:110261

[Difficulty]
HPDrainRate:6
CircleSize:4
OverallDifficulty:7
ApproachRate:9
SliderMultiplier:2.4
SliderTickRate:1

[Events]
//Background and Video events
0,0,"Assertive Fluttershy - Still Shy VIP (Assertive Remix).medium.jpg",0,0
//Break Periods
2,149235,170102
//Storyboard Layer 0 (Background)
//Storyboard Layer 1 (Fail)
//Storyboard Layer 2 (Pass)
//Storyboard Layer 3 (Foreground)
//Storyboard Sound Samples

[TimingPoints]
21035,333.332611683847,4,2,0,60,1,0
64034,-125,4,3,0,55,0,0
65368,-166.666666666667,4,3,0,55,0,0
66702,-200,4,3,0,55,0,0
66784,-200,4,3,0,100,0,0
67618,-200,4,3,0,55,0,0
67951,-200,4,3,0,100,0,0
68784,-200,4,3,0,55,0,0
68868,-100,4,2,0,60,0,0
80034,-100,4,3,0,50,0,0
80118,-100,4,2,0,60,0,0
81368,-100,4,3,0,50,0,0
81451,-100,4,2,0,60,0,0
82701,-100,4,3,0,50,0,0
82784,-100,4,2,0,60,0,0
83368,-100,4,3,0,50,0,0
83451,-100,4,2,0,60,0,0
85368,-100,4,1,0,40,0,0
170701,-100,4,2,0,60,0,0
192034,-100,4,1,0,40,0,0
234701,-100,4,2,0,60,0,0
256034,-125,4,3,0,55,0,0
257367,-166.666666666667,4,3,0,55,0,0
258701,-200,4,3,0,55,0,0
258784,-200,4,3,0,100,0,0
259617,-200,4,3,0,55,0,0
259951,-200,4,3,0,100,0,0
260867,-200,4,3,0,55,0,0
260951,-100,4,2,0,60,0,0

[Colours]
Combo1 : 255,174,94
Combo2 : 255,255,128
Combo3 : 255,128,255
Combo4 : 113,184,255

[HitObjects]
256,192,17035,12,0,20869,0:0:0:0:
312,136,21035,6,0,P|248:124|200:76,1,120
32,72,21368,2,0,P|88:120|88:184,1,120,2|0,0:0|0:0,0:0:0:0:
180,324,21702,2,0,L|208:164,1,120,2|0,0:0|0:0,0:0:0:0:
264,292,22034,2,0,P|288:228|440:176,1,240,2|0,0:0|0:0,0:0:0:0:
460,96,22535,6,0,L|220:72,1,240,2|0,0:0|0:0,0:0:0:0:
208,80,23035,1,2,0:0:0:0:
56,292,23202,1,0,0:0:0:0:
36,220,23368,2,0,P|124:260|128:316,1,120,2|0,0:0|0:0,0:0:0:0:
260,264,23702,1,2,0:0:0:0:
252,119,23868,6,0,L|86:40,1,180,2|0,0:0|0:0,0:0:0:0:
72,56,24201,2,0,P|62:122|6:146,1,120,0|2,0:0|0:0,0:0:0:0:
56,292,24535,1,0,0:0:0:0:
164,232,24702,2,0,P|144:292|176:352,1,120,2|0,0:0|0:0,0:0:0:0:
408,264,25035,1,2,0:0:0:0:
344,48,25202,6,0,P|304:124|168:112,1,180,2|0,0:0|0:0,0:0:0:0:
217,141,25535,2,0,P|156:104|76:148,1,120,0|2,0:0|0:0,0:0:0:0:
294,242,25868,1,0,0:0:0:0:
376,144,26034,2,0,L|244:44,1,120,2|0,0:0|0:0,0:0:0:0:
88,72,26368,1,2,0:0:0:0:
136,240,26535,1,0,0:0:0:0:
156,140,26702,6,0,P|256:216|384:176,1,240,2|0,0:0|0:0,0:0:0:0:
156,140,27202,1,0,0:0:0:0:
156,140,27368,2,0,P|100:168|80:232,1,120,2|0,0:0|0:0,0:0:0:0:
88,248,27618,1,0,0:0:0:0:
88,248,27702,2,2,L|40:136,1,120
424,136,28035,6,0,L|472:248,1,120,0|2,0:0|0:0,0:0:0:0:
352,64,28368,2,0,L|312:200,1,120,0|2,0:0|0:0,0:0:0:0:
256,328,28701,2,0,P|248:236|224:192,1,120,2|0,0:0|0:0,0:0:0:0:
84,172,29035,1,2,0:0:0:0:
172,304,29202,6,0,L|36:104,1,240,2|0,0:0|0:0,0:0:0:0:
256,192,29702,1,2,0:0:0:0:
340,80,29868,2,2,L|476:280,1,240
352,252,30368,2,0,P|300:200|256:192,1,120
264,280,30702,1,2,0:0:0:0:
224,84,30868,6,0,L|52:256,2,240,2|2|2,0:0|0:0|0:0,0:0:0:0:
280,136,31702,2,0,L|192:224,1,120,2|0,0:0|0:0,0:0:0:0:
264,280,32034,2,2,P|172:300|124:172,1,240
212,52,32535,2,0,P|296:40|344:68,1,120,2|0,0:0|0:0,0:0:0:0:
352,72,32784,1,0,0:0:0:0:
352,72,32868,2,0,L|376:192,1,120,2|0,0:0|0:0,0:0:0:0:
159,312,33202,6,0,L|112:76,1,240,2|0,0:0|0:0,0:0:0:0:
244,292,33702,2,0,P|240:224|296:184,1,120,2|0,0:0|0:0,0:0:0:0:
348,316,34035,2,0,P|388:264|456:272,1,120,2|0,0:0|0:0,0:0:0:0:
420,340,34368,1,2,0:0:0:0:
488,200,34535,2,0,L|256:136,1,240,2|0,0:0|0:0,0:0:0:0:
156,328,35035,2,0,P|140:256|52:204,1,180,2|0,0:0|0:0,0:0:0:0:
53,204,35368,2,0,L|116:92,1,120,2|0,0:0|0:0,0:0:0:0:
260,192,35702,1,2,0:0:0:0:
184,144,35869,6,0,P|296:112|344:224,1,240,2|0,0:0|0:0,0:0:0:0:
376,220,36285,1,0,0:0:0:0:
376,220,36368,2,0,L|408:104,1,120,2|0,0:0|0:0,0:0:0:0:
244,344,36702,2,0,L|480:260,2,240,2|2|2,0:0|0:0|0:0,0:0:0:0:
232,260,37535,6,0,L|96:276,1,120,2|0,0:0|0:0,0:0:0:0:
399,109,37868,2,0,L|280:124,1,120,2|0,0:0|0:0,0:0:0:0:
37,138,38202,2,0,L|148:184,1,120,2|0,0:0|0:0,0:0:0:0:
344,304,38535,6,0,P|296:180|384:120,1,240,2|0,0:0|0:0,0:0:0:0:
384,220,39035,2,2,P|464:264|504:248,1,120
128,164,39368,2,0,P|48:120|8:136,1,120,2|0,0:0|0:0,0:0:0:0:
144,351,39702,1,2,0:0:0:0:
348,140,39868,6,0,L|120:52,1,240,2|2,0:0|0:0,0:0:0:0:
164,244,40368,2,0,L|335:310,1,180,2|0,0:0|0:0,0:0:0:0:
331,308,40702,2,0,P|332:228|376:200,1,120,2|0,0:0|0:0,0:0:0:0:
400,272,41035,1,2,0:0:0:0:
312,144,41202,6,0,P|248:160|104:80,2,240,2|2|2,0:0|0:0|0:0,0:0:0:0:
336,236,42035,2,0,L|88:256,2,240,2|2|2,0:0|0:0|0:0,0:0:0:0:
412,116,42868,5,2,0:0:0:0:
412,116,42952,2,0,L|224:96,1,180,0|2,0:0|0:0,0:0:0:0:
16,172,43368,2,0,P|104:224|104:304,1,180,2|0,0:0|0:0,0:0:0:0:
108,293,43702,2,0,L|192:200,1,120,2|0,0:0|0:0,0:0:0:0:
284,292,44035,2,0,L|404:268,1,120,2|0,0:0|0:0,0:0:0:0:
403,90,44368,2,0,L|320:184,1,120,2|0,0:0|0:0,0:0:0:0:
228,92,44701,2,0,L|108:116,1,120,2|0,0:0|0:0,0:0:0:0:
36,252,45035,5,2,0:0:0:0:
200,176,45202,2,0,P|224:268|356:312,1,240,2|0,0:0|0:0,0:0:0:0:
320,196,45702,2,2,L|116:332,1,240
88,316,46118,1,0,0:0:0:0:
88,316,46202,2,0,P|84:232|24:176,1,120,2|0,0:0|0:0,0:0:0:0:
156,180,46535,2,0,P|184:120|360:136,1,240,2|0,0:0|0:0,0:0:0:0:
220,232,47035,2,0,L|176:356,1,120,2|0,0:0|0:0,0:0:0:0:
308,344,47368,6,0,L|380:116,2,240,2|2|2,0:0|0:0|0:0,0:0:0:0:
220,232,48202,2,0,P|156:184|152:104,1,120,0|2,0:0|0:0,0:0:0:0:
116,296,48535,2,2,P|32:324|16:364,1,120,2|2,0:0|0:0,0:0:0:0:
292,152,48868,2,0,P|356:200|360:280,1,120,0|2,0:0|0:0,0:0:0:0:
420,92,49202,6,0,L|184:52,1,240,2|0,0:0|0:0,0:0:0:0:
192,160,49702,2,0,L|60:192,1,120,2|0,0:0|0:0,0:0:0:0:
320,224,50035,2,0,L|452:192,1,120,2|0,0:0|0:0,0:0:0:0:
168,280,50368,5,2,0:0:0:0:
344,104,50535,2,0,L|100:52,1,240,2|0,0:0|0:0,0:0:0:0:
168,280,51035,2,0,L|412:332,1,240,2|0,0:0|0:0,0:0:0:0:
432,304,51452,1,0,0:0:0:0:
432,304,51535,2,0,P|396:244|408:180,1,120,2|0,0:0|0:0,0:0:0:0:
344,104,51868,2,0,L|100:196,1,240,2|0,0:0|0:0,0:0:0:0:
248,224,52368,2,0,L|136:267,1,120,2|0,0:0|0:0,0:0:0:0:
248,224,52702,6,0,P|356:248|376:352,1,180,2|2,0:0|0:0,0:0:0:0:
382,303,53035,2,0,L|448:72,2,240,2|2|2,0:0|0:0|0:0,0:0:0:0:
316,264,53868,2,0,P|312:176|276:152,1,120,2|2,0:0|0:0,0:0:0:0:
196,120,54202,2,0,P|200:208|236:232,1,120,0|2,0:0|0:0,0:0:0:0:
388,304,54535,2,0,P|408:212|336:88,1,240,2|0,0:0|0:0,0:0:0:0:
124,80,55035,2,0,P|104:172|176:296,1,240,2|0,0:0|0:0,0:0:0:0:
292,344,55535,6,0,L|228:228,1,120,2|2,0:0|0:0,0:0:0:0:
220,40,55868,2,0,L|348:273,1,240,2|0,0:0|0:0,0:0:0:0:
380,168,56368,2,0,P|360:80|400:32,1,120,2|0,0:0|0:0,0:0:0:0:
232,240,56702,2,0,P|140:168|120:32,1,240,2|0,0:0|0:0,0:0:0:0:
16,68,57202,2,0,L|88:336,1,240,2|0,0:0|0:0,0:0:0:0:
496,316,57702,2,2,L|460:192,1,120
340,48,58035,6,0,P|312:224|332:288,2,240,2|2|2,0:0|0:0|0:0,0:0:0:0:
204,68,58868,2,0,P|160:132|104:128,1,120,2|2,0:0|0:0,0:0:0:0:
224,192,59202,2,2,L|160:296,1,120
328,296,59535,5,0,0:0:0:0:
424,136,59702,1,2,0:0:0:0:
464,284,59868,1,0,0:0:0:0:
332,132,60035,2,0,P|288:80|296:16,1,120,2|0,0:0|0:0,0:0:0:0:
192,132,60368,2,0,P|124:112|64:148,2,120,2|0|2,0:0|0:0|0:0,0:0:0:0:
104,296,60868,5,2,0:0:0:0:
148,212,61034,1,2,0:0:0:0:
232,52,61202,2,0,P|300:108|232:244,1,240,2|0,0:0|0:0,0:0:0:0:
208,144,61702,2,0,P|295:135|343:279,2,240,2|2|2,0:0|0:0|0:0,0:0:0:0:
236,244,62535,2,0,L|384:56,1,240,2|0,0:0|0:0,0:0:0:0:
368,248,63035,2,0,L|448:144,1,120,2|0,0:0|0:0,0:0:0:0:
144,136,63368,2,0,L|64:240,1,120,2|0,0:0|0:0,0:0:0:0:
344,128,63702,2,0,P|308:56|244:36,1,120,2|0,0:0|0:0,0:0:0:0:
132,248,64035,6,0,L|336:292,1,192,2|0,0:0|0:0,0:0:0:0:
380,136,64701,2,0,L|176:92,1,192,2|0,0:0|0:0,0:0:0:0:
52,204,65368,6,0,P|48:284|124:328,1,143.999995605469,2|0,0:0|0:0,0:0:0:0:
460,180,66034,2,0,P|464:100|388:56,1,143.999995605469,2|0,0:0|0:0,0:0:0:0:
392,136,66702,6,0,L|32:40,1,360,2|0,0:0|0:0,0:0:0:0:
120,248,67868,2,0,L|480:344,1,360,2|0,0:0|0:0,0:0:0:0:
461,323,69035,2,0,P|428:264|468:188,1,120,2|0,0:0|0:0,0:0:0:0:
328,176,69368,2,0,L|412:60,1,120,2|0,0:0|0:0,0:0:0:0:
184,208,69702,2,0,L|100:324,1,120,2|0,0:0|0:0,0:0:0:0:
216,108,70035,2,0,P|160:48|96:44,1,120,2|0,0:0|0:0,0:0:0:0:
296,276,70368,5,2,0:0:0:0:
456,232,70535,2,0,P|364:156|404:32,1,240,2|0,0:0|0:0,0:0:0:0:
456,136,71035,2,0,L|216:108,1,240,2|0,0:0|0:0,0:0:0:0:
88,72,71535,2,0,P|100:168|136:192,1,120,0|2,0:0|0:0,0:0:0:0:
424,312,71868,2,0,P|412:216|376:192,1,120,0|2,0:0|0:0,0:0:0:0:
208,188,72202,6,0,L|92:272,1,120,0|2,0:0|0:0,0:0:0:0:
304,196,72535,2,0,L|420:112,1,120,0|2,0:0|0:0,0:0:0:0:
120,148,72868,2,0,P|32:168|4:112,1,120,0|2,0:0|0:0,0:0:0:0:
392,236,73202,2,0,P|480:216|508:272,1,120,0|2,0:0|0:0,0:0:0:0:
480,128,73535,2,0,L|348:80,1,120,0|2,0:0|0:0,0:0:0:0:
32,256,73868,1,2,0:0:0:0:
372,328,74035,6,0,P|296:192|308:92,1,240,2|2,0:0|0:0,0:0:0:0:
140,56,74702,2,0,P|216:192|204:292,1,240,2|2,0:0|0:0,0:0:0:0:
120,180,75202,2,0,P|108:244|52:304,1,120,2|2,0:0|0:0,0:0:0:0:
392,204,75535,2,0,P|404:140|460:80,1,120,2|2,0:0|0:0,0:0:0:0:
296,124,75868,2,0,P|256:56|204:40,1,120,2|2,0:0|0:0,0:0:0:0:
300,248,76202,5,2,0:0:0:0:
184,164,76368,1,0,0:0:0:0:
160,296,76535,5,2,0:0:0:0:
112,88,76702,1,0,0:0:0:0:
16,280,76868,5,2,0:0:0:0:
40,28,77035,1,0,0:0:0:0:
292,64,77202,1,2,0:0:0:0:
176,232,77368,6,0,P|220:292|372:256,1,240,2|0,0:0|0:0,0:0:0:0:
336,152,77868,2,0,P|292:92|140:128,2,240,2|2|2,0:0|0:0|0:0,0:0:0:0:
236,156,78702,5,0,0:0:0:0:
276,224,78868,1,2,0:0:0:0:
309,121,79035,5,0,0:0:0:0:
202,262,79201,1,2,0:0:0:0:
391,225,79368,5,0,0:0:0:0:
120,158,79534,1,2,0:0:0:0:
391,225,79702,1,0,0:0:0:0:
120,158,79868,1,2,0:0:0:0:
68,280,80035,6,0,L|40:344,1,60,4|0,0:0|0:0,0:0:0:0:
112,284,80202,2,0,L|112:356,1,60
160,272,80368,2,0,L|180:336,1,60
196,248,80535,2,0,L|240:304,1,60
216,204,80702,2,0,L|176:148,1,60
260,176,80868,2,0,L|240:96,1,60
316,160,81035,2,0,L|324:84,1,60
376,168,81202,2,0,L|416:116,1,60
400,200,81368,5,4,0:0:0:0:
412,240,81452,1,0,0:0:0:0:
392,276,81535,1,0,0:0:0:0:
356,296,81618,1,0,0:0:0:0:
316,284,81702,5,0,0:0:0:0:
284,256,81785,1,0,0:0:0:0:
264,220,81868,1,0,0:0:0:0:
252,180,81952,1,0,0:0:0:0:
232,144,82035,5,0,0:0:0:0:
240,104,82118,1,0,0:0:0:0:
200,96,82202,1,0,0:0:0:0:
160,88,82285,1,0,0:0:0:0:
120,80,82368,6,0,L|44:68,4,60
108,296,83035,2,0,L|124:324,8,30,0|0|0|0|0|0|0|0|4,0:0|0:0|0:0|0:0|0:0|0:0|0:0|0:0|0:0,0:0:0:0:
372,112,83702,1,0,0:0:0:0:
404,276,84035,6,0,P|268:244|212:112,1,240
217,165,84452,2,0,L|200:232,3,60
312,136,85035,1,0,0:0:0:0:
112,188,85368,6,0,P|72:108|16:88,1,120,0|0,0:0|0:0,0:0:0:0:
400,196,85702,2,0,P|440:276|496:296,1,120
368,96,86035,2,0,P|308:152|308:212,1,120
144,288,86368,2,0,P|204:232|204:172,1,120
104,48,86702,2,0,L|64:184,1,120
408,336,87035,2,0,L|448:200,1,120
320,160,87368,2,0,P|300:88|248:32,1,120
192,224,87702,2,0,P|212:296|264:352,1,120
236,132,88035,6,0,P|152:136|120:96,1,120
276,252,88368,2,0,P|360:248|392:288,1,120
356,88,88702,2,0,P|440:128|460:200,1,120
156,296,89035,2,0,P|72:256|52:184,2,120
352,320,89535,5,0,0:0:0:0:
420,252,89702,1,0,0:0:0:0:
320,248,89868,5,0,0:0:0:0:
360,92,90035,1,0,0:0:0:0:
260,204,90202,5,0,0:0:0:0:
216,16,90368,1,0,0:0:0:0:
56,176,90535,1,0,0:0:0:0:
176,128,90702,2,0,L|136:264,1,120
336,256,91035,2,0,L|376:120,1,120
416,48,91368,2,0,P|308:64|296:96,1,120
252,320,91702,6,0,P|184:248|184:200,1,120
336,256,92035,2,0,P|360:196|428:172,1,120,0|0,0:0|0:0,0:0:0:0:
176,128,92368,2,0,P|152:188|84:212,1,120
28,148,92702,1,0,0:0:0:0:
216,256,92868,1,0,0:0:0:0:
344,80,93035,1,0,0:0:0:0:
109,11,93202,1,0,0:0:0:0:
184,215,93368,5,0,0:0:0:0:
395,162,93535,1,0,0:0:0:0:
336,332,93702,2,0,P|304:264|320:200,1,120
176,52,94035,2,0,P|208:120|192:184,1,120
24,192,94368,2,0,P|80:248|84:304,1,120
264,256,94702,2,0,P|328:284|432:240,1,180
432,236,95035,1,0,0:0:0:0:
380,76,95202,2,0,P|300:104|248:104,1,120
132,308,95535,2,0,P|212:280|264:280,1,120
356,316,95868,2,0,P|360:256|408:192,1,120
212,144,96202,5,0,0:0:0:0:
284,56,96368,1,0,0:0:0:0:
292,212,96535,1,0,0:0:0:0:
80,180,96702,1,0,0:0:0:0:
168,272,96868,2,0,P|244:296|264:344,1,120
280,124,97202,2,0,P|348:120|400:160,1,120
152,192,97535,2,0,P|84:168|64:112,1,120
228,40,97868,2,0,P|240:120|224:152,1,120
232,276,98202,2,0,L|344:208,1,120
280,108,98535,2,0,L|70:235,1,240
148,328,99035,5,0,0:0:0:0:
404,268,99202,1,0,0:0:0:0:
272,304,99368,1,0,0:0:0:0:
384,116,99535,1,0,0:0:0:0:
404,268,99702,1,0,0:0:0:0:
300,192,99868,2,0,P|248:136|236:80,1,120
84,76,100201,6,0,P|104:148|88:200,1,120
216,336,100534,2,0,L|236:200,1,120
360,64,100868,2,0,P|364:120|388:200,2,120
452,264,101368,5,0,0:0:0:0:
228,92,101535,1,0,0:0:0:0:
308,292,101702,1,0,0:0:0:0:
344,76,101868,1,0,0:0:0:0:
300,184,102035,1,0,0:0:0:0:
180,208,102202,1,0,0:0:0:0:
60,72,102368,2,0,P|96:132|84:196,1,120
196,344,102702,2,0,P|240:280|300:260,1,120
316,40,103035,2,0,P|272:104|212:124,1,120
40,184,103368,2,0,L|80:304,1,120
268,240,103702,1,0,0:0:0:0:
184,136,103868,1,0,0:0:0:0:
360,84,104035,6,0,P|336:148|420:296,1,240
452,164,104535,1,0,0:0:0:0:
360,84,104702,2,0,P|264:152|104:140,1,240
56,56,105202,1,0,0:0:0:0:
145,155,105368,2,0,P|144:248|44:296,1,180
78,295,105702,2,0,L|136:324,4,60
304,268,106368,5,0,0:0:0:0:
300,84,106702,6,0,L|332:140,1,60
260,100,106868,2,0,L|272:168,1,60
216,100,107035,2,0,P|148:84|96:104,1,120
80,112,107285,1,0,0:0:0:0:
60,136,107368,1,0,0:0:0:0:
120,288,107535,2,0,L|184:248,1,60
320,336,107785,2,0,L|336:256,2,60
448,200,108118,5,0,0:0:0:0:
444,168,108202,1,0,0:0:0:0:
428,144,108285,1,0,0:0:0:0:
404,128,108368,1,0,0:0:0:0:
376,124,108452,1,0,0:0:0:0:
348,132,108535,1,0,0:0:0:0:
324,148,108618,2,0,L|348:64,1,60
168,236,108868,2,0,P|136:224|104:200,1,60
176,44,109118,2,0,P|200:56|232:84,3,60
40,204,109535,5,0,0:0:0:0:
52,232,109618,1,0,0:0:0:0:
72,256,109702,1,0,0:0:0:0:
96,272,109785,1,0,0:0:0:0:
124,280,109868,1,0,0:0:0:0:
156,284,109952,1,0,0:0:0:0:
184,280,110035,1,0,0:0:0:0:
312,236,110202,5,0,0:0:0:0:
340,224,110285,1,0,0:0:0:0:
368,220,110368,1,0,0:0:0:0:
400,224,110452,1,0,0:0:0:0:
428,232,110535,1,0,0:0:0:0:
452,252,110618,1,0,0:0:0:0:
468,280,110702,1,0,0:0:0:0:
472,308,110785,1,0,0:0:0:0:
360,328,110952,6,0,L|296:340,1,60
228,212,111202,2,0,L|160:164,1,60
276,80,111452,2,0,L|272:8,1,60
324,92,111618,2,0,L|364:48,1,60
360,128,111785,2,0,L|432:100,1,60
376,184,111952,2,0,L|436:188,1,60
140,76,112202,6,0,L|72:88,1,60
148,192,112452,2,0,L|220:232,1,60
96,292,112702,2,0,L|36:252,1,60
292,316,112951,1,0,0:0:0:0:
296,288,113034,1,0,0:0:0:0:
308,260,113118,1,0,0:0:0:0:
328,240,113201,1,0,0:0:0:0:
356,228,113285,1,0,0:0:0:0:
260,168,113452,5,0,0:0:0:0:
252,140,113535,1,0,0:0:0:0:
228,120,113618,1,0,0:0:0:0:
196,116,113702,1,0,0:0:0:0:
168,124,113785,1,0,0:0:0:0:
140,136,113868,1,0,0:0:0:0:
108,132,113952,1,0,0:0:0:0:
84,116,114035,1,0,0:0:0:0:
68,88,114118,1,0,0:0:0:0:
64,220,114285,2,0,L|-8:228,1,60
128,284,114535,2,0,L|88:336,1,60
248,272,114785,5,0,0:0:0:0:
240,244,114868,1,0,0:0:0:0:
240,212,114952,1,0,0:0:0:0:
256,180,115035,1,0,0:0:0:0:
288,160,115118,1,0,0:0:0:0:
324,156,115202,1,0,0:0:0:0:
352,136,115285,1,0,0:0:0:0:
368,104,115368,1,0,0:0:0:0:
240,80,115535,2,0,L|160:64,1,60
108,176,115785,6,0,L|48:200,1,60
120,224,115952,1,0,0:0:0:0:
152,260,116035,1,0,0:0:0:0:
196,276,116118,1,0,0:0:0:0:
232,268,116202,1,0,0:0:0:0:
264,252,116285,1,0,0:0:0:0:
296,232,116368,1,0,0:0:0:0:
332,228,116452,1,0,0:0:0:0:
360,240,116535,1,0,0:0:0:0:
384,260,116618,1,0,0:0:0:0:
392,284,116702,1,0,0:0:0:0:
456,188,116868,2,0,L|440:112,1,60
356,124,117035,2,0,L|296:56,2,60
224,148,117368,6,0,P|216:184|216:220,1,60
64,336,117618,2,0,P|80:264|76:244,1,60
96,344,117785,1,0,0:0:0:0:
124,336,117868,1,0,0:0:0:0:
148,320,117952,1,0,0:0:0:0:
160,292,118035,1,0,0:0:0:0:
340,288,118202,2,0,L|324:224,1,60
120,72,118452,1,0,0:0:0:0:
112,100,118535,1,0,0:0:0:0:
116,128,118618,1,0,0:0:0:0:
232,200,118785,5,0,0:0:0:0:
236,172,118868,1,0,0:0:0:0:
256,148,118952,1,0,0:0:0:0:
284,132,119035,1,0,0:0:0:0:
312,128,119118,1,0,0:0:0:0:
376,200,119285,2,0,P|404:200|432:216,1,60
236,56,119535,2,0,P|184:96|168:96,1,60
60,260,119785,1,0,0:0:0:0:
84,240,119868,1,0,0:0:0:0:
112,228,119952,1,0,0:0:0:0:
240,308,120118,5,0,0:0:0:0:
236,280,120202,1,0,0:0:0:0:
236,252,120285,1,0,0:0:0:0:
244,224,120368,1,0,0:0:0:0:
260,200,120452,1,0,0:0:0:0:
280,176,120535,1,0,0:0:0:0:
304,156,120618,1,0,0:0:0:0:
332,144,120702,1,0,0:0:0:0:
360,252,120868,2,0,P|340:276|328:320,1,60
192,128,121118,1,0,0:0:0:0:
164,120,121202,1,0,0:0:0:0:
136,120,121285,1,0,0:0:0:0:
112,228,121452,6,0,L|48:248,1,60
124,260,121618,2,0,L|76:312,1,60
160,280,121785,2,0,L|140:340,1,60
200,284,121952,2,0,L|208:344,1,60
284,216,122202,2,0,P|340:192|368:192,2,60
248,152,122452,2,0,P|208:144|168:152,2,60
296,96,122702,1,0,0:0:0:0:
156,64,122868,6,0,P|92:100|32:96,1,120
52,128,123118,1,0,0:0:0:0:
60,156,123202,1,0,0:0:0:0:
68,184,123285,1,0,0:0:0:0:
76,212,123368,1,0,0:0:0:0:
160,336,123535,2,0,P|172:288|200:256,1,60
248,56,123785,1,0,0:0:0:0:
244,84,123868,1,0,0:0:0:0:
248,112,123952,1,0,0:0:0:0:
392,212,124118,5,0,0:0:0:0:
372,236,124202,1,0,0:0:0:0:
348,252,124285,1,0,0:0:0:0:
320,264,124368,1,0,0:0:0:0:
288,268,124452,1,0,0:0:0:0:
260,268,124535,1,0,0:0:0:0:
232,256,124618,1,0,0:0:0:0:
208,240,124702,1,0,0:0:0:0:
112,104,124868,2,0,P|56:92|32:96,1,60
80,248,125118,2,0,P|64:288|64:324,2,60
108,252,125368,5,0,0:0:0:0:
136,248,125452,1,0,0:0:0:0:
164,240,125535,1,0,0:0:0:0:
188,224,125618,1,0,0:0:0:0:
208,204,125702,1,0,0:0:0:0:
224,180,125785,1,0,0:0:0:0:
236,152,125868,1,0,0:0:0:0:
252,124,125952,1,0,0:0:0:0:
272,100,126035,5,0,0:0:0:0:
296,84,126118,1,0,0:0:0:0:
324,76,126202,1,0,0:0:0:0:
352,76,126285,1,0,0:0:0:0:
380,88,126368,1,0,0:0:0:0:
400,108,126452,1,0,0:0:0:0:
412,136,126535,1,0,0:0:0:0:
412,164,126618,1,0,0:0:0:0:
400,192,126702,5,0,0:0:0:0:
384,216,126785,1,0,0:0:0:0:
356,228,126868,1,0,0:0:0:0:
324,232,126952,1,0,0:0:0:0:
296,228,127035,1,0,0:0:0:0:
272,212,127118,1,0,0:0:0:0:
252,192,127202,1,0,0:0:0:0:
232,172,127285,1,0,0:0:0:0:
208,156,127368,5,0,0:0:0:0:
184,140,127452,1,0,0:0:0:0:
156,132,127535,1,0,0:0:0:0:
128,128,127618,1,0,0:0:0:0:
100,132,127702,1,0,0:0:0:0:
76,148,127785,1,0,0:0:0:0:
52,168,127868,1,0,0:0:0:0:
36,196,127952,1,0,0:0:0:0:
28,224,128035,5,0,0:0:0:0:
200,336,128368,1,0,0:0:0:0:
372,224,128618,1,0,0:0:0:0:
372,224,128702,2,0,P|300:180|284:108,1,120
300,48,129035,1,0,0:0:0:0:
176,48,129202,6,0,P|132:160|164:272,1,240
408,60,129702,2,0,P|452:164|460:204,1,120
104,324,130035,2,0,P|60:220|52:180,1,120
96,80,130368,1,0,0:0:0:0:
192,228,130535,6,0,P|240:152|388:136,1,240
452,276,131035,1,0,0:0:0:0:
452,276,131118,1,0,0:0:0:0:
452,276,131202,2,0,P|368:232|324:236,1,120
256,128,131535,6,0,P|164:80|140:40,1,120
76,256,131868,2,0,P|172:304|312:268,1,240
436,128,132368,1,0,0:0:0:0:
408,116,132452,1,0,0:0:0:0:
380,108,132535,1,0,0:0:0:0:
352,108,132618,1,0,0:0:0:0:
320,112,132702,1,0,0:0:0:0:
152,80,132868,1,0,0:0:0:0:
144,176,133035,2,0,P|44:156|4:112,1,120
368,208,133368,6,0,P|468:228|508:272,1,120
248,252,133702,2,0,P|188:304|72:280,1,180
92,295,134035,2,0,L|32:152,1,120
419,88,134368,1,0,0:0:0:0:
352,264,134535,2,0,P|332:152|236:60,1,240
160,120,135035,2,0,P|180:232|276:324,1,240
464,260,135535,6,0,P|416:176|408:116,1,120
264,72,135868,1,0,0:0:0:0:
264,72,135952,1,0,0:0:0:0:
264,72,136035,2,0,P|256:168|156:268,1,240
40,136,136535,2,0,P|76:148|116:152,2,60
288,288,136868,1,0,0:0:0:0:
308,268,136951,1,0,0:0:0:0:
332,252,137035,1,0,0:0:0:0:
360,244,137118,1,0,0:0:0:0:
392,240,137202,1,0,0:0:0:0:
408,132,137368,2,0,P|304:148|184:96,1,240
136,192,137868,2,0,P|80:148|56:88,1,120
256,112,138202,1,0,0:0:0:0:
376,192,138368,6,0,P|432:236|456:296,1,120
452,278,138702,5,0,0:0:0:0:
276,332,138868,1,0,0:0:0:0:
276,332,139035,2,0,P|264:272|308:200,1,120
288,212,139285,1,0,0:0:0:0:
128,136,139535,6,0,P|76:176|4:172,1,120
204,240,139868,2,0,P|220:140|356:80,1,240
452,136,140368,2,0,P|472:196|412:260,1,120
380,320,140702,6,0,P|296:284|228:296,1,120
68,264,141035,1,0,0:0:0:0:
88,68,141202,2,0,P|156:108|156:284,1,240
160,284,141618,1,0,0:0:0:0:
144,312,141702,1,0,0:0:0:0:
132,336,141785,1,0,0:0:0:0:
256,332,142035,6,0,P|296:264|444:212,1,240
440,124,142535,2,0,L|204:64,1,240
80,152,143035,1,0,0:0:0:0:
80,152,143118,1,0,0:0:0:0:
80,152,143202,2,0,P|180:168|196:184,1,120
180,328,143535,6,0,P|256:264|320:268,1,120
388,336,143868,1,0,0:0:0:0:
404,168,144035,2,0,P|364:112|184:64,1,240
76,228,144618,1,0,0:0:0:0:
76,228,144702,2,0,P|208:216|232:224,1,120
288,308,145035,1,0,0:0:0:0:
248,168,145202,2,0,P|280:76|432:96,1,240
344,144,145702,2,0,P|336:216|300:248,1,120
276,260,145952,1,0,0:0:0:0:
240,264,146035,1,0,0:0:0:0:
96,84,146202,1,0,0:0:0:0:
344,144,146368,2,0,P|432:160|460:208,1,120
408,304,146702,5,0,0:0:0:0:
378,307,146785,1,0,0:0:0:0:
348,305,146868,1,0,0:0:0:0:
320,295,146951,1,0,0:0:0:0:
294,279,147035,5,0,0:0:0:0:
273,258,147118,1,0,0:0:0:0:
257,233,147201,1,0,0:0:0:0:
247,205,147285,1,0,0:0:0:0:
244,175,147368,5,0,0:0:0:0:
244,139,147451,1,0,0:0:0:0:
232,105,147534,1,0,0:0:0:0:
211,76,147617,1,0,0:0:0:0:
182,55,147701,5,0,0:0:0:0:
148,43,147784,1,0,0:0:0:0:
113,43,147867,1,0,0:0:0:0:
78,53,147951,1,0,0:0:0:0:
49,73,148035,5,0,0:0:0:0:
22,105,148118,1,0,0:0:0:0:
9,145,148201,1,0,0:0:0:0:
10,187,148284,1,0,0:0:0:0:
27,225,148368,6,0,L|4:244,7,30
60,252,148702,1,0,0:0:0:0:
100,264,148785,1,0,0:0:0:0:
144,264,148869,1,0,0:0:0:0:
184,248,148952,1,0,0:0:0:0:
212,220,149035,1,0,0:0:0:0:
140,88,170702,6,0,P|76:164|80:228,1,120
372,296,171035,6,0,P|442:212|438:142,1,180
439,146,171368,2,0,L|304:72,1,120
72,237,171702,1,0,0:0:0:0:
72,237,171868,6,0,P|172:312|320:292,1,240
240,184,172368,1,0,0:0:0:0:
240,184,172535,2,0,P|304:148|332:88,1,120
140,168,172868,2,0,P|148:228|216:284,1,120
344,232,173202,1,0,0:0:0:0:
344,232,173368,2,0,P|324:160|372:84,1,120
360,96,173618,1,0,0:0:0:0:
360,96,173702,2,0,L|240:68,1,120
152,288,174035,6,0,L|386:342,1,240
248,224,174535,2,0,L|120:192,1,120
131,194,174785,1,0,0:0:0:0:
131,194,174868,2,0,P|120:132|72:96,1,120
380,189,175202,2,0,P|392:252|440:288,1,120
304,120,175535,2,0,P|224:72|164:80,1,120
131,194,175868,5,0,0:0:0:0:
308,328,176035,1,0,0:0:0:0:
308,328,176201,1,0,0:0:0:0:
308,328,176368,2,0,P|316:268|368:216,1,120
353,224,176618,2,0,L|176:132,1,180
128,196,177035,6,0,P|44:185|-3:217,1,120
92,360,177368,1,0,0:0:0:0:
92,360,177535,2,0,P|160:304|164:256,1,120
232,96,177868,2,0,P|296:72|368:88,1,120
356,208,178201,2,0,L|280:324,1,120
260,312,178451,1,0,0:0:0:0:
260,312,178535,2,0,P|200:280|104:272,1,120
252,72,178868,6,0,P|312:104|408:112,1,120
352,156,179118,1,0,0:0:0:0:
340,196,179201,1,0,0:0:0:0:
328,236,179285,1,0,0:0:0:0:
316,276,179368,1,0,0:0:0:0:
224,208,179535,5,0,0:0:0:0:
192,180,179618,1,0,0:0:0:0:
152,172,179701,1,0,0:0:0:0:
112,180,179785,1,0,0:0:0:0:
76,200,179868,1,0,0:0:0:0:
204,288,180035,2,0,P|288:256|288:160,1,180
296,175,180368,2,0,L|408:100,1,120
215,208,180701,2,0,L|11:346,2,240
300,224,181535,6,0,P|400:268|424:296,1,120
240,152,181868,2,0,P|284:52|312:28,1,120
268,24,182118,1,0,0:0:0:0:
268,24,182201,2,0,L|140:60,1,120
100,344,182535,2,0,L|192:120,1,240
412,40,183035,1,0,0:0:0:0:
392,72,183118,1,0,0:0:0:0:
374,120,183201,1,0,0:0:0:0:
374,165,183284,1,0,0:0:0:0:
386,208,183368,1,0,0:0:0:0:
252,256,183535,6,0,L|208:200,1,60
252,256,183701,2,0,P|196:236|104:264,1,120
240,56,184035,1,0,0:0:0:0:
112,172,184201,1,0,0:0:0:0:
224,152,184368,1,0,0:0:0:0:
56,92,184535,1,0,0:0:0:0:
272,328,184701,1,0,0:0:0:0:
400,212,184867,1,0,0:0:0:0:
288,232,185034,1,0,0:0:0:0:
456,292,185201,1,0,0:0:0:0:
352,140,185368,2,0,P|268:100|208:112,1,120
160,244,185701,1,0,0:0:0:0:
209,276,185784,1,0,0:0:0:0:
268,282,185867,1,0,0:0:0:0:
212,60,186035,6,0,P|112:100|64:252,1,240
352,136,186701,2,0,L|424:108,15,60
276,176,188035,2,0,P|224:160|200:160,15,60
344,212,189368,1,0,0:0:0:0:
324,248,189451,1,0,0:0:0:0:
292,276,189535,1,0,0:0:0:0:
252,288,189618,1,0,0:0:0:0:
212,284,189701,2,0,L|256:332,4,60
268,88,190368,1,0,0:0:0:0:
72,120,190701,1,0,0:0:0:0:
408,192,191035,2,0,L|444:248,3,60
408,192,191368,2,0,P|388:252|220:312,1,240
120,224,192035,6,0,P|152:152|124:96,1,120
244,60,192368,2,0,P|264:124|364:200,1,180
348,195,192701,2,0,L|280:304,1,120
112,340,193035,1,0,0:0:0:0:
120,136,193201,2,0,P|200:152|360:84,1,240
448,200,193701,2,0,L|384:328,1,120
64,184,194035,6,0,L|128:56,1,120
236,128,194368,1,0,0:0:0:0:
348,55,194535,2,0,L|455:270,1,240
304,284,195035,1,0,0:0:0:0:
268,264,195118,1,0,0:0:0:0:
228,260,195201,1,0,0:0:0:0:
144,144,195368,6,0,P|80:156|24:216,1,120
368,240,195701,2,0,P|432:228|488:168,1,120
228,260,196035,2,0,L|120:352,1,120
284,124,196368,2,0,L|392:32,1,120
368,240,196701,1,0,0:0:0:0:
328,256,196785,1,0,0:0:0:0:
288,264,196868,1,0,0:0:0:0:
248,264,196951,1,0,0:0:0:0:
208,252,197035,1,0,0:0:0:0:
88,148,197201,1,0,0:0:0:0:
200,132,197368,6,0,L|300:52,1,120
312,252,197701,2,0,L|212:332,1,120
180,320,197951,1,0,0:0:0:0:
180,320,198035,2,0,P|156:252|76:192,1,120
352,156,198368,1,0,0:0:0:0:
248,152,198535,2,0,P|276:92|440:100,1,240
460,180,199035,2,0,P|432:240|268:232,1,240
136,196,199535,1,0,0:0:0:0:
136,196,199701,2,0,P|52:192|16:216,1,120
224,92,200035,5,0,0:0:0:0:
224,92,200201,2,0,P|132:64|72:80,1,120
344,160,200535,1,0,0:0:0:0:
368,196,200618,1,0,0:0:0:0:
380,236,200701,1,0,0:0:0:0:
240,296,200868,1,0,0:0:0:0:
208,268,200951,1,0,0:0:0:0:
168,260,201035,1,0,0:0:0:0:
128,264,201118,1,0,0:0:0:0:
88,280,201201,1,0,0:0:0:0:
92,152,201368,1,0,0:0:0:0:
224,92,201535,1,0,0:0:0:0:
380,128,201701,2,0,P|336:176|320:272,1,120
312,256,201951,1,0,0:0:0:0:
312,256,202035,2,0,L|60:312,2,240
380,128,202868,5,0,0:0:0:0:
144,220,203035,2,0,P|124:160|4:116,1,180
24,100,203368,2,0,L|160:72,1,120
296,160,203701,1,0,0:0:0:0:
408,260,203868,2,0,L|176:327,1,240
96,224,204368,1,0,0:0:0:0:
204,108,204535,1,0,0:0:0:0:
368,192,204701,1,0,0:0:0:0:
356,72,204868,1,0,0:0:0:0:
232,256,205035,1,0,0:0:0:0:
56,104,205201,6,0,L|292:148,1,240
312,180,205618,1,0,0:0:0:0:
312,180,205701,2,0,P|288:252|320:316,1,120
128,320,206035,6,0,P|104:264|32:224,1,120
188,208,206368,2,0,P|192:132|248:72,1,120
292,80,206618,1,0,0:0:0:0:
292,80,206701,2,0,P|360:148|364:200,1,120
320,304,207035,1,0,0:0:0:0:
448,256,207201,1,0,0:0:0:0:
244,212,207368,2,0,P|216:152|40:128,1,240
144,204,207868,1,0,0:0:0:0:
244,308,208035,5,0,0:0:0:0:
368,180,208201,2,0,P|336:108|280:88,1,120
320,260,208535,2,0,P|372:312|456:340,1,120
192,124,208868,2,0,P|140:72|56:44,1,120
308,120,209201,1,0,0:0:0:0:
204,264,209368,1,0,0:0:0:0:
356,192,209535,1,0,0:0:0:0:
156,192,209701,1,0,0:0:0:0:
308,264,209868,1,0,0:0:0:0:
204,120,210035,6,0,P|92:92|16:196,1,240
308,264,210535,2,0,P|420:292|496:188,1,240
420,88,211035,5,0,0:0:0:0:
420,88,211201,2,0,P|312:64|276:92,1,120
196,244,211535,1,0,0:0:0:0:
196,244,211701,2,0,P|140:208|128:116,1,120
256,136,212035,2,0,P|300:92|384:100,1,120
320,248,212368,1,0,0:0:0:0:
347,258,212451,1,0,0:0:0:0:
370,277,212534,1,0,0:0:0:0:
386,303,212617,1,0,0:0:0:0:
394,331,212701,1,0,0:0:0:0:
424,184,212868,2,0,P|400:128|416:56,1,120
84,188,213367,5,0,0:0:0:0:
140,76,213535,1,0,0:0:0:0:
204,184,213701,2,0,L|260:356,1,180
296,348,214035,2,0,P|304:296|364:252,1,120
400,344,214368,1,0,0:0:0:0:
296,100,214535,2,0,P|212:72|124:184,1,240
148,292,215035,1,0,0:0:0:0:
176,324,215118,1,0,0:0:0:0:
216,332,215201,1,0,0:0:0:0:
416,264,215368,6,0,P|320:228|288:180,1,120
244,56,215701,2,0,P|204:124|116:160,1,120
44,284,216035,1,0,0:0:0:0:
272,212,216201,1,0,0:0:0:0:
60,160,216368,1,0,0:0:0:0:
60,160,216451,1,0,0:0:0:0:
60,160,216535,1,0,0:0:0:0:
272,212,216701,6,0,P|332:136|464:172,1,240
480,256,217201,2,0,P|420:332|288:296,1,240
376,240,217701,1,0,0:0:0:0:
364,200,217785,1,0,0:0:0:0:
352,160,217868,1,0,0:0:0:0:
256,40,218035,2,0,L|228:160,1,120
152,328,218368,2,0,L|104:188,1,120
224,256,218701,6,0,P|252:320|408:308,1,240
384,80,219285,1,0,0:0:0:0:
384,80,219368,2,0,P|352:132|264:152,1,120
156,104,219701,2,0,P|80:108|36:168,1,120
40,160,219951,1,0,0:0:0:0:
40,160,220035,6,0,L|63:285,1,120
248,320,220368,1,0,0:0:0:0:
344,136,220535,1,0,0:0:0:0:
364,280,220701,1,0,0:0:0:0:
424,68,220868,1,0,0:0:0:0:
176,152,221035,1,0,0:0:0:0:
280,224,221201,1,0,0:0:0:0:
224,60,221368,6,0,P|164:52|76:128,1,180
72,144,221701,1,0,0:0:0:0:
156,320,221868,1,0,0:0:0:0:
156,320,221951,1,0,0:0:0:0:
228,176,222118,1,0,0:0:0:0:
248,146,222201,1,0,0:0:0:0:
277,124,222284,1,0,0:0:0:0:
310,111,222367,1,0,0:0:0:0:
346,108,222451,1,0,0:0:0:0:
381,116,222534,1,0,0:0:0:0:
324,208,222701,6,0,P|236:272|108:184,1,240
104,64,223201,1,0,0:0:0:0:
104,64,223285,1,0,0:0:0:0:
104,64,223368,1,0,0:0:0:0:
381,116,223701,1,0,0:0:0:0:
308,248,224035,6,0,P|364:288|376:364,1,120
256,136,224368,2,0,P|276:72|352:48,1,120
324,48,224618,1,0,0:0:0:0:
328,48,224701,1,0,0:0:0:0:
196,236,224868,2,0,P|144:272|52:248,1,120
120,168,225201,6,0,P|196:132|336:184,1,240
364,320,225701,1,0,0:0:0:0:
448,156,225868,1,0,0:0:0:0:
196,236,226035,1,0,0:0:0:0:
464,148,226201,1,0,0:0:0:0:
280,280,226368,1,0,0:0:0:0:
168,332,226535,6,0,P|96:284|144:148,1,240
196,236,227035,1,0,0:0:0:0:
228,200,227118,1,0,0:0:0:0:
244,156,227201,1,0,0:0:0:0:
308,56,227368,2,0,P|328:168|424:264,1,240
143,329,227868,2,0,P|254:288|364:328,1,240
204,56,228368,2,0,P|184:168|99:257,1,240
144,332,228868,1,0,0:0:0:0:
144,332,229035,2,0,L|264:256,1,120
376,104,229368,6,0,L|272:176,1,120
120,240,229701,2,0,P|56:180|80:104,1,120
54,153,229951,2,0,L|208:48,1,180
336,312,230368,1,0,0:0:0:0:
312,124,230535,6,0,P|372:124|436:276,1,240
328,236,231035,2,0,P|268:236|204:84,1,240
72,88,231535,1,0,0:0:0:0:
152,324,231701,1,0,0:0:0:0:
384,176,231868,1,0,0:0:0:0:
224,112,232035,5,0,0:0:0:0:
224,112,232201,1,0,0:0:0:0:
224,112,232368,2,0,P|176:176|188:236,1,120
180,228,232618,1,0,0:0:0:0:
312,328,232868,1,0,0:0:0:0:
314,283,232951,1,0,0:0:0:0:
334,243,233034,1,0,0:0:0:0:
368,214,233117,1,0,0:0:0:0:
410,200,233201,1,0,0:0:0:0:
428,104,233368,6,0,P|368:104|304:72,1,120
216,156,233701,2,0,P|148:144|96:172,1,120
92,176,233951,1,0,0:0:0:0:
84,192,234035,1,0,0:0:0:0:
160,328,234368,5,0,0:0:0:0:
88,68,234701,6,0,P|192:60|292:176,1,240
226,235,235201,2,0,P|320:324|424:316,1,240
408,108,235701,5,0,0:0:0:0:
180,60,235868,2,0,P|112:92|124:248,1,240
216,272,236368,2,0,P|284:240|272:84,1,240
184,164,236868,5,0,0:0:0:0:
432,152,237035,1,0,0:0:0:0:
316,240,237201,2,0,L|92:340,1,240
331,150,237701,2,0,L|112:248,2,240
388,228,238535,2,0,P|428:160|328:48,1,240
220,192,239035,2,0,P|168:224|80:208,1,120
200,68,239368,6,0,P|288:72|352:208,2,240
88,132,240201,1,0,0:0:0:0:
88,132,240368,2,0,P|68:196|96:256,1,120
220,332,240701,1,0,0:0:0:0:
292,72,240868,6,0,L|340:224,1,120
408,344,241201,2,0,L|456:72,1,240
376,88,241701,2,0,P|364:156|212:204,1,240
120,152,242201,6,0,L|152:288,1,120
164,348,242535,1,0,0:0:0:0:
24,200,242701,2,0,P|36:112|168:56,1,240
264,152,243201,1,0,0:0:0:0:
264,152,243368,6,0,P|272:240|400:304,1,240
472,236,243868,2,0,P|464:148|336:84,1,240
264,152,244368,2,0,L|168:256,1,120
12,304,244701,1,0,0:0:0:0:
12,304,244868,6,0,L|104:208,1,120
44,144,245201,2,0,P|116:88|260:100,1,240
232,220,245701,2,0,P|374:230|446:174,1,240
424,80,246201,6,0,P|360:68|304:88,1,120
168,192,246535,2,0,P|128:280|232:348,1,240
328,268,247035,2,0,P|368:180|264:112,1,240
36,184,247535,5,0,0:0:0:0:
176,84,247701,1,0,0:0:0:0:
160,260,247868,2,0,P|192:328|356:308,1,240
260,268,248368,2,0,L|344:40,1,240
400,144,248868,6,0,L|432:268,1,120
356,336,249201,2,0,P|316:244|152:200,1,240
112,164,249701,2,0,L|20:88,1,120
96,48,250035,6,0,P|156:100|324:96,2,240
24,220,250868,1,0,0:0:0:0:
24,220,251035,2,0,L|144:272,1,120
192,160,251368,2,0,P|264:140|288:84,1,120
204,76,251701,5,0,0:0:0:0:
424,56,251868,2,0,P|372:156|392:296,1,240
276,300,252368,1,0,0:0:0:0:
260,188,252535,1,0,0:0:0:0:
88,260,252701,1,0,0:0:0:0:
204,76,252868,6,0,L|96:132,1,120
260,188,253201,2,0,P|288:116|432:128,1,240
456,204,253701,2,0,P|428:276|284:264,1,240
364,212,254201,5,0,0:0:0:0:
460,56,254368,1,0,0:0:0:0:
264,52,254535,2,0,P|144:100|124:204,1,240
200,340,255035,2,0,L|232:200,1,120
300,136,255368,2,0,L|320:260,1,120
408,196,255701,2,0,L|436:44,1,120
264,52,256035,6,0,L|56:128,1,192
248,332,256701,2,0,L|456:256,1,192
112,336,257368,6,0,P|56:288|64:200,1,143.999995605469
400,48,258034,2,0,P|456:96|448:184,1,143.999995605469
36,52,258701,6,0,L|392:132,1,360
476,332,259867,2,0,L|120:252,1,360
124,253,261034,2,0,P|84:308|100:360,1,120
416,160,261368,2,0,P|458:113|450:45,1,120
296,104,261701,2,0,P|224:80|168:116,1,120
224,196,262035,1,0,0:0:0:0:
180,288,262201,6,0,L|304:336,1,120
320,240,262535,2,0,P|392:192|328:56,1,240
184,48,263035,2,0,P|112:96|176:232,1,240
192,136,263535,6,0,P|260:96|276:56,1,120
184,48,263868,1,0,0:0:0:0:
48,88,264035,2,0,P|84:176|24:316,1,240
356,320,264535,2,0,P|256:276|140:324,1,240
476,305,265035,2,0,P|428:176|464:88,1,240
160,156,265535,1,0,0:0:0:0:
352,228,265701,1,0,0:0:0:0:
256,192,265868,1,0,0:0:0:0:
352,228,266035,6,0,L|120:328,1,240
160,156,266701,2,0,P|224:76|244:72,1,120
260,184,267035,2,0,P|364:160|388:188,1,120
240,288,267368,6,0,P|176:292|88:128,1,240
136,92,267868,2,0,P|200:88|288:252,1,240
376,240,268368,2,0,L|404:112,1,120
296,208,268701,2,0,L|252:324,1,120
176,240,269035,2,0,L|304:28,1,240
380,128,269535,5,0,0:0:0:0:
136,92,269701,1,0,0:0:0:0:
296,208,269868,1,0,0:0:0:0:
176,240,270035,2,0,P|92:224|32:252,1,120
336,144,270368,2,0,P|420:160|480:132,1,120
208,124,270701,1,0,0:0:0:0:
304,260,270868,1,0,0:0:0:0:
292,72,271035,1,0,0:0:0:0:
220,312,271201,1,0,0:0:0:0:
208,124,271368,6,0,L|112:196,1,120
68,328,271701,2,0,L|164:256,1,120
392,128,272035,2,0,P|428:104|460:104,15,60
396,160,273368,5,0,0:0:0:0:
396,200,273451,1,0,0:0:0:0:
378,235,273534,1,0,0:0:0:0:
347,260,273617,1,0,0:0:0:0:
308,269,273701,5,0,0:0:0:0:
269,261,273784,1,0,0:0:0:0:
238,237,273867,1,0,0:0:0:0:
220,204,273951,1,0,0:0:0:0:
208,168,274035,5,0,0:0:0:0:
193,126,274118,1,0,0:0:0:0:
157,100,274201,1,0,0:0:0:0:
113,98,274284,1,0,0:0:0:0:
75,122,274368,5,0,0:0:0:0:
60,152,274451,1,0,0:0:0:0:
64,188,274535,1,0,0:0:0:0:
84,216,274618,1,0,0:0:0:0:
116,232,274701,1,0,0:0:0:0:
304,176,275035,6,0,P|320:152|352:136,3,60
308,208,275368,1,0,0:0:0:0:
216,320,275701,1,0,0:0:0:0:
152,136,276035,2,0,P|192:80|304:76,1,180
296,72,276368,2,0,L|250:13,4,60
288,216,277035,1,0,0:0:0:0:
132,280,277368,6,0,P|132:220|80:172,1,120
192,120,277701,2,0,P|228:64|288:56,1,120
440,128,278034,1,0,0:0:0:0:
428,288,278201,1,0,0:0:0:0:
288,216,278367,1,0,0:0:0:0:
428,288,278534,1,0,0:0:0:0:
256,304,278701,6,0,P|180:284|132:296,1,120
288,216,279034,2,0,L|404:184,1,120
196,128,279367,1,0,0:0:0:0:
196,128,279534,2,0,P|112:136|56:92,1,120
200,40,279867,2,0,P|256:60|224:208,1,240
80,288,280367,5,0,0:0:0:0:
276,336,280534,1,0,0:0:0:0:
176,312,280701,1,0,0:0:0:0:
240,200,280867,2,0,L|308:96,1,120
276,336,281201,2,0,P|364:308|420:328,1,120
416,204,281534,1,0,0:0:0:0:
320,232,281701,1,0,0:0:0:0:
272,112,281868,5,0,0:0:0:0:
192,224,282034,1,0,0:0:0:0:
56,152,282201,5,0,0:0:0:0:
104,296,282368,1,0,0:0:0:0:
168,112,282534,1,0,0:0:0:0:
320,232,282701,6,0,L|416:332,1,120
272,112,283034,2,0,P|344:76|416:100,1,120
192,224,283367,2,0,P|180:292|104:320,1,120
104,240,283701,1,0,0:0:0:0:
368,220,283867,1,0,0:0:0:0:
280,216,284034,6,0,P|280:144|328:92,1,120
168,124,284367,2,0,P|140:88|64:80,1,120
92,164,284701,1,0,0:0:0:0:
220,280,284867,2,0,P|316:300|364:156,1,240
280,216,285367,6,0,P|224:192|152:224,1,120
376,76,285701,1,0,0:0:0:0:
372,280,285867,1,0,0:0:0:0:
208,96,286034,1,0,0:0:0:0:
96,252,286201,1,0,0:0:0:0:
280,152,286367,1,0,0:0:0:0:
260,320,286534,1,0,0:0:0:0:
156,184,286701,6,0,P|124:124|40:120,1,120
60,108,286951,2,0,L|232:56,1,180
404,104,287367,2,0,P|344:132|312:212,1,120
260,320,287701,2,0,L|220:196,1,120
128,256,288034,6,0,P|80:196|24:188,1,120
268,56,288367,2,0,P|220:108|240:172,1,120
352,296,288701,1,0,0:0:0:0:
352,168,288867,1,0,0:0:0:0:
232,228,289034,1,0,0:0:0:0:
472,236,289201,1,0,0:0:0:0:
352,168,289367,2,0,L|236:96,1,120
160,216,289701,2,0,L|276:288,1,120
352,168,290034,1,0,0:0:0:0:
352,168,290201,2,0,P|368:88|324:48,1,120
120,88,290534,2,0,P|92:192|148:320,1,240
304,328,291034,6,0,P|344:304|380:232,1,120
340,40,291367,2,0,P|288:80|192:96,1,120
80,156,291701,1,0,0:0:0:0:
80,156,291867,2,0,P|144:188|196:248,1,120
72,284,292201,5,0,0:0:0:0:
160,328,292367,1,0,0:0:0:0:
72,284,292534,5,0,0:0:0:0:
224,208,292701,1,0,0:0:0:0:
72,284,292867,5,0,0:0:0:0:
76,52,293034,1,0,0:0:0:0:
308,104,293201,1,0,0:0:0:0:
176,172,293367,6,0,P|256:196|296:260,1,120
344,336,293701,2,0,P|396:296|404:216,1,120
380,40,294034,2,0,L|340:168,1,120
240,268,294367,1,0,0:0:0:0:
56,272,294534,1,0,0:0:0:0:
244,120,294701,1,0,0:0:0:0:
140,204,294867,1,0,0:0:0:0:
240,268,295034,6,0,L|364:312,1,120
288,172,295367,2,0,L|416:96,1,120
212,64,295701,2,0,L|72:108,1,120
200,176,296034,1,0,0:0:0:0:
112,292,296201,1,0,0:0:0:0:
264,328,296367,6,0,L|288:192,1,120
364,100,296701,1,0,0:0:0:0:
408,296,296867,2,0,L|448:144,1,120
144,68,297201,1,0,0:0:0:0:
272,56,297367,1,0,0:0:0:0:
80,232,297534,1,0,0:0:0:0:
76,200,297617,1,0,0:0:0:0:
72,168,297701,2,0,P|104:180|144:176,4,60
196,296,298201,1,0,0:0:0:0:
280,136,298367,1,0,0:0:0:0:
336,288,298701,5,0,0:0:0:0:
338,243,298784,1,0,0:0:0:0:
358,203,298867,1,0,0:0:0:0:
392,174,298950,1,0,0:0:0:0:
434,160,299034,1,0,0:0:0:0:
348,68,299201,5,0,0:0:0:0:
316,84,299284,1,0,0:0:0:0:
280,76,299367,1,0,0:0:0:0:
172,128,299534,2,0,L|124:44,1,60
168,264,299784,2,0,L|204:316,2,60
336,288,300117,5,0,0:0:0:0:
340,252,300201,1,0,0:0:0:0:
336,216,300284,1,0,0:0:0:0:
316,184,300367,1,0,0:0:0:0:
288,164,300451,1,0,0:0:0:0:
156,216,300617,5,0,0:0:0:0:
122,204,300700,1,0,0:0:0:0:
95,180,300783,1,0,0:0:0:0:
82,147,300866,1,0,0:0:0:0:
83,112,300950,1,0,0:0:0:0:
99,80,301033,1,0,0:0:0:0:
240,104,301201,2,0,L|284:48,1,60
256,128,301367,2,0,L|324:96,1,60
256,160,301534,1,0,0:0:0:0:
212,304,301701,5,0,0:0:0:0:
180,292,301784,1,0,0:0:0:0:
144,288,301867,1,0,0:0:0:0:
108,292,301951,1,0,0:0:0:0:
76,308,302034,1,0,0:0:0:0:
95,180,302201,2,0,L|128:120,1,60
336,56,302534,2,0,L|364:124,1,60
408,260,302867,6,0,L|356:204,1,60
392,296,303034,1,0,0:0:0:0:
364,316,303117,1,0,0:0:0:0:
328,324,303201,1,0,0:0:0:0:
292,320,303284,1,0,0:0:0:0:
264,296,303367,1,0,0:0:0:0:
224,108,303534,1,0,0:0:0:0:
216,144,303617,1,0,0:0:0:0:
204,176,303700,1,0,0:0:0:0:
184,208,303784,1,0,0:0:0:0:
156,228,303867,2,0,L|92:248,1,60
76,88,304201,5,0,0:0:0:0:
76,88,304284,1,0,0:0:0:0:
400,140,304451,5,0,0:0:0:0:
400,140,304534,1,0,0:0:0:0:
400,140,304617,1,0,0:0:0:0:
400,140,304701,1,0,0:0:0:0:
88,236,304867,5,0,0:0:0:0:
88,236,304951,1,0,0:0:0:0:
312,324,305117,5,0,0:0:0:0:
328,288,305201,1,0,0:0:0:0:
328,252,305284,1,0,0:0:0:0:
316,220,305367,1,0,0:0:0:0:
288,196,305451,1,0,0:0:0:0:
256,184,305534,1,0,0:0:0:0:
124,96,305701,1,0,0:0:0:0:
160,92,305784,1,0,0:0:0:0:
196,88,305867,1,0,0:0:0:0:
232,84,305951,1,0,0:0:0:0:
268,80,306034,1,0,0:0:0:0:
156,228,306201,1,0,0:0:0:0:
156,228,306285,2,0,P|112:224|80:240,1,60
128,316,306451,2,0,P|184:312|208:296,1,60
186,310,306617,1,0,0:0:0:0:
268,80,306867,5,0,0:0:0:0:
234,63,306950,1,0,0:0:0:0:
197,56,307033,1,0,0:0:0:0:
160,61,307116,1,0,0:0:0:0:
126,76,307200,1,0,0:0:0:0:
98,101,307283,1,0,0:0:0:0:
78,133,307366,1,0,0:0:0:0:
156,228,307534,2,0,L|220:204,1,60
352,312,307867,2,0,L|420:336,1,60
432,224,308201,6,0,L|464:160,1,60
376,180,308367,2,0,L|408:116,1,60
320,136,308534,2,0,L|352:72,1,60
264,92,308701,1,0,0:0:0:0:
156,196,308867,2,0,P|116:184|96:188,1,60
260,292,309117,1,0,0:0:0:0:
292,308,309201,1,0,0:0:0:0:
328,312,309284,1,0,0:0:0:0:
364,308,309367,1,0,0:0:0:0:
396,288,309451,1,0,0:0:0:0:
416,256,309534,1,0,0:0:0:0:
424,220,309617,1,0,0:0:0:0:
416,184,309701,1,0,0:0:0:0:
312,208,309867,5,0,0:0:0:0:
292,176,309951,1,0,0:0:0:0:
260,164,310034,1,0,0:0:0:0:
144,216,310201,2,0,L|212:252,2,60
108,148,310451,2,0,P|58:159|24:141,2,60
140,80,310701,1,0,0:0:0:0:
252,64,310867,5,0,0:0:0:0:
289,88,310951,1,0,0:0:0:0:
332,101,311033,1,0,0:0:0:0:
377,102,311116,1,0,0:0:0:0:
420,89,311200,1,0,0:0:0:0:
432,296,311367,1,0,0:0:0:0:
228,204,311617,1,0,0:0:0:0:
52,300,311867,1,0,0:0:0:0:
52,300,311951,1,0,0:0:0:0:
52,300,312034,1,0,0:0:0:0:
44,264,312117,1,0,0:0:0:0:
48,228,312201,1,0,0:0:0:0:
60,196,312284,1,0,0:0:0:0:
84,168,312367,1,0,0:0:0:0:
228,204,312534,1,0,0:0:0:0:
228,204,312617,1,0,0:0:0:0:
228,204,312701,1,0,0:0:0:0:
340,88,312867,6,0,L|392:152,1,60
376,304,313117,1,0,0:0:0:0:
376,304,313201,1,0,0:0:0:0:
376,304,313284,1,0,0:0:0:0:
216,48,313534,5,0,0:0:0:0:
220,87,313617,1,0,0:0:0:0:
214,127,313700,1,0,0:0:0:0:
198,163,313783,1,0,0:0:0:0:
173,195,313867,1,0,0:0:0:0:
142,219,313950,1,0,0:0:0:0:
105,234,314033,1,0,0:0:0:0:
264,312,314201,1,0,0:0:0:0:
264,312,314284,1,0,0:0:0:0:
336,164,314451,2,0,P|360:128|388:120,3,60
408,252,314867,5,0,0:0:0:0:
396,284,314951,1,0,0:0:0:0:
368,308,315034,1,0,0:0:0:0:
332,316,315117,1,0,0:0:0:0:
296,304,315201,1,0,0:0:0:0:
272,280,315284,1,0,0:0:0:0:
260,244,315367,1,0,0:0:0:0:
240,56,315534,2,0,L|204:124,1,60
88,152,315784,2,0,L|116:232,2,60
156,324,316201,5,0,0:0:0:0:
195,328,316284,1,0,0:0:0:0:
234,321,316367,1,0,0:0:0:0:
270,303,316450,1,0,0:0:0:0:
299,276,316534,1,0,0:0:0:0:
318,241,316617,1,0,0:0:0:0:
327,202,316700,1,0,0:0:0:0:
416,120,316867,2,0,L|456:52,1,60
216,148,317117,6,0,L|180:208,2,60
184,128,317367,1,0,0:0:0:0:
138,115,317450,1,0,0:0:0:0:
92,126,317533,1,0,0:0:0:0:
58,159,317616,1,0,0:0:0:0:
45,205,317700,5,0,0:0:0:0:
57,251,317783,1,0,0:0:0:0:
90,285,317866,1,0,0:0:0:0:
136,308,317951,1,0,0:0:0:0:
177,313,318034,5,0,0:0:0:0:
219,308,318117,1,0,0:0:0:0:
257,291,318200,1,0,0:0:0:0:
290,266,318284,1,0,0:0:0:0:
316,232,318367,5,0,0:0:0:0:
331,194,318450,1,0,0:0:0:0:
336,152,318534,1,0,0:0:0:0:
332,116,318617,1,0,0:0:0:0:
320,80,318701,5,0,0:0:0:0:
286,75,318784,1,0,0:0:0:0:
252,70,318867,1,0,0:0:0:0:
218,65,318950,1,0,0:0:0:0:
184,60,319034,5,0,0:0:0:0:
150,55,319117,1,0,0:0:0:0:
116,50,319200,1,0,0:0:0:0:
82,46,319284,1,0,0:0:0:0:
48,40,319367,6,0,L|76:96,8,60
