osu file format v12

[General]
AudioFilename: Boooring! [Instrumental].mp3
AudioLeadIn: 2000
PreviewTime: 21903
Countdown: 0
SampleSet: Soft
StackLeniency: 0.7
Mode: 0
LetterboxInBreaks: 0

[Editor]
DistanceSpacing: 1.2
BeatDivisor: 4
GridSize: 4

[Metadata]
Title:Boooring!
TitleUnicode:Boooring!
Artist:Assertive Fluttershy
ArtistUnicode:Assertive Fluttershy
Creator:- N a n a k a -
Version:Hard
Source:
Tags:Dubstep Balloon Party P_A_N PAN Instrumental 100% No Feeble Cheering My Little Pony Friendship is Magic mlp
BeatmapID:219315
BeatmapSetID:77534

[Difficulty]
HPDrainRate:5
CircleSize:4
OverallDifficulty:6
ApproachRate:8
SliderMultiplier:1.4
SliderTickRate:1

[Events]
//Background and Video events
0,0,"Boo.png",0,0
//Break Periods
2,68073,78417
2,113250,123594
2,158426,168770
//Storyboard Layer 0 (Background)
//Storyboard Layer 1 (Fail)
//Storyboard Layer 2 (Pass)
//Storyboard Layer 3 (Foreground)
//Storyboard Sound Samples
//Background Colour Transformations
3,100,163,162,255

[TimingPoints]
109,352.941176470588,4,2,2,40,1,0
2932,-100,4,2,1,45,0,0
5756,-100,4,2,1,50,0,0
8579,-100,4,2,1,55,0,0
11403,-100,4,2,1,60,0,0
14226,-100,4,2,1,65,0,0
17050,-100,4,2,1,70,0,0
19873,-100,4,2,1,75,0,0
21461,-100,4,2,1,80,0,0
22697,-100,4,1,1,80,0,1
22785,-100,4,2,1,80,0,0
25520,-100,4,2,1,80,0,0
33991,-100,4,2,2,80,0,1
34079,-100,4,2,1,80,0,0
42638,-100,4,2,1,70,0,0
42814,-100,4,2,1,60,0,0
42991,-100,4,2,1,50,0,0
43167,-100,4,2,1,40,0,0
43256,-100,4,2,1,80,0,0
43873,-100,4,2,1,20,0,0
44932,-100,4,1,1,60,0,0
45285,-100,4,1,2,80,0,1
45373,-100,4,2,1,80,0,0
48108,-100,4,2,2,80,0,0
48814,-100,4,2,1,80,0,0
50932,-100,4,2,2,80,0,0
51638,-100,4,2,1,80,0,0
56579,-100,4,2,2,80,0,1
56667,-100,4,2,1,80,0,0
59403,-100,4,2,2,80,0,0
60108,-100,4,2,1,80,0,0
62226,-100,4,2,2,80,0,0
62932,-100,4,2,1,80,0,0
67873,-100,4,1,2,80,0,1
67961,-100,4,2,1,80,0,0
79167,-100,4,2,2,80,0,1
79256,-100,4,2,1,80,0,0
87638,-100,4,2,1,70,0,0
87814,-100,4,2,1,65,0,0
88344,-100,4,2,1,60,0,0
88520,-100,4,2,1,55,0,0
89050,-100,4,2,1,50,0,0
89226,-100,4,2,1,45,0,0
89756,-100,4,2,1,40,0,0
90020,-100,4,2,1,60,0,0
90461,-100,4,1,2,80,0,1
90550,-100,4,2,1,80,0,1
93285,-100,4,2,2,80,0,1
93638,-100,4,2,1,80,0,1
96108,-100,4,2,2,80,0,1
96197,-100,4,2,1,80,0,1
96461,-100,4,2,1,80,0,1
101667,-100,4,2,1,80,0,0
101756,-100,4,2,2,80,0,1
101844,-100,4,2,1,80,0,1
104579,-100,4,2,2,80,0,1
104932,-100,4,2,1,80,0,1
107403,-100,4,2,2,80,0,1
107756,-100,4,2,1,80,0,1
111991,-100,4,2,1,70,0,1
112079,-100,4,2,1,80,0,1
112608,-100,4,2,1,60,0,1
112697,-100,4,1,1,60,0,0
113050,-133.333333333333,4,1,2,80,0,1
113138,-133.333333333333,4,2,1,80,0,0
124344,-133.333333333333,4,2,1,60,0,0
127167,-133.333333333333,4,2,1,65,0,0
129991,-133.333333333333,4,2,1,70,0,0
131403,-100,4,2,1,70,0,0
132814,-100,4,2,1,75,0,0
132991,-100,4,2,1,70,0,0
133167,-100,4,2,1,60,0,0
133344,-100,4,2,1,50,0,0
133520,-100,4,2,1,40,0,0
133608,-100,4,2,1,80,0,0
134226,-100,4,2,1,10,0,0
135285,-100,4,1,1,60,0,0
135638,-100,4,1,2,80,0,1
135726,-100,4,2,1,80,0,0
138461,-100,4,2,2,80,0,0
139167,-100,4,2,1,80,0,0
141285,-100,4,2,2,80,0,0
141991,-100,4,2,1,80,0,0
146932,-100,4,2,2,80,0,1
147020,-100,4,2,1,80,0,0
149756,-100,4,2,2,80,0,0
150461,-100,4,2,1,80,0,0
152579,-100,4,2,2,80,0,0
153285,-100,4,2,1,80,0,0
158226,-100,4,1,2,80,0,1
158314,-100,4,2,1,80,0,0
169520,-100,4,2,2,80,0,1
169608,-100,4,2,1,80,0,0
177991,-100,4,2,1,70,0,0
178167,-100,4,2,1,65,0,0
178697,-100,4,2,1,60,0,0
178873,-100,4,2,1,55,0,0
179403,-100,4,2,1,50,0,0
179579,-100,4,2,1,45,0,0
180108,-100,4,2,1,40,0,0
180373,-100,4,2,1,60,0,0
180814,-100,4,1,2,80,0,1
180903,-100,4,2,1,80,0,1
183638,-100,4,2,2,80,0,1
183991,-100,4,2,1,80,0,1
186461,-100,4,2,2,80,0,1
186814,-100,4,2,1,80,0,1
192020,-100,4,2,1,80,0,0
192108,-100,4,2,2,80,0,1
192197,-100,4,2,1,80,0,1
194932,-100,4,2,2,80,0,1
195285,-100,4,2,1,80,0,1
197756,-100,4,2,2,80,0,1
198108,-100,4,2,1,80,0,1
202344,-100,4,2,1,70,0,1
202432,-100,4,2,1,80,0,1
202961,-100,4,2,1,60,0,1
203050,-100,4,2,1,60,0,0
203403,-100,4,1,1,80,0,1
203491,-100,4,2,1,80,0,0
214608,-100,4,2,1,80,0,0
214697,-100,4,2,2,80,0,1
214785,-100,4,2,1,80,0,0
225285,-100,4,2,1,80,0,0
225991,-100,4,2,2,80,0,1
226079,-100,4,2,1,80,0,0

[Colours]
Combo1 : 0,166,166
Combo2 : 0,255,255
Combo3 : 128,255,128
Combo4 : 255,128,255

[HitObjects]
256,56,109,2,0,P|208:64|140:124,1,140,2|0,0:0|0:0,0:0:0:0:
204,168,638,2,0,P|212:212|276:280,1,140,2|0,0:0|0:0,0:0:0:0:
332,228,1167,2,0,P|372:232|404:224,2,70,2|0|0,0:0|0:0|0:0,0:0:0:0:
256,84,1697,6,0,L|184:84,1,70,2|0,0:0|0:0,0:0:0:0:
132,140,2050,2,0,L|132:212,1,70,0|2,0:0|0:0,0:0:0:0:
184,268,2403,1,0,0:0:0:0:
260,268,2579,1,0,0:0:0:0:
308,208,2756,1,2,0:0:0:0:
308,208,2932,6,0,L|308:68,1,140,2|0,0:0|0:0,0:0:0:0:
384,68,3461,2,0,L|384:212,1,140,2|0,0:0|0:0,0:0:0:0:
460,208,3991,2,0,L|460:136,2,70,2|0|0,0:0|0:0|0:0,0:0:0:0:
452,284,4520,6,0,P|416:284|384:268,1,70,2|0,0:0|0:0,0:0:0:0:
308,252,4873,2,0,P|324:216|348:200,1,70,0|2,0:0|0:0,0:0:0:0:
256,312,5226,1,0,0:0:0:0:
204,252,5403,1,0,0:0:0:0:
256,196,5579,1,2,0:0:0:0:
256,92,5756,6,0,P|172:92|116:108,1,140,2|0,0:0|0:0,0:0:0:0:
256,92,6285,2,0,P|340:92|396:108,1,140,2|0,0:0|0:0,0:0:0:0:
256,92,6814,2,0,L|256:16,2,70,2|0|0,0:0|0:0|0:0,0:0:0:0:
336,124,7344,5,2,0:0:0:0:
392,188,7520,1,0,0:0:0:0:
336,252,7697,1,0,0:0:0:0:
256,276,7873,5,2,0:0:0:0:
208,344,8050,1,0,0:0:0:0:
124,344,8226,1,0,0:0:0:0:
76,272,8403,1,2,0:0:0:0:
100,192,8579,6,0,P|144:144|228:160,1,140,2|0,0:0|0:0,0:0:0:0:
172,212,9108,2,0,P|232:244|300:216,1,140,2|0,0:0|0:0,0:0:0:0:
364,196,9638,2,0,P|368:232|348:272,2,70,2|0|0,0:0|0:0|0:0,0:0:0:0:
356,120,10167,5,2,0:0:0:0:
276,88,10344,1,2,0:0:0:0:
192,80,10520,1,2,0:0:0:0:
104,124,10697,5,2,0:0:0:0:
56,208,10873,1,2,0:0:0:0:
124,280,11050,1,2,0:0:0:0:
176,200,11226,1,2,0:0:0:0:
176,200,11403,6,0,P|120:208|84:140,1,140,2|0,0:0|0:0,0:0:0:0:
160,124,11932,2,0,P|216:112|252:176,1,140,2|0,0:0|0:0,0:0:0:0:
252,252,12461,2,0,L|300:304,2,70,2|0|0,0:0|0:0|0:0,0:0:0:0:
344,192,12991,6,0,L|348:120,2,70,2|2|2,0:0|0:0|0:0,0:0:0:0:
268,152,13520,1,2,0:0:0:0:
212,88,13697,1,2,0:0:0:0:
180,168,13873,1,2,0:0:0:0:
268,152,14050,1,2,0:0:0:0:
304,76,14226,6,0,P|364:40|420:84,1,140,2|0,0:0|0:0,0:0:0:0:
428,152,14756,2,0,P|464:224|416:264,1,140,2|0,0:0|0:0,0:0:0:0:
360,288,15285,2,0,L|288:288,1,70,2|0,0:0|0:0,0:0:0:0:
212,300,15638,1,0,0:0:0:0:
148,256,15814,6,0,P|104:252|72:276,2,70,2|2|2,0:0|0:0|0:0,0:0:0:0:
200,200,16344,2,0,P|164:180|124:188,2,70,2|2|2,0:0|0:0|0:0,0:0:0:0:
268,160,16873,1,2,0:0:0:0:
268,160,17050,6,0,B|312:152|348:132|348:132|432:160,1,140,2|0,0:0|0:0,0:0:0:0:
356,212,17579,2,0,B|312:220|276:240|276:240|192:216,1,140,2|0,0:0|0:0,0:0:0:0:
180,160,18108,2,0,P|168:116|140:84,2,70,2|0|0,0:0|0:0|0:0,0:0:0:0:
180,224,18638,6,0,P|168:268|140:300,2,70,2|2|2,0:0|0:0|0:0,0:0:0:0:
254,192,19167,2,0,L|326:192,1,70,2|2,0:0|0:0,0:0:0:0:
394,192,19520,2,0,L|324:192,1,70,2|2,0:0|0:0,0:0:0:0:
324,52,19873,6,0,L|324:192,1,140,2|0,0:0|0:0,0:0:0:0:
280,264,20403,2,0,P|216:280|140:276,1,140,2|0,0:0|0:0,0:0:0:0:
76,224,20932,2,0,P|68:192|76:148,2,70,2|0|0,0:0|0:0|0:0,0:0:0:0:
172,192,21461,5,2,0:0:0:0:
256,124,21638,1,2,0:0:0:0:
340,192,21814,1,2,0:0:0:0:
256,264,21991,5,2,0:0:0:0:
172,192,22167,1,2,0:0:0:0:
256,124,22344,1,2,0:0:0:0:
340,192,22520,1,2,0:0:0:0:
256,264,22697,6,0,P|216:280|120:272,1,140,4|2,0:0|0:0,0:0:0:0:
120,196,23226,2,0,L|120:124,1,70,2|4,0:0|0:0,0:0:0:0:
120,48,23579,1,0,0:0:0:0:
120,48,23756,2,0,P|160:32|256:40,1,140,2|8,0:0|0:0,0:0:0:0:
368,192,24285,5,2,0:0:0:0:
304,244,24461,1,2,0:0:0:0:
288,160,24638,1,2,0:0:0:0:
224,216,24814,5,6,0:0:0:0:
208,132,24991,1,2,0:0:0:0:
272,76,25167,1,0,0:0:0:0:
352,104,25344,1,2,0:0:0:0:
368,192,25520,6,0,P|368:276|336:320,1,140,10|0,0:0|0:0,0:0:0:0:
252,320,26050,2,0,L|180:320,2,70,2|4|0,0:0|0:0|0:0,0:0:0:0:
256,236,26579,2,0,L|256:96,1,140,2|8,0:0|0:0,0:0:0:0:
176,96,27108,5,2,0:0:0:0:
192,180,27285,1,2,0:0:0:0:
256,236,27461,1,2,0:0:0:0:
320,180,27638,1,4,0:0:0:0:
336,96,27814,1,2,0:0:0:0:
256,68,27991,2,0,L|256:140,1,70,0|2,0:0|0:0,0:0:0:0:
256,316,28344,6,0,P|296:336|384:312,2,140,10|0|6,0:0|0:0|0:0,0:0:0:0:
196,256,29226,2,0,L|128:268,2,70,0|2|2,0:0|0:0|0:0,0:0:0:0:
258,192,29756,5,8,0:0:0:0:
258,192,29932,2,0,L|226:128,2,70,2|2|2,0:0|0:0|0:0,0:0:0:0:
336,192,30461,2,0,L|372:252,2,70,6|2|0,0:0|0:0|0:0,0:0:0:0:
296,124,30991,1,2,0:0:0:0:
296,124,31167,6,0,L|156:124,1,140,10|0,0:0|0:0,0:0:0:0:
188,192,31697,2,0,L|260:192,2,70,2|4|0,0:0|0:0|0:0,0:0:0:0:
224,260,32226,1,2,0:0:0:0:
224,260,32403,1,2,0:0:0:0:
224,260,32579,5,8,0:0:0:0:
380,272,32756,2,0,L|420:212,2,70,2|2|2,0:0|0:0|0:0,0:0:0:0:
368,288,33197,1,8,0:0:0:0:
356,304,33285,1,6,0:0:0:0:
304,240,33461,2,0,L|292:208,5,35,10|8|6|8|10|8,0:0|0:0|0:0|0:0|0:0|0:0,0:0:0:0:
268,176,33991,6,0,P|228:160|132:180,1,140,4|0,0:0|0:0,0:0:0:0:
204,228,34520,2,0,P|164:244|144:264,2,70,2|4|0,0:0|0:0|0:0,0:0:0:0:
212,312,35050,1,2,0:0:0:0:
212,312,35226,1,2,0:0:0:0:
212,312,35403,5,8,0:0:0:0:
312,288,35579,2,0,P|352:276|392:248,2,70,2|2|2,0:0|0:0|0:0,0:0:0:0:
316,204,36108,1,6,0:0:0:0:
320,120,36285,2,0,P|280:132|240:160,2,70,2|0|2,0:0|0:0|0:0,0:0:0:0:
384,56,36814,6,0,P|336:32|256:56,1,140,10|0,0:0|0:0,0:0:0:0:
172,60,37344,2,0,P|188:100|212:120,1,70,2|4,0:0|0:0,0:0:0:0:
260,184,37697,1,0,0:0:0:0:
212,252,37873,2,0,P|188:276|176:312,2,70,2|2|8,0:0|0:0|0:0,0:0:0:0:
260,316,38403,5,2,0:0:0:0:
340,288,38579,1,2,0:0:0:0:
408,236,38756,2,0,L|440:248,2,35,2|8|4,0:0|0:0|0:0,0:0:0:0:
424,152,39108,1,2,0:0:0:0:
340,160,39285,1,0,0:0:0:0:
348,76,39461,1,2,0:0:0:0:
268,104,39638,5,8,0:0:0:0:
268,260,39991,1,8,0:0:0:0:
112,260,40344,1,8,0:0:0:0:
112,104,40697,1,8,0:0:0:0:
268,104,41050,6,0,L|268:176,1,70,8|2,0:0|0:0,0:0:0:0:
408,104,41403,2,0,L|336:104,1,70,10|2,0:0|0:0,0:0:0:0:
408,244,41756,2,0,L|408:172,1,70,10|2,0:0|0:0,0:0:0:0:
268,244,42108,2,0,L|340:244,1,70,10|2,0:0|0:0,0:0:0:0:
268,104,42461,5,10,0:0:0:0:
232,124,42638,1,8,0:0:0:0:
196,144,42814,1,8,0:0:0:0:
160,164,42991,1,10,0:0:0:0:
124,184,43167,6,0,L|96:204,8,35,8|0|0|0|2|0|0|0|0,0:0|0:0|0:0|0:0|0:0|0:0|0:0|0:0|0:0,0:0:0:0:
256,60,44932,5,0,0:0:0:0:
256,60,45285,6,0,L|256:200,1,140,4|0,0:0|0:0,0:0:0:0:
180,208,45814,1,0,0:0:0:0:
148,136,45991,2,0,L|80:112,2,70,6|0|2,0:0|0:0|0:0,0:0:0:0:
224,148,46520,1,0,0:0:0:0:
352,192,46697,6,0,L|384:204,3,35,10|0|2|0,0:0|0:0|0:0|0:0,0:0:0:0:
412,232,47050,2,0,P|416:276|368:308,1,105,2|8,0:0|0:0,0:0:0:0:
332,304,47403,2,0,L|192:280,1,140,6|2,0:0|0:0,0:0:0:0:
256,112,48108,6,0,P|300:104|392:136,1,140,4|0,0:0|0:0,0:0:0:0:
344,196,48638,1,0,0:0:0:0:
357,274,48814,2,0,L|416:236,1,70,6|0,0:0|0:0,0:0:0:0:
330,117,49167,2,0,L|272:156,1,70,2|0,0:0|0:0,0:0:0:0:
284,236,49520,6,0,L|248:236,3,35,10|0|2|0,0:0|0:0|0:0|0:0,0:0:0:0:
212,240,49873,2,0,B|176:244|156:264|156:264|112:252,1,105,2|8,0:0|0:0,0:0:0:0:
84,228,50226,2,0,P|84:144|120:104,1,140,6|2,0:0|0:0,0:0:0:0:
376,192,50932,6,0,L|236:192,1,140,4|0,0:0|0:0,0:0:0:0:
268,120,51461,1,0,0:0:0:0:
344,120,51638,2,0,L|416:120,1,70,6|0,0:0|0:0,0:0:0:0:
344,264,51991,2,0,L|268:264,1,70,2|0,0:0|0:0,0:0:0:0:
172,240,52344,6,0,L|144:220,3,35,10|0|2|0,0:0|0:0|0:0|0:0,0:0:0:0:
120,188,52697,2,0,P|100:136|112:84,1,105,2|8,0:0|0:0,0:0:0:0:
136,60,53050,2,0,B|188:52|204:100|204:100|256:104,1,140,6|2,0:0|0:0,0:0:0:0:
256,192,53756,6,0,L|256:332,1,140,10|0,0:0|0:0,0:0:0:0:
184,300,54285,2,0,L|184:228,1,70,2|4,0:0|0:0,0:0:0:0:
332,300,54814,1,2,0:0:0:0:
332,300,54991,1,2,0:0:0:0:
332,300,55167,5,8,0:0:0:0:
332,208,55344,2,0,L|332:136,1,70,2|2,0:0|0:0,0:0:0:0:
240,148,55697,2,0,L|216:176,2,35,2|8|6,0:0|0:0|0:0,0:0:0:0:
184,76,56050,2,0,L|164:48,2,35,10|8|6,0:0|0:0|0:0,0:0:0:0:
228,60,56314,2,0,L|248:96,2,35,8|10|8,0:0|0:0|0:0,0:0:0:0:
272,44,56579,6,0,P|316:40|412:48,1,140,4|0,0:0|0:0,0:0:0:0:
404,124,57108,1,0,0:0:0:0:
436,196,57285,2,0,P|404:220|364:228,1,70,6|0,0:0|0:0,0:0:0:0:
280,200,57638,2,0,P|312:176|356:168,1,70,2|0,0:0|0:0,0:0:0:0:
312,268,57991,6,0,L|300:300,3,35,10|0|2|0,0:0|0:0|0:0|0:0,0:0:0:0:
264,320,58344,2,0,P|198:328|144:312,1,105,2|8,0:0|0:0,0:0:0:0:
128,300,58697,2,0,P|88:232|84:168,1,140,6|2,0:0|0:0,0:0:0:0:
256,88,59403,6,0,L|256:228,1,140,4|0,0:0|0:0,0:0:0:0:
256,228,59932,1,0,0:0:0:0:
272,304,60108,2,0,L|344:308,1,70,6|0,0:0|0:0,0:0:0:0:
416,280,60461,2,0,L|464:224,1,70,2|0,0:0|0:0,0:0:0:0:
352,228,60814,6,0,L|340:192,3,35,10|0|2|0,0:0|0:0|0:0|0:0,0:0:0:0:
352,156,61167,2,0,P|316:132|248:128,1,105,2|8,0:0|0:0,0:0:0:0:
232,168,61520,2,0,P|204:200|112:220,1,140,6|2,0:0|0:0,0:0:0:0:
256,48,62226,6,0,L|396:48,1,140,4|0,0:0|0:0,0:0:0:0:
364,120,62756,1,0,0:0:0:0:
364,196,62932,2,0,L|316:260,1,70,6|0,0:0|0:0,0:0:0:0:
364,196,63285,2,0,L|416:260,1,70,2|0,0:0|0:0,0:0:0:0:
256,300,63638,6,0,L|220:300,3,35,10|0|2|0,0:0|0:0|0:0|0:0,0:0:0:0:
184,288,63991,2,0,P|148:260|128:204,1,105,2|8,0:0|0:0,0:0:0:0:
128,168,64344,2,0,P|176:112|212:148,1,140,6|2,0:0|0:0,0:0:0:0:
364,192,65050,5,10,0:0:0:0:
364,120,65226,1,0,0:0:0:0:
288,120,65403,2,0,L|288:192,1,70,0|2,0:0|0:0,0:0:0:0:
256,260,65756,2,0,P|300:268|324:260,2,70,4|0|2,0:0|0:0|0:0,0:0:0:0:
188,224,66285,1,2,0:0:0:0:
188,224,66461,5,8,0:0:0:0:
116,200,66638,2,0,P|88:180|36:176,1,70,2|2,0:0|0:0,0:0:0:0:
56,252,66991,2,0,L|48:288,2,35,2|8|6,0:0|0:0|0:0,0:0:0:0:
132,284,67344,2,0,L|168:300,1,35,2|0,0:0|0:0,0:0:0:0:
344,132,67873,5,4,0:0:0:0:
256,192,79167,6,0,P|296:208|392:192,2,140,4|0|6,0:0|0:0|0:0,0:0:0:0:
180,204,80050,1,2,0:0:0:0:
188,52,80403,2,0,P|228:36|328:56,1,140,2|2,0:0|0:0,0:0:0:0:
388,192,81108,1,2,0:0:0:0:
352,260,81285,1,6,0:0:0:0:
312,196,81461,1,2,0:0:0:0:
268,260,81638,1,0,0:0:0:0:
236,192,81814,1,2,0:0:0:0:
236,192,81991,6,0,P|148:188|180:96,1,210,10|0,0:0|0:0,0:0:0:0:
252,112,82697,2,0,L|316:80,1,70,6|2,0:0|0:0,0:0:0:0:
408,200,83226,1,2,0:0:0:0:
268,260,83579,1,2,0:0:0:0:
128,192,83932,6,0,L|128:120,1,70,2|6,0:0|0:0,0:0:0:0:
204,120,84285,2,0,L|204:192,2,70,2|0|2,0:0|0:0|0:0,0:0:0:0:
312,152,84814,5,10,0:0:0:0:
244,308,85167,1,4,0:0:0:0:
72,124,85520,5,8,0:0:0:0:
228,56,85873,1,4,0:0:0:0:
432,232,86226,5,8,0:0:0:0:
264,240,86579,1,4,0:0:0:0:
140,140,86932,5,8,0:0:0:0:
108,308,87285,1,4,0:0:0:0:
304,108,87638,6,0,L|360:152,1,70,10|8,0:0|0:0,0:0:0:0:
324,220,87991,2,0,L|268:176,1,70,4|8,0:0|0:0,0:0:0:0:
112,224,88344,6,0,P|92:184|92:152,1,70,10|10,0:0|0:0,0:0:0:0:
168,168,88697,2,0,P|188:208|188:240,1,70,4|10,0:0|0:0,0:0:0:0:
208,336,89050,6,8,L|280:344,1,70,8|8,0:0|0:0,0:0:0:0:
320,276,89403,2,0,L|248:268,1,70,4|8,0:0|0:0,0:0:0:0:
256,192,89756,6,0,L|256:156,3,35,8|0|8|8,0:0|0:0|0:0|0:0,0:0:0:0:
256,120,90108,1,4,0:0:0:0:
432,192,90461,6,0,P|420:232|344:288,1,140,4|4,0:0|0:0,0:0:0:0:
272,260,90991,1,0,0:0:0:0:
216,312,91167,2,0,L|144:320,1,70,10|8,0:0|0:0,0:0:0:0:
96,236,91520,2,0,L|168:228,1,70,6|0,0:0|0:0,0:0:0:0:
256,192,91873,6,0,L|276:164,3,35,10|0|2|0,0:0|0:0|0:0|0:0,0:0:0:0:
264,128,92226,2,0,P|304:104|360:120,1,105,6|0,0:0|0:0,0:0:0:0:
368,156,92579,2,0,P|364:200|376:224,2,70,10|8|6,0:0|0:0|0:0,0:0:0:0:
256,28,93285,6,0,P|212:36|132:88,1,140,4|4,0:0|0:0,0:0:0:0:
180,148,93814,1,0,0:0:0:0:
120,196,93991,2,0,P|144:216|184:224,1,70,10|8,0:0|0:0,0:0:0:0:
176,300,94344,2,0,P|212:296|240:276,1,70,6|0,0:0|0:0,0:0:0:0:
308,192,94697,6,0,L|344:184,3,35,10|0|2|0,0:0|0:0|0:0|0:0,0:0:0:0:
380,168,95050,2,0,P|408:136|388:80,1,105,6|0,0:0|0:0,0:0:0:0:
356,64,95403,2,0,L|280:64,2,70,10|8|6,0:0|0:0|0:0,0:0:0:0:
136,84,96108,6,0,P|112:116|140:208,1,140,4|4,0:0|0:0,0:0:0:0:
180,144,96638,1,0,0:0:0:0:
248,108,96814,2,0,L|312:80,1,70,10|8,0:0|0:0,0:0:0:0:
248,180,97167,2,0,L|312:212,1,70,6|0,0:0|0:0,0:0:0:0:
280,328,97520,6,0,P|260:336|244:336,3,35,10|0|2|0,0:0|0:0|0:0|0:0,0:0:0:0:
208,336,97873,2,0,P|164:324|128:280,1,105,6|0,0:0|0:0,0:0:0:0:
100,252,98226,2,0,P|104:212|120:188,2,70,10|8|6,0:0|0:0|0:0,0:0:0:0:
256,92,98932,6,0,P|212:96|176:116,1,70,10|0,0:0|0:0,0:0:0:0:
236,168,99285,2,0,P|280:164|316:144,1,70,4|2,0:0|0:0,0:0:0:0:
340,220,99638,2,0,L|340:292,2,70,8|8|6,0:0|0:0|0:0,0:0:0:0:
104,192,100344,5,8,0:0:0:0:
104,192,100697,1,6,0:0:0:0:
256,172,101050,2,0,P|296:176|324:188,1,70,10|10,0:0|0:0,0:0:0:0:
328,264,101403,1,6,0:0:0:0:
328,264,101491,1,4,0:0:0:0:
328,264,101579,1,6,0:0:0:0:
256,312,101756,6,4,L|256:172,1,140,4|4,0:0|0:0,0:0:0:0:
256,96,102285,1,0,0:0:0:0:
256,20,102461,2,0,P|212:26|184:42,1,70,10|8,0:0|0:0,0:0:0:0:
256,20,102814,2,0,P|300:26|332:42,1,70,6|0,0:0|0:0,0:0:0:0:
396,128,103167,6,0,L|384:160,3,35,10|0|2|0,0:0|0:0|0:0|0:0,0:0:0:0:
340,188,103520,2,0,P|292:200|236:188,1,105,6|0,0:0|0:0,0:0:0:0:
256,140,103873,2,0,P|292:132|324:140,2,70,10|8|6,0:0|0:0|0:0,0:0:0:0:
416,208,104579,6,0,P|436:172|396:88,1,140,4|4,0:0|0:0,0:0:0:0:
360,156,105108,1,0,0:0:0:0:
300,204,105285,2,0,P|260:220|224:224,1,70,10|8,0:0|0:0,0:0:0:0:
180,168,105638,2,0,P|220:152|260:148,1,70,6|0,0:0|0:0,0:0:0:0:
360,256,105991,6,0,P|368:272|368:288,3,35,10|0|2|0,0:0|0:0|0:0|0:0,0:0:0:0:
344,320,106344,2,0,P|304:336|244:348,1,105,6|0,0:0|0:0,0:0:0:0:
204,344,106697,2,0,P|188:304|192:276,2,70,10|8|6,0:0|0:0|0:0,0:0:0:0:
256,96,107403,6,0,L|256:240,1,140,4|4,0:0|0:0,0:0:0:0:
328,208,107932,1,0,0:0:0:0:
186,167,108108,2,0,L|114:167,1,70,10|8,0:0|0:0,0:0:0:0:
186,96,108461,2,0,L|258:96,1,70,6|0,0:0|0:0,0:0:0:0:
388,104,108814,6,0,L|404:136,3,35,10|0|2|0,0:0|0:0|0:0|0:0,0:0:0:0:
420,172,109167,2,0,L|420:280,1,105,6|0,0:0|0:0,0:0:0:0:
376,308,109520,2,0,P|364:272|376:244,2,70,10|8|6,0:0|0:0|0:0,0:0:0:0:
184,256,110226,6,0,P|144:240|120:212,1,70,10|0,0:0|0:0,0:0:0:0:
192,172,110579,1,4,0:0:0:0:
272,148,110756,1,2,0:0:0:0:
312,76,110932,2,0,P|280:64|228:80,2,70,8|8|6,0:0|0:0|0:0,0:0:0:0:
372,240,111638,6,0,L|344:260,3,35,8|0|2|0,0:0|0:0|0:0|0:0,0:0:0:0:
304,264,111991,2,0,L|268:264,3,35,6|0|2|0,0:0|0:0|0:0|0:0,0:0:0:0:
232,264,112344,2,0,L|196:264,4,35,8|0|8|8|0,0:0|0:0|0:0|0:0|0:0,0:0:0:0:
256,48,113050,5,4,0:0:0:0:
256,68,124344,5,8,0:0:0:0:
92,192,125050,1,8,0:0:0:0:
256,316,125756,1,8,0:0:0:0:
416,192,126461,1,8,0:0:0:0:
136,72,127167,5,8,0:0:0:0:
136,312,127873,1,8,0:2:0:0:
376,312,128579,1,8,0:2:0:0:
376,72,129285,1,8,0:2:0:0:
256,112,129991,5,8,0:0:0:0:
156,192,130344,1,8,0:0:0:0:
256,272,130697,1,8,0:0:0:0:
356,192,131050,1,8,0:0:0:0:
256,112,131403,6,0,L|256:184,1,70,8|2,0:0|0:0,0:0:0:0:
156,192,131756,2,0,L|228:192,1,70,10|2,0:0|0:0,0:0:0:0:
256,272,132108,2,0,L|256:200,1,70,10|2,0:0|0:0,0:0:0:0:
356,192,132461,2,0,L|284:192,1,70,10|2,0:0|0:0,0:0:0:0:
256,112,132814,5,10,0:0:0:0:
300,112,132991,1,8,0:0:0:0:
340,112,133167,1,8,0:0:0:0:
384,112,133344,1,10,0:0:0:0:
424,112,133520,6,0,L|448:140,8,35,8|0|0|0|2|0|0|0|0,0:0|0:0|0:0|0:0|0:0|0:0|0:0|0:0|0:0,0:0:0:0:
256,280,135285,5,0,0:0:0:0:
256,280,135638,6,0,L|256:140,1,140,4|0,0:0|0:0,0:0:0:0:
200,88,136167,1,0,0:0:0:0:
124,100,136344,2,0,P|140:136|168:156,1,70,6|0,0:0|0:0,0:0:0:0:
64,144,136697,2,0,P|52:184|32:204,1,70,2|0,0:0|0:0,0:0:0:0:
104,252,137050,6,0,L|132:272,3,35,10|0|2|0,0:0|0:0|0:0|0:0,0:0:0:0:
164,296,137403,2,0,P|208:304|272:288,1,105,2|8,0:0|0:0,0:0:0:0:
300,268,137756,2,0,L|328:244,3,35,6|0|2|0,0:0|0:0|0:0|0:0,0:0:0:0:
360,228,138108,2,0,B|360:188|324:172|324:172|304:132,1,105,2|0,0:0|0:0,0:0:0:0:
284,108,138461,6,0,P|214:129|164:172,1,140,4|0,0:0|0:0,0:0:0:0:
140,244,138991,1,0,0:0:0:0:
208,284,139167,2,0,P|176:312|148:324,1,70,6|0,0:0|0:0,0:0:0:0:
248,216,139520,2,0,P|276:248|288:284,1,70,2|0,0:0|0:0,0:0:0:0:
244,352,139873,6,0,L|208:352,3,35,10|0|2|0,0:0|0:0|0:0|0:0,0:0:0:0:
172,352,140226,2,0,L|140:340,3,35,2|0|2|8,0:0|0:0|0:0|0:0,0:0:0:0:
116,308,140579,2,0,P|160:240|208:208,1,140,6|2,0:0|0:0,0:0:0:0:
396,192,141285,6,0,B|328:176|316:208|256:192,1,140,4|0,0:0|0:0,0:0:0:0:
192,152,141814,1,0,0:0:0:0:
240,92,141991,2,0,P|204:76|160:84,1,70,6|0,0:0|0:0,0:0:0:0:
112,32,142344,2,0,P|96:76|108:112,1,70,2|0,0:0|0:0,0:0:0:0:
104,196,142697,6,0,L|132:216,3,35,10|0|2|0,0:0|0:0|0:0|0:0,0:0:0:0:
156,248,143050,2,0,P|201:256|260:240,1,105,2|8,0:0|0:0,0:0:0:0:
292,220,143403,2,0,P|260:164|272:92,1,140,6|2,0:0|0:0,0:0:0:0:
300,68,143844,2,0,L|288:32,3,35,0|2|0|10,0:0|0:0|0:0|0:0,0:0:0:0:
196,64,144285,5,0,0:0:0:0:
120,104,144461,2,0,P|140:136|188:144,1,70,0|2,0:0|0:0,0:0:0:0:
248,144,144814,2,0,P|236:180|216:208,1,70,4|0,0:0|0:0,0:0:0:0:
140,220,145167,2,0,L|140:292,2,70,2|2|8,0:0|0:0|0:0,0:0:0:0:
208,252,145697,5,2,0:0:0:0:
308,216,145873,1,2,0:0:0:0:
280,296,146050,2,0,L|292:328,2,35,2|8|6,0:0|0:0|0:0,0:0:0:0:
236,176,146403,2,0,L|228:140,5,35,10|8|6|8|10|8,0:0|0:0|0:0|0:0|0:0|0:0,0:0:0:0:
220,100,146932,6,0,P|180:76|88:96,1,140,4|0,0:0|0:0,0:0:0:0:
152,144,147461,1,0,0:0:0:0:
180,216,147638,2,0,P|148:244|128:284,1,70,6|0,0:0|0:0,0:0:0:0:
208,288,147991,2,0,P|240:260|260:220,1,70,2|0,0:0|0:0,0:0:0:0:
316,192,148344,6,0,L|340:164,3,35,10|0|2|0,0:0|0:0|0:0|0:0,0:0:0:0:
356,132,148697,2,0,B|332:100|296:116|268:76,1,105,2|8,0:0|0:0,0:0:0:0:
228,64,149050,2,0,L|192:68,3,35,6|0|2|0,0:0|0:0|0:0|0:0,0:0:0:0:
156,76,149403,2,0,B|144:104|104:112|104:112|92:152,1,105,2|0,0:0|0:0,0:0:0:0:
92,188,149756,6,0,B|161:170|160:208|232:196,1,140,4|0,0:0|0:0,0:0:0:0:
308,188,150285,1,0,0:0:0:0:
336,116,150461,2,0,P|316:88|280:72,1,70,6|0,0:0|0:0,0:0:0:0:
188,88,150814,2,0,P|212:112|244:128,1,70,2|0,0:0|0:0,0:0:0:0:
430,120,151167,6,0,L|428:84,3,35,10|0|2|0,0:0|0:0|0:0|0:0,0:0:0:0:
392,68,151520,2,0,L|362:52,3,35,2|0|2|8,0:0|0:0|0:0|0:0,0:0:0:0:
324,40,151873,2,0,P|282:32|200:76,1,140,6|2,0:0|0:0,0:0:0:0:
256,152,152579,6,0,P|320:176|340:240,1,140,4|0,0:0|0:0,0:0:0:0:
264,228,153108,1,0,0:0:0:0:
192,248,153285,2,0,L|192:320,1,70,6|0,0:0|0:0,0:0:0:0:
100,280,153638,2,0,L|100:208,1,70,2|0,0:0|0:0,0:0:0:0:
124,96,153991,6,0,L|156:84,3,35,10|0|2|0,0:0|0:0|0:0|0:0,0:0:0:0:
184,56,154344,2,0,P|228:48|288:52,1,105,2|8,0:0|0:0,0:0:0:0:
304,88,154697,2,0,P|296:132|316:224,1,140,6|2,0:0|0:0,0:0:0:0:
348,248,155138,2,0,L|376:268,3,35,0|2|0|10,0:0|0:0|0:0|0:0,0:0:0:0:
424,192,155579,5,0,0:0:0:0:
368,140,155756,1,0,0:0:0:0:
292,132,155932,1,2,0:0:0:0:
228,176,156108,1,4,0:0:0:0:
160,216,156285,2,0,P|120:228|88:228,2,70,0|2|2,0:0|0:0|0:0,0:0:0:0:
112,148,156814,5,8,0:0:0:0:
136,68,156991,1,2,0:0:0:0:
216,40,157167,1,2,0:0:0:0:
300,56,157344,2,0,L|336:52,2,35,2|8|6,0:0|0:0|0:0,0:0:0:0:
300,140,157697,2,0,L|336:144,1,35,2|0,0:0|0:0,0:0:0:0:
144,296,158226,5,4,0:0:0:0:
256,192,169520,6,0,B|312:180|328:152|388:140,2,140,4|0|6,0:0|0:0|0:0,0:0:0:0:
200,248,170403,1,2,0:0:0:0:
128,112,170756,1,2,0:0:0:0:
280,120,171108,1,2,0:0:0:0:
328,260,171461,6,0,P|296:288|252:296,1,70,2|4,0:0|0:0,0:0:0:0:
200,248,171814,2,0,P|232:220|276:212,1,70,2|0,0:0|0:0,0:0:0:0:
192,156,172167,1,2,0:0:0:0:
192,156,172344,6,0,P|220:96|284:104,1,140,10|0,0:0|0:0,0:0:0:0:
272,188,172873,2,0,L|320:240,1,70,0|4,0:0|0:0,0:0:0:0:
376,300,173226,1,2,0:0:0:0:
420,160,173579,1,2,0:0:0:0:
324,60,173932,1,2,0:0:0:0:
120,280,174285,6,0,L|88:308,2,35,2|8|6,0:0|0:0|0:0,0:0:0:0:
124,196,174638,1,2,0:0:0:0:
200,236,174814,1,2,0:0:0:0:
200,152,174991,1,0,0:0:0:0:
280,196,175167,5,10,0:0:0:0:
380,60,175520,1,4,0:0:0:0:
388,228,175873,5,8,0:0:0:0:
276,100,176226,1,4,0:0:0:0:
64,192,176579,5,8,0:0:0:0:
192,304,176932,1,4,0:0:0:0:
172,136,177285,5,8,0:0:0:0:
92,288,177638,1,4,0:0:0:0:
324,268,177991,6,0,P|352:252|392:248,1,70,10|8,0:0|0:0,0:0:0:0:
444,304,178344,2,0,P|416:320|376:324,1,70,4|8,0:0|0:0,0:0:0:0:
296,192,178697,6,0,L|296:120,1,70,10|10,0:0|0:0,0:0:0:0:
216,124,179050,2,0,L|216:196,1,70,4|10,0:0|0:0,0:0:0:0:
188,268,179403,6,0,P|160:252|120:248,1,70,10|8,0:0|0:0,0:0:0:0:
68,304,179756,2,0,P|96:320|136:324,1,70,4|8,0:0|0:0,0:0:0:0:
256,312,180108,6,0,L|256:348,4,35,8|0|8|8|4,0:0|0:0|0:0|0:0|0:0,0:0:0:0:
256,40,180814,6,0,B|224:68|184:68|184:68|160:124,1,140,4|4,0:0|0:0,0:0:0:0:
212,184,181344,1,0,0:0:0:0:
288,176,181520,2,0,P|328:152|352:112,1,70,10|8,0:0|0:0,0:0:0:0:
260,244,181873,2,0,P|220:268|196:304,1,70,6|0,0:0|0:0,0:0:0:0:
340,336,182226,6,0,L|368:316,3,35,10|0|2|0,0:0|0:0|0:0|0:0,0:0:0:0:
408,316,182579,2,0,P|440:284|452:224,1,105,6|0,0:0|0:0,0:0:0:0:
444,188,182932,2,0,P|424:180|408:172,3,35,10|0|10|0,0:0|0:0|0:0|0:0,0:0:0:0:
388,144,183285,2,0,B|364:128|328:128|328:128|296:100,1,105,6|0,0:0|0:0,0:0:0:0:
256,92,183638,6,0,L|256:232,1,140,4|4,0:0|0:0,0:0:0:0:
224,300,184167,2,0,P|256:312|292:296,2,70,0|10|8,0:0|0:0|0:0,0:0:0:0:
180,236,184697,2,0,P|168:204|180:168,1,70,6|0,0:0|0:0,0:0:0:0:
248,200,185050,6,0,L|284:188,3,35,10|0|2|0,0:0|0:0|0:0|0:0,0:0:0:0:
320,200,185403,2,0,L|340:172,3,35,6|0|2|0,0:0|0:0|0:0|0:0,0:0:0:0:
376,160,185756,2,0,P|372:128|348:96,2,70,10|8|6,0:0|0:0|0:0,0:0:0:0:
256,100,186461,6,0,B|204:136|156:100|156:100|120:100,1,140,4|4,0:0|0:0,0:0:0:0:
204,44,186991,1,0,0:0:0:0:
204,192,187167,2,0,L|204:264,1,70,10|8,0:0|0:0,0:0:0:0:
280,300,187520,2,0,L|280:228,1,70,6|0,0:0|0:0,0:0:0:0:
368,208,187873,6,0,L|388:180,3,35,10|0|2|0,0:0|0:0|0:0|0:0,0:0:0:0:
408,148,188226,2,0,P|368:128|308:128,1,105,6|0,0:0|0:0,0:0:0:0:
292,164,188579,2,0,P|256:160|224:144,2,70,10|8|6,0:0|0:0|0:0,0:0:0:0:
292,204,189020,1,0,0:0:0:0:
312,236,189108,1,2,0:0:0:0:
340,260,189197,1,0,0:0:0:0:
356,296,189285,6,0,P|320:320|288:328,1,70,10|0,0:0|0:0,0:0:0:0:
216,328,189638,1,4,0:0:0:0:
152,284,189814,2,0,P|132:244|132:212,1,70,2|8,0:0|0:0,0:0:0:0:
152,144,190167,1,8,0:0:0:0:
212,96,190344,2,0,L|284:96,1,70,6|0,0:0|0:0,0:0:0:0:
344,144,190697,5,8,0:0:0:0:
392,292,191050,1,4,0:0:0:0:
240,288,191403,2,0,P|204:280|176:264,1,70,10|10,0:0|0:0,0:0:0:0:
232,212,191756,1,4,0:0:0:0:
232,212,191844,1,4,0:0:0:0:
232,212,191932,1,4,0:0:0:0:
248,136,192108,6,0,P|316:96|356:128,1,140,4|4,0:0|0:0,0:0:0:0:
308,188,192638,1,0,0:0:0:0:
312,264,192814,2,0,L|352:324,1,70,10|8,0:0|0:0,0:0:0:0:
244,360,193167,2,0,L|204:300,1,70,6|0,0:0|0:0,0:0:0:0:
136,212,193520,6,0,L|144:176,3,35,10|0|2|0,0:0|0:0|0:0|0:0,0:0:0:0:
160,144,193873,2,0,P|212:144|260:108,1,105,6|0,0:0|0:0,0:0:0:0:
284,88,194226,2,0,L|316:76,3,35,10|0|10|0,0:0|0:0|0:0|0:0,0:0:0:0:
356,72,194579,2,0,P|368:116|376:176,1,105,6|0,0:0|0:0,0:0:0:0:
376,220,194932,6,0,B|356:272|276:228|252:280,1,140,4|4,0:0|0:0,0:0:0:0:
308,324,195461,1,0,0:0:0:0:
316,176,195638,2,0,P|312:140|296:108,1,70,10|8,0:0|0:0,0:0:0:0:
220,96,195991,2,0,P|224:132|240:164,1,70,6|0,0:0|0:0,0:0:0:0:
380,100,196344,6,0,L|408:120,3,35,10|0|2|0,0:0|0:0|0:0|0:0,0:0:0:0:
408,160,196697,2,0,L|420:192,3,35,6|0|2|0,0:0|0:0|0:0|0:0,0:0:0:0:
416,232,197050,2,0,P|396:260|364:272,2,70,10|8|6,0:0|0:0|0:0,0:0:0:0:
196,192,197756,6,0,P|200:124|268:136,1,140,4|4,0:0|0:0,0:0:0:0:
272,200,198285,1,0,0:0:0:0:
220,264,198461,2,0,P|184:268|152:256,1,70,10|8,0:0|0:0,0:0:0:0:
84,292,198814,2,0,P|76:256|80:224,1,70,6|0,0:0|0:0,0:0:0:0:
112,128,199167,6,0,L|144:112,3,35,10|0|2|0,0:0|0:0|0:0|0:0,0:0:0:0:
184,112,199520,2,0,P|228:128|296:104,1,105,6|0,0:0|0:0,0:0:0:0:
304,80,199873,2,0,P|340:76|384:84,2,70,10|8|6,0:0|0:0|0:0,0:0:0:0:
312,116,200314,1,0,0:0:0:0:
328,152,200403,1,2,0:0:0:0:
352,184,200491,1,0,0:0:0:0:
380,212,200579,6,0,P|384:248|400:280,1,70,10|0,0:0|0:0,0:0:0:0:
480,296,200932,2,0,P|476:260|460:228,1,70,4|2,0:0|0:0,0:0:0:0:
320,300,201285,2,0,L|248:300,1,70,8|8,0:0|0:0,0:0:0:0:
176,272,201638,2,0,L|176:200,1,70,6|0,0:0|0:0,0:0:0:0:
152,128,201991,6,0,L|164:88,3,35,8|0|2|0,0:0|0:0|0:0|0:0,0:0:0:0:
192,56,202344,2,0,L|224:44,3,35,6|0|2|0,0:0|0:0|0:0|0:0,0:0:0:0:
260,52,202697,2,0,L|300:56,4,35,8|0|8|8|4,0:0|0:0|0:0|0:0|0:0,0:0:0:0:
256,236,203403,6,0,B|208:184|172:232|128:196,1,140,4|2,0:0|0:0,0:0:0:0:
176,136,203932,2,0,P|208:136|240:112,1,70,2|4,0:0|0:0,0:0:0:0:
320,120,204285,1,0,0:0:0:0:
320,120,204461,2,0,B|364:160|332:208|368:248,1,140,2|8,0:0|0:0,0:0:0:0:
428,196,204991,5,2,0:0:0:0:
420,112,205167,1,2,0:0:0:0:
356,56,205344,1,2,0:0:0:0:
272,60,205520,1,6,0:0:0:0:
208,112,205697,2,0,P|212:152|228:176,2,70,2|0|2,0:0|0:0|0:0,0:0:0:0:
128,92,206226,6,0,P|112:132|148:216,1,140,10|0,0:0|0:0,0:0:0:0:
208,264,206756,2,0,L|172:328,2,70,2|4|0,0:0|0:0|0:0,0:0:0:0:
284,284,207285,2,0,P|324:248|328:152,1,140,2|8,0:0|0:0,0:0:0:0:
284,108,207814,5,2,0:0:0:0:
208,144,207991,1,2,0:0:0:0:
184,64,208167,1,2,0:0:0:0:
124,124,208344,5,6,0:0:0:0:
144,204,208520,1,2,0:0:0:0:
224,232,208697,1,0,0:0:0:0:
296,192,208873,1,2,0:0:0:0:
368,148,209050,6,0,P|380:220|332:268,1,140,10|0,0:0|0:0,0:0:0:0:
312,340,209579,1,2,0:0:0:0:
312,340,209756,2,0,L|244:316,1,70,4|0,0:0|0:0,0:0:0:0:
172,332,210108,2,0,P|140:324|112:300,2,70,2|2|8,0:0|0:0|0:0,0:0:0:0:
144,236,210638,6,0,L|172:172,1,70,2|2,0:0|0:0,0:0:0:0:
204,100,210991,2,0,L|248:156,1,70,2|6,0:0|0:0,0:0:0:0:
284,88,211344,2,0,L|340:44,2,70,2|0|2,0:0|0:0|0:0,0:0:0:0:
172,172,211873,6,0,P|160:252|200:284,1,140,10|0,0:0|0:0,0:0:0:0:
236,216,212403,2,0,L|300:188,1,70,2|4,0:0|0:0,0:0:0:0:
300,188,212756,1,0,0:0:0:0:
376,188,212932,2,0,L|316:60,1,140,2|8,0:0|0:0,0:0:0:0:
232,48,213461,5,2,0:0:0:0:
152,80,213638,1,2,0:0:0:0:
112,156,213814,2,0,L|76:168,2,35,2|8|4,0:0|0:0|0:0,0:0:0:0:
152,228,214167,2,0,L|188:224,2,35,10|8|6,0:0|0:0|0:0,0:0:0:0:
140,268,214432,2,0,L|108:256,2,35,8|10|8,0:0|0:0|0:0,0:0:0:0:
148,308,214697,6,0,P|172:344|260:336,1,140,4|0,0:0|0:0,0:0:0:0:
336,336,215226,2,0,L|408:336,1,70,2|4,0:0|0:0,0:0:0:0:
452,276,215579,1,0,0:0:0:0:
404,216,215756,2,0,P|384:168|312:116,1,140,2|8,0:0|0:0,0:0:0:0:
236,124,216285,6,0,P|204:132|176:156,1,70,2|2,0:0|0:0,0:0:0:0:
240,200,216638,2,0,P|276:188|300:168,1,70,2|6,0:0|0:0,0:0:0:0:
284,64,216991,2,0,P|252:48|216:52,2,70,2|0|2,0:0|0:0|0:0,0:0:0:0:
392,78,217520,6,0,L|392:220,1,140,10|0,0:0|0:0,0:0:0:0:
316,220,218050,2,0,P|304:252|320:288,2,70,2|4|0,0:0|0:0|0:0,0:0:0:0:
392,218,218579,2,0,P|376:152|316:120,1,140,2|8,0:0|0:0,0:0:0:0:
252,176,219108,5,2,0:0:0:0:
180,220,219285,1,2,0:0:0:0:
140,148,219461,1,2,0:0:0:0:
204,96,219638,1,6,0:0:0:0:
288,96,219814,2,0,L|360:96,2,70,2|0|2,0:0|0:0|0:0,0:0:0:0:
252,176,220344,6,0,B|304:188|324:148|388:160,1,140,10|0,0:0|0:0,0:0:0:0:
464,152,220873,1,2,0:0:0:0:
440,80,221050,2,0,P|408:56|380:48,1,70,4|0,0:0|0:0,0:0:0:0:
304,48,221403,1,2,0:0:0:0:
304,48,221579,2,0,L|304:120,1,70,2|8,0:0|0:0,0:0:0:0:
224,140,221932,5,2,0:0:0:0:
96,140,222108,1,2,0:0:0:0:
204,64,222285,1,2,0:0:0:0:
160,188,222461,1,6,0:0:0:0:
116,64,222638,1,2,0:0:0:0:
224,140,222814,2,0,P|256:152|288:140,1,70,0|2,0:0|0:0,0:0:0:0:
372,100,223167,6,0,P|436:84|488:128,1,140,10|0,0:0|0:0,0:0:0:0:
436,196,223697,2,0,L|492:240,2,70,2|4|0,0:0|0:0|0:0,0:0:0:0:
352,208,224226,2,0,L|280:208,2,70,2|0|8,0:0|0:0|0:0,0:0:0:0:
316,284,224756,5,2,0:0:0:0:
232,296,224932,1,2,0:0:0:0:
172,240,225108,1,10,0:0:0:0:
172,240,225197,1,8,0:0:0:0:
172,240,225285,1,4,0:0:0:0:
256,144,225638,6,0,L|256:96,3,46.6666666666667,2|2|2|4,0:0|0:0|0:0|0:0,0:0:0:0:
