osu file format v13

[General]
AudioFilename: Assertive - Four's Fall Down - 41 Skybound.mp3
AudioLeadIn: 0
PreviewTime: 20552
Countdown: 0
SampleSet: Soft
StackLeniency: 0.7
Mode: 0
LetterboxInBreaks: 0
WidescreenStoryboard: 0

[Editor]
DistanceSpacing: 1.3
BeatDivisor: 4
GridSize: 4
TimelineZoom: 1.3

[Metadata]
Title:Skybound
TitleUnicode:Skybound
Artist:Assertive
ArtistUnicode:Assertive
Creator:AlpacaCokelat
Version:Insane
Source:
Tags:rainbow & rooted four's fall down dnb drum and bass uk hardcore
BeatmapID:471829
BeatmapSetID:111738

[Difficulty]
HPDrainRate:7
CircleSize:4
OverallDifficulty:7
ApproachRate:9
SliderMultiplier:1.4
SliderTickRate:1

[Events]
//Background and Video events
0,0,"bg.jpg",0,0
//Break Periods
2,66004,75661
2,175717,185375
//Storyboard Layer 0 (Background)
//Storyboard Layer 1 (Fail)
//Storyboard Layer 2 (Pass)
//Storyboard Layer 3 (Foreground)
//Storyboard Sound Samples
//Background Colour Transformations
3,100,163,162,255

[TimingPoints]
10947,342.857142857143,4,2,4,50,1,0
21918,-100,4,2,4,70,0,1
32889,-100,4,2,4,60,0,0
43175,-100,4,2,4,50,0,0
43861,-100,4,2,4,60,0,0
76261,-200,4,2,2,70,0,0
87404,-200,4,2,1,60,0,0
87747,-100,4,2,1,50,0,0
120661,-100,4,2,1,80,0,0
125804,-100,4,2,1,60,0,0
126147,-100,4,2,1,80,0,0
130261,-100,4,2,1,50,0,0
131289,-50,4,2,1,60,0,0
131632,-80,4,2,1,70,0,1
151861,-66.6666666666667,4,2,1,55,0,1
152204,-66.6666666666667,4,2,1,55,0,0
152889,-50,4,2,1,55,0,0
153575,-66.6666666666667,4,2,1,70,0,1
155461,-57.1428571428571,4,2,1,70,0,1
155804,-50,4,2,1,70,0,1
156318,-66.6666666666667,4,2,1,70,0,1
158204,-57.1428571428571,4,2,1,70,0,1
158547,-50,4,2,1,70,0,1
159061,-66.6666666666667,4,2,1,70,0,1
160947,-57.1428571428571,4,2,1,70,0,1
161289,-50,4,2,1,70,0,1
161804,-66.6666666666667,4,2,1,70,0,1
163689,-57.1428571428571,4,2,1,70,0,1
164032,-50,4,2,1,70,0,1
164547,-66.6666666666667,4,2,1,70,0,1
172775,-66.6666666666667,4,2,1,40,0,1
173118,-66.6666666666667,4,2,1,50,0,1
175175,-50,4,2,1,60,0,1
175432,-100,4,2,1,60,0,0
175518,-100,4,2,1,80,0,1
175604,-100,4,2,1,40,0,0
186489,-100,4,2,1,50,0,0
194718,-100,4,2,1,40,0,0
197461,-100,4,2,1,70,0,0

[Colours]
Combo1 : 37,64,250
Combo2 : 43,186,255
Combo3 : 163,50,211
Combo4 : 230,227,230

[HitObjects]
96,104,10947,6,0,P|180:88|244:44,1,140,4|8,0:0|0:0,0:0:0:0:
348,96,11461,1,0,0:0:0:0:
364,104,11547,1,0,0:0:0:0:
380,112,11632,1,0,0:0:0:0:
328,200,11804,2,0,P|288:180|256:176,1,70,0|8,0:0|0:0,0:0:0:0:
152,240,12147,1,0,0:0:0:0:
232,320,12318,6,0,L|400:344,1,140,0|8,0:0|0:0,0:0:0:0:
364,212,12832,1,0,0:0:0:0:
352,208,12918,1,0,0:0:0:0:
340,204,13004,1,0,0:0:0:0:
376,116,13175,1,0,0:0:0:0:
376,116,13347,2,0,P|416:104|448:76,1,70,8|0,0:0|0:0,0:0:0:0:
264,100,13689,6,0,P|223:76|193:38,1,70
320,64,14032,2,0,P|280:96|176:136,1,140,10|0,0:0|0:0,0:0:0:0:
164,64,14547,2,0,L|232:208,1,140,2|0,0:0|0:0,0:0:0:0:
116,252,15061,5,0,0:0:0:0:
232,276,15232,1,0,0:0:0:0:
316,352,15404,2,0,P|340:296|324:216,1,140,10|0,0:0|0:0,0:0:0:0:
432,276,15918,2,0,P|428:228|376:144,1,140,2|0,0:0|0:0,0:0:0:0:
228,52,16432,5,0,0:0:0:0:
228,52,16775,2,0,L|120:144,1,140,8|0,0:0|0:0,0:0:0:0:
76,252,17289,1,0,0:0:0:0:
171,315,17461,2,0,P|224:264|291:260,1,140,8|0,0:0|0:0,0:0:0:0:
264,360,17975,5,0,0:0:0:0:
376,312,18147,1,8,0:0:0:0:
288,248,18318,1,0,0:0:0:0:
280,232,18404,1,0,0:0:0:0:
272,216,18489,1,0,0:0:0:0:
301,107,18661,1,0,0:0:0:0:
196,68,18832,1,8,0:0:0:0:
148,172,19004,1,0,0:0:0:0:
428,186,19175,5,0,0:0:0:0:
428,186,19518,2,0,P|368:156|344:80,1,140,10|0,0:0|0:0,0:0:0:0:
449,82,20032,2,0,L|326:203,1,140,2|0,0:0|0:0,0:0:0:0:
156,156,20547,5,8,0:0:0:0:
312,44,20718,1,0,0:0:0:0:
192,44,20889,1,0,0:0:0:0:
340,156,21061,1,8,0:0:0:0:
252,236,21232,1,0,0:0:0:0:
252,252,21318,1,0,0:0:0:0:
252,264,21404,1,0,0:0:0:0:
432,140,21575,5,0,0:0:0:0:
416,108,21661,1,0,0:0:0:0:
396,80,21747,1,0,0:0:0:0:
368,60,21832,1,0,0:0:0:0:
336,48,21918,6,0,P|256:60|184:36,1,140,4|8,0:0|0:0,0:0:0:0:
92,116,22432,2,0,P|84:196|60:260,1,140
216,304,22947,2,0,P|216:256|232:212,1,70,8|0,0:0|0:0,0:0:0:0:
260,84,23289,5,0,0:0:0:0:
444,56,23461,1,0,0:0:0:0:
368,160,23632,1,8,0:0:0:0:
432,272,23804,1,0,0:0:0:0:
432,272,23889,1,0,0:0:0:0:
432,272,23975,2,0,P|376:280|352:304,1,70
260,220,24318,2,0,P|224:236|184:236,1,70,8|0,0:0|0:0,0:0:0:0:
80,108,24661,5,0,0:0:0:0:
196,56,24832,1,0,0:0:0:0:
296,112,25004,1,8,0:0:0:0:
416,52,25175,2,0,L|496:44,1,70
408,204,25518,2,0,L|488:212,1,70,0|8,0:0|0:0,0:0:0:0:
260,220,25861,6,0,P|212:224|188:240,2,70,0|0|0,0:0|0:0|0:0,0:0:0:0:
348,312,26375,1,8,0:0:0:0:
456,248,26547,1,0,0:0:0:0:
456,248,26632,1,0,0:0:0:0:
456,248,26718,2,0,L|432:160,1,70
432,56,27061,2,0,P|392:80|352:88,1,70,8|0,0:0|0:0,0:0:0:0:
192,48,27404,6,0,L|144:196,1,140,2|8,0:0|0:0,0:0:0:0:
52,212,27918,2,0,P|164:228|196:264,1,140,2|0,0:0|0:0,0:0:0:0:
96,316,28432,1,8,0:0:0:0:
188,356,28604,1,0,0:0:0:0:
296,308,28775,6,0,L|344:240,1,70,0|0,0:0|0:0,0:0:0:0:
228,184,29118,1,8,0:0:0:0:
276,96,29289,1,0,0:0:0:0:
276,96,29375,1,0,0:0:0:0:
276,96,29461,1,0,0:0:0:0:
228,184,29632,1,0,0:0:0:0:
228,184,29804,2,0,L|320:196,1,70,8|0,0:0|0:0,0:0:0:0:
472,212,30147,5,0,0:0:0:0:
380,296,30318,1,0,0:0:0:0:
276,224,30489,2,0,P|216:208|136:228,1,140,10|0,0:0|0:0,0:0:0:0:
64,324,31004,2,0,P|96:248|88:168,1,140,2|0,0:0|0:0,0:0:0:0:
296,76,31518,6,0,P|336:64|364:44,2,70,0|0|10,0:0|0:0|0:0,0:0:0:0:
212,168,32032,1,0,0:0:0:0:
212,168,32118,1,0,0:0:0:0:
368,212,32289,1,0,0:0:0:0:
368,212,32375,1,2,0:0:0:0:
228,300,32547,5,8,0:0:0:0:
188,304,32632,1,0,0:0:0:0:
148,292,32718,1,0,0:0:0:0:
116,268,32804,1,0,0:0:0:0:
96,232,32889,6,0,P|76:184|88:80,1,140,4|8,0:0|0:0,0:0:0:0:
212,48,33404,2,0,L|368:80,1,140,0|0,0:0|0:0,0:0:0:0:
296,192,33918,1,8,0:0:0:0:
188,256,34089,1,0,0:0:0:0:
392,288,34261,6,0,P|420:252|432:196,1,70,0|0,0:0|0:0,0:0:0:0:
296,192,34604,1,8,0:0:0:0:
212,48,34775,1,0,0:0:0:0:
212,48,34861,1,0,0:0:0:0:
212,48,34947,2,0,P|244:76|288:88,1,70,0|0,0:0|0:0,0:0:0:0:
180,176,35289,2,0,L|112:212,1,70,8|0,0:0|0:0,0:0:0:0:
144,336,35632,5,0,0:0:0:0:
252,272,35804,1,0,0:0:0:0:
364,328,35975,1,8,0:0:0:0:
412,184,36147,2,0,L|384:112,1,70,0|0,0:0|0:0,0:0:0:0:
260,128,36489,2,0,L|232:56,1,70,0|8,0:0|0:0,0:0:0:0:
64,36,36832,1,0,0:0:0:0:
16,152,37004,5,0,0:0:0:0:
112,232,37175,1,0,0:0:0:0:
68,348,37347,1,8,0:0:0:0:
228,312,37518,1,0,0:0:0:0:
244,304,37604,1,0,0:0:0:0:
260,300,37689,1,0,0:0:0:0:
376,252,37861,1,0,0:0:0:0:
376,252,38032,2,0,L|360:152,1,70,8|0,0:0|0:0,0:0:0:0:
272,128,38375,6,0,P|216:160|124:144,1,140,0|8,0:0|0:0,0:0:0:0:
224,56,38889,2,0,P|276:44|360:112,1,140,0|0,0:0|0:0,0:0:0:0:
320,196,39404,1,8,0:0:0:0:
250,304,39575,1,0,0:0:0:0:
99,291,39747,6,0,P|91:237|101:194,1,70,0|0,0:0|0:0,0:0:0:0:
224,56,40089,2,0,P|232:110|222:153,1,70,8|0,0:0|0:0,0:0:0:0:
211,248,40432,1,0,0:0:0:0:
320,196,40604,1,0,0:0:0:0:
365,292,40775,1,8,0:0:0:0:
256,344,40947,1,0,0:0:0:0:
256,192,41032,12,8,42147,0:0:0:0:
92,120,42489,5,8,0:0:0:0:
200,68,42661,1,0,0:0:0:0:
300,132,42832,1,0,0:0:0:0:
412,88,43004,1,8,0:0:0:0:
420,240,43175,5,0,0:0:0:0:
408,252,43261,1,0,0:0:0:0:
396,264,43347,1,0,0:0:0:0:
384,276,43432,1,0,0:0:0:0:
372,288,43518,5,0,0:0:0:0:
336,292,43604,1,0,0:0:0:0:
300,292,43689,1,0,0:0:0:0:
264,292,43775,1,0,0:0:0:0:
228,292,43861,6,0,P|180:240|120:196,1,140,4|8,0:0|0:0,0:0:0:0:
116,80,44375,2,0,P|160:48|172:24,1,70
284,68,44718,2,0,L|376:88,2,70,0|8|0,0:0|0:0|0:0,0:0:0:0:
256,200,45232,5,0,0:0:0:0:
256,200,45575,2,0,P|232:244|128:288,1,140,2|0,0:0|0:0,0:0:0:0:
256,200,46089,2,0,P|280:244|384:288,1,140,2|0,0:0|0:0,0:0:0:0:
372,168,46604,5,0,0:0:0:0:
332,56,46775,1,0,0:0:0:0:
212,76,46947,1,8,0:0:0:0:
112,140,47118,2,0,L|76:204,1,70
132,316,47461,2,0,L|166:254,2,70,0|8|0,0:0|0:0|0:0,0:0:0:0:
256,200,47975,5,0,0:0:0:0:
256,200,48318,2,0,B|328:216|328:216|404:200,1,140,2|0,0:0|0:0,0:0:0:0:
256,200,48832,2,0,B|184:216|184:216|108:200,1,140,2|0,0:0|0:0,0:0:0:0:
192,48,49347,5,0,0:0:0:0:
300,112,49518,1,0,0:0:0:0:
416,64,49689,1,8,0:0:0:0:
436,188,49861,2,0,P|404:236|408:272,1,70
436,380,50204,2,0,P|404:332|408:296,1,70,0|8,0:0|0:0,0:0:0:0:
252,176,50547,1,0,0:0:0:0:
252,336,50718,5,0,0:0:0:0:
252,336,51061,2,0,B|219:304|219:304|158:299|133:231,1,140,2|0,0:0|0:0,0:0:0:0:
252,336,51575,2,0,B|285:304|285:304|346:299|371:231,1,140,2|0,0:0|0:0,0:0:0:0:
252,176,52089,6,0,L|156:152,2,70,0|0|8,0:0|0:0|0:0,0:0:0:0:
376,172,52604,2,0,P|436:176|456:188,1,70
196,84,52947,2,0,P|148:92|112:112,2,70,0|8|0,0:0|0:0|0:0,0:0:0:0:
132,220,53461,5,0,0:0:0:0:
152,340,53632,1,0,0:0:0:0:
268,320,53804,1,10,0:0:0:0:
356,204,53975,1,0,0:0:0:0:
356,204,54061,1,0,0:0:0:0:
332,88,54232,1,0,0:0:0:0:
332,88,54318,1,2,0:0:0:0:
216,108,54489,1,8,0:0:0:0:
216,108,54575,1,0,0:0:0:0:
216,108,54661,1,0,0:0:0:0:
132,220,54832,6,0,L|224:100,1,140,4|8,0:0|0:0,0:0:0:0:
346,51,55347,1,0,0:0:0:0:
454,178,55518,1,0,0:0:0:0:
292,137,55689,1,0,0:0:0:0:
445,74,55861,1,8,0:0:0:0:
355,219,56032,1,0,0:0:0:0:
240,308,56204,6,0,P|200:296|88:316,1,140,0|10,0:0|0:0,0:0:0:0:
64,192,56718,1,0,0:0:0:0:
52,172,56804,1,0,0:0:0:0:
48,152,56889,1,0,0:0:0:0:
52,132,56975,1,0,0:0:0:0:
60,112,57061,1,2,0:0:0:0:
180,60,57232,2,0,L|256:72,1,70,8|0,0:0|0:0,0:0:0:0:
424,88,57575,6,0,P|396:128|392:172,1,70
244,168,57918,2,0,P|296:192|328:192,1,70,8|0,0:0|0:0,0:0:0:0:
320,328,58261,2,0,P|348:288|352:256,1,70,0|0,0:0|0:0,0:0:0:0:
488,264,58604,2,0,P|452:236|408:232,1,70,8|0,0:0|0:0,0:0:0:0:
224,272,58947,6,0,P|152:256|84:216,1,140,0|10,0:0|0:0,0:0:0:0:
226,167,59461,1,0,0:0:0:0:
244,172,59547,1,0,0:0:0:0:
260,176,59632,1,0,0:0:0:0:
144,108,59804,2,0,P|168:64|164:40,1,70,2|8,0:0|0:0,0:0:0:0:
312,56,60147,1,0,0:0:0:0:
416,172,60318,6,0,L|444:244,2,70,0|0|8,0:0|0:0|0:0,0:0:0:0:
368,292,60832,2,0,P|324:312|296:340,1,70,0|0,0:0|0:0,0:0:0:0:
212,288,61175,2,0,L|128:272,1,70,0|8,0:0|0:0,0:0:0:0:
84,172,61518,1,0,0:0:0:0:
204,56,61689,5,0,0:0:0:0:
292,136,61861,1,0,0:0:0:0:
396,80,62032,1,10,0:0:0:0:
448,188,62204,1,0,0:0:0:0:
456,204,62289,1,0,0:0:0:0:
464,220,62375,1,0,0:0:0:0:
380,308,62547,1,2,0:0:0:0:
380,308,62718,2,0,P|340:312|304:336,1,70,8|0,0:0|0:0,0:0:0:0:
196,316,63061,5,0,0:0:0:0:
120,236,63232,1,0,0:0:0:0:
212,168,63404,1,8,0:0:0:0:
128,84,63575,1,0,0:0:0:0:
248,40,63747,1,0,0:0:0:0:
352,112,63918,1,0,0:0:0:0:
472,68,64089,1,8,0:0:0:0:
444,200,64261,1,0,0:0:0:0:
312,264,64432,6,0,P|268:280|232:312,1,70,10|0,0:0|0:0,0:0:0:0:
388,344,64775,1,0,0:0:0:0:
176,204,64947,1,10,0:0:0:0:
216,104,65118,5,0,0:0:0:0:
248,92,65204,1,0,0:0:0:0:
284,88,65289,1,0,0:0:0:0:
320,96,65375,1,0,0:0:0:0:
348,116,65461,1,0,0:0:0:0:
376,136,65547,1,0,0:0:0:0:
408,144,65632,1,0,0:0:0:0:
440,132,65718,1,0,0:0:0:0:
472,116,65804,1,4,0:0:0:0:
76,140,76261,5,2,0:0:0:0:
176,68,76432,1,2,0:0:0:0:
252,160,76604,1,0,0:0:0:0:
372,80,76775,5,2,0:0:0:0:
376,112,77289,1,0,0:0:0:0:
376,152,77804,2,0,P|372:196|280:336,1,210
120,292,79004,5,0,0:0:0:0:
204,200,79175,1,2,0:0:0:0:
152,88,79347,1,0,0:0:0:0:
268,60,79518,5,2,0:0:0:0:
300,64,80032,1,0,0:0:0:0:
328,76,80547,2,0,P|388:112|428:276,1,245
288,328,81918,5,0,0:0:0:0:
288,328,82261,2,0,P|244:320|204:300,1,70,2|0,0:0|0:0,0:0:0:0:
148,268,82775,2,0,L|60:284,1,70
288,328,83289,2,0,P|304:300|296:116,1,210,2|0,0:0|0:0,0:0:0:0:
412,56,84489,5,2,0:0:0:0:
400,168,84661,1,0,0:0:0:0:
288,56,84832,1,2,0:0:0:0:
144,96,85004,5,0,0:0:0:0:
396,96,85518,1,2,0:0:0:0:
268,288,86032,2,0,L|268:72,1,210
168,316,87404,5,8,0:0:0:0:
268,288,87575,1,0,0:0:0:0:
348,216,87747,6,0,P|324:172|324:128,1,70,4|0,0:0|0:0,0:0:0:0:
336,36,88089,2,0,L|240:44,1,70,0|0,0:0|0:0,0:0:0:0:
44,64,88604,1,0,0:0:0:0:
16,188,88775,1,0,0:0:0:0:
48,308,88947,1,0,0:0:0:0:
299,308,89289,5,0,0:0:0:0:
331,188,89461,1,0,0:0:0:0:
303,64,89632,1,0,0:0:0:0:
179,308,89975,1,0,0:0:0:0:
179,188,90147,1,0,0:0:0:0:
179,64,90318,1,0,0:0:0:0:
303,64,90489,5,0,0:0:0:0:
303,64,90661,1,0,0:0:0:0:
303,64,90832,2,0,L|391:84,1,70,0|0,0:0|0:0,0:0:0:0:
209,320,91347,2,0,L|121:300,2,70
143,76,92032,2,0,L|128:145,2,70
384,216,92718,2,0,L|404:128,2,70
359,316,93232,5,0,0:0:0:0:
359,316,93404,1,0,0:0:0:0:
235,337,93575,1,0,0:0:0:0:
111,308,93747,1,0,0:0:0:0:
208,76,94089,1,0,0:0:0:0:
263,189,94261,1,0,0:0:0:0:
317,75,94432,1,0,0:0:0:0:
171,31,94775,5,0,0:0:0:0:
263,255,94947,1,0,0:0:0:0:
358,34,95118,1,0,0:0:0:0:
185,180,95461,1,0,0:0:0:0:
263,124,95632,1,0,0:0:0:0:
340,184,95804,1,0,0:0:0:0:
263,255,95975,5,0,0:0:0:0:
263,255,96147,1,0,0:0:0:0:
263,255,96318,2,0,L|263:347,1,70,0|0,0:0|0:0,0:0:0:0:
447,152,96832,2,0,L|392:83,2,70,0|0|0,0:0|0:0|0:0,0:0:0:0:
65,152,97518,2,0,L|120:83,2,70,0|0|0,0:0|0:0|0:0,0:0:0:0:
263,325,98204,1,0,0:0:0:0:
263,325,98375,2,0,L|263:255,1,70,8|0,0:0|0:0,0:0:0:0:
264,172,98718,5,4,0:0:0:0:
224,84,98889,1,0,0:0:0:0:
132,48,99061,1,0,0:0:0:0:
36,68,99232,1,2,0:0:0:0:
36,68,99575,1,0,0:0:0:0:
76,160,99747,1,0,0:0:0:0:
164,204,99918,1,2,0:0:0:0:
164,204,100261,5,0,0:0:0:0:
264,172,100432,1,0,0:0:0:0:
356,204,100604,1,2,0:0:0:0:
356,204,100947,1,0,0:0:0:0:
408,284,101118,1,2,0:0:0:0:
316,320,101289,1,0,0:0:0:0:
112,304,101461,5,2,0:0:0:0:
96,208,101632,1,0,0:0:0:0:
108,112,101804,1,0,0:0:0:0:
88,16,101975,1,2,0:0:0:0:
272,64,102318,1,0,0:0:0:0:
360,104,102489,1,0,0:0:0:0:
452,64,102661,1,2,0:0:0:0:
452,64,103004,5,0,0:0:0:0:
360,104,103175,1,0,0:0:0:0:
272,64,103347,1,2,0:0:0:0:
272,64,103689,1,0,0:0:0:0:
256,160,103861,1,2,0:0:0:0:
292,252,104032,1,0,0:0:0:0:
452,64,104204,5,2,0:0:0:0:
472,160,104375,1,0,0:0:0:0:
424,256,104547,1,0,0:0:0:0:
456,344,104718,1,2,0:0:0:0:
168,308,105061,1,0,0:0:0:0:
192,212,105232,1,0,0:0:0:0:
176,116,105404,1,2,0:0:0:0:
176,116,105747,5,0,0:0:0:0:
268,148,105918,1,0,0:0:0:0:
360,120,106089,1,2,0:0:0:0:
360,120,106432,1,0,0:0:0:0:
272,28,106604,1,2,0:0:0:0:
140,40,106775,1,0,0:0:0:0:
64,156,106947,6,0,P|60:204|72:244,1,70,2|0,0:0|0:0,0:0:0:0:
447,225,107289,2,0,P|452:190|448:156,1,70,0|2,0:0|0:0,0:0:0:0:
152,116,107804,1,2,0:0:0:0:
256,44,107975,1,2,0:0:0:0:
360,116,108147,1,2,0:0:0:0:
360,268,108489,5,2,0:0:0:0:
256,340,108661,1,2,0:0:0:0:
152,268,108832,1,2,0:0:0:0:
95,74,109175,1,2,0:0:0:0:
95,74,109347,2,0,L|160:124,1,70,8|0,0:0|0:0,0:0:0:0:
416,160,109689,6,0,L|360:117,1,70,4|0,0:0|0:0,0:0:0:0:
336,232,110032,2,0,L|280:189,1,70,8|0,0:0|0:0,0:0:0:0:
95,74,110375,1,8,0:0:0:0:
76,172,110547,1,0,0:0:0:0:
192,72,110718,1,8,0:0:0:0:
344,64,110889,6,0,P|370:70|408:104,1,70,0|8,0:0|0:0,0:0:0:0:
300,160,111232,2,0,P|312:192|308:236,1,70,0|8,0:0|0:0,0:0:0:0:
192,216,111575,2,0,P|172:248|136:264,1,70,0|8,0:0|0:0,0:0:0:0:
192,72,111918,1,0,0:0:0:0:
276,24,112089,1,8,0:0:0:0:
364,72,112261,1,0,0:0:0:0:
359,197,112432,6,0,B|300:160,1,70,8|0,0:0|0:0,0:0:0:0:
132,152,112775,2,0,B|191:189,1,70,8|0,0:0|0:0,0:0:0:0:
356,316,113118,2,0,L|440:316,2,70,8|0|8,0:0|0:0|0:0,0:0:0:0:
112,272,113632,1,0,0:0:0:0:
40,160,113804,5,8,0:0:0:0:
112,272,113975,1,0,0:0:0:0:
132,136,114147,1,8,0:0:0:0:
112,272,114318,1,0,0:0:0:0:
212,180,114489,1,8,0:0:0:0:
112,272,114661,1,0,0:0:0:0:
228,276,114832,1,8,0:0:0:0:
320,216,115004,1,0,0:0:0:0:
344,128,115175,5,10,0:0:0:0:
340,116,115518,1,10,0:0:0:0:
336,104,115861,1,10,0:0:0:0:
260,28,116032,1,0,0:0:0:0:
144,72,116204,1,8,0:0:0:0:
105,191,116375,6,0,P|101:231|113:259,1,70,2|8,0:0|0:0,0:0:0:0:
225,311,116718,2,0,P|229:271|217:243,1,70,2|8,0:0|0:0,0:0:0:0:
321,175,117061,2,0,P|317:215|329:243,1,70,2|8,0:0|0:0,0:0:0:0:
441,295,117404,2,0,P|445:255|433:227,2,70,0|8|0,0:0|0:0|0:0,0:0:0:0:
304,328,117918,5,10,0:0:0:0:
288,328,118261,1,10,0:0:0:0:
276,328,118604,1,10,0:0:0:0:
160,292,118775,1,0,0:0:0:0:
108,184,118947,1,8,0:0:0:0:
272,40,119118,6,0,L|360:44,1,70,2|8,0:0|0:0,0:0:0:0:
276,136,119461,2,0,L|206:132,1,70,2|8,0:0|0:0,0:0:0:0:
300,228,119804,2,0,L|388:232,1,70,2|8,0:0|0:0,0:0:0:0:
304,324,120147,2,0,L|234:320,2,70,2|8|0,0:0|0:0|0:0,0:0:0:0:
432,324,120661,5,4,0:0:0:0:
256,192,120747,12,0,125804,0:0:0:0:
160,92,126147,5,4,0:0:0:0:
292,88,126318,1,0,0:0:0:0:
292,88,126404,1,0,0:0:0:0:
292,88,126489,1,0,0:0:0:0:
160,92,126661,1,0,0:0:0:0:
108,216,126832,5,0,0:0:0:0:
164,336,127004,1,0,0:0:0:0:
164,336,127089,1,0,0:0:0:0:
164,336,127175,1,0,0:0:0:0:
108,216,127347,1,0,0:0:0:0:
240,220,127518,5,4,0:0:0:0:
368,176,127689,1,0,0:0:0:0:
368,176,127775,1,0,0:0:0:0:
368,176,127861,1,0,0:0:0:0:
240,220,128032,1,0,0:0:0:0:
340,308,128204,5,0,0:0:0:0:
464,264,128375,1,0,0:0:0:0:
464,264,128461,1,0,0:0:0:0:
464,264,128547,1,0,0:0:0:0:
340,308,128718,1,0,0:0:0:0:
184,308,128889,5,4,0:0:0:0:
148,304,128975,1,0,0:0:0:0:
116,292,129061,1,0,0:0:0:0:
88,272,129147,1,0,0:0:0:0:
72,244,129232,1,0,0:0:0:0:
68,208,129318,1,0,0:0:0:0:
72,176,129404,5,0,0:0:0:0:
84,144,129489,1,0,0:0:0:0:
108,120,129575,1,0,0:0:0:0:
136,104,129661,1,0,0:0:0:0:
172,100,129747,1,0,0:0:0:0:
204,112,129832,1,0,0:0:0:0:
236,128,129918,5,0,0:0:0:0:
260,152,130004,1,0,0:0:0:0:
292,160,130089,1,0,0:0:0:0:
324,148,130175,1,0,0:0:0:0:
352,128,130261,22,0,L|384:100,3,35
344,212,130604,2,0,L|368:240,3,35,0|0|0|0,0:0|0:0|0:0|0:0,0:0:0:0:
264,188,130947,38,0,L|251:200,2,17.500000667572
248,76,131118,1,0,0:0:0:0:
248,76,131289,6,0,P|184:88|96:72,1,140
92,256,131632,6,0,P|140:304|248:318,1,175,6|10,0:0|0:0,0:0:0:0:
344,212,132147,1,0,0:0:0:0:
424,288,132318,2,0,P|454:226|410:124,1,175,2|8,0:0|0:0,0:0:0:0:
248,76,132832,1,2,0:0:0:0:
344,212,133004,1,0,0:0:0:0:
248,76,133175,6,0,P|218:94|184:140,1,87.5,2|8,0:0|0:0,0:0:0:0:
296,332,133518,2,0,P|326:314|360:268,1,87.5,2|0,0:0|0:0,0:0:0:0:
432,56,133861,1,2,0:0:0:0:
248,76,134032,1,8,0:0:0:0:
360,212,134204,1,0,0:0:0:0:
248,76,134375,6,0,L|72:88,1,175,2|10,0:0|0:0,0:0:0:0:
100,292,134889,1,0,0:0:0:0:
100,292,135061,2,0,L|140:160,1,131.25,2|0,0:0|0:0,0:0:0:0:
132,124,135404,6,0,P|168:152|224:164,1,87.5,8|2,0:0|0:0,0:0:0:0:
312,192,135747,1,0,0:0:0:0:
456,32,135918,2,0,L|384:88,1,87.5,2|8,0:0|0:0,0:0:0:0:
480,192,136261,2,0,L|388:192,1,87.5,2|0,0:0|0:0,0:0:0:0:
456,352,136604,2,0,L|384:296,1,87.5,2|8,0:0|0:0,0:0:0:0:
276,56,136947,1,0,0:0:0:0:
276,56,137118,6,0,P|240:104|280:216,1,175,2|10,0:0|0:0,0:0:0:0:
352,296,137632,1,0,0:0:0:0:
168,96,137804,2,0,P|164:160|192:236,1,131.25,2|0,0:0|0:0,0:0:0:0:
213,262,138147,1,10,0:0:0:0:
389,222,138318,2,0,P|437:230|484:256,2,87.5,2|0|2,0:0|0:0|0:0,0:0:0:0:
224,320,138832,6,0,P|172:332|124:360,1,87.5,8|2,0:0|0:0,0:0:0:0:
52,200,139175,2,0,P|80:168|92:104,1,87.5,0|2,0:0|0:0,0:0:0:0:
232,76,139518,1,8,0:0:0:0:
368,52,139689,1,0,0:0:0:0:
456,160,139861,6,0,L|424:256,1,87.5,2|0,0:0|0:0,0:0:0:0:
288,328,140204,2,0,L|384:296,1,87.5,10|0,0:0|0:0,0:0:0:0:
192,244,140547,2,0,L|232:112,1,131.25,2|0,0:0|0:0,0:0:0:0:
208,80,140889,6,0,P|258:74|304:44,2,87.5,10|2|0,0:0|0:0|0:0,0:0:0:0:
72,212,141404,2,0,P|72:260|92:308,1,87.5,2|8,0:0|0:0,0:0:0:0:
264,332,141747,2,0,P|312:328|356:312,1,87.5,2|0,0:0|0:0,0:0:0:0:
424,132,142089,1,2,0:0:0:0:
424,132,142261,2,0,P|344:140|276:92,1,131.25,8|0,0:0|0:0,0:0:0:0:
260,52,142604,6,0,P|208:72|164:72,1,87.5,6|0,0:0|0:0,0:0:0:0:
52,160,142947,2,0,P|104:180|148:180,1,87.5,10|0,0:0|0:0,0:0:0:0:
280,280,143289,2,0,P|228:300|184:300,1,87.5,2|0,0:0|0:0,0:0:0:0:
156,288,143547,1,0,0:0:0:0:
116,268,143632,1,10,0:0:0:0:
248,176,143804,1,2,0:0:0:0:
404,112,143975,1,0,0:0:0:0:
160,40,144147,6,0,P|208:64|260:72,1,87.5,2|8,0:0|0:0,0:0:0:0:
258,258,144489,2,0,P|282:210|290:158,1,87.5,2|0,0:0|0:0,0:0:0:0:
485,143,144832,2,0,P|437:119|385:111,1,87.5,2|8,0:0|0:0,0:0:0:0:
249,150,145175,1,0,0:0:0:0:
249,150,145347,6,0,L|134:157,1,87.5,2|0,0:0|0:0,0:0:0:0:
59,42,145689,2,0,L|146:36,1,87.5,10|0,0:0|0:0,0:0:0:0:
216,264,146032,2,0,L|101:271,1,87.5,2|0,0:0|0:0,0:0:0:0:
85,274,146289,1,0,0:0:0:0:
41,278,146375,1,10,0:0:0:0:
105,151,146547,1,2,0:0:0:0:
249,102,146718,1,0,0:0:0:0:
388,178,146889,6,0,L|457:245,1,87.5,2|8,0:0|0:0,0:0:0:0:
249,101,147232,2,0,L|186:40,1,87.5,2|0,0:0|0:0,0:0:0:0:
251,251,147575,2,0,L|320:318,1,87.5,2|8,0:0|0:0,0:0:0:0:
482,304,147918,1,0,0:0:0:0:
482,304,148089,6,0,P|412:287|302:318,1,175,2|10,0:0|0:0,0:0:0:0:
136,296,148604,1,0,0:0:0:0:
80,140,148775,2,0,L|234:53,1,175,2|8,0:0|0:0,0:0:0:0:
376,80,149289,1,2,0:0:0:0:
404,100,149375,1,0,0:0:0:0:
436,120,149461,1,0,0:0:0:0:
396,260,149632,6,0,P|356:268|311:290,1,87.5,2|8,0:0|0:0,0:0:0:0:
190,241,149975,1,2,0:0:0:0:
293,131,150147,1,0,0:0:0:0:
186,35,150318,1,2,0:0:0:0:
80,140,150489,1,8,0:0:0:0:
191,241,150661,1,2,0:0:0:0:
192,137,150832,5,2,0:0:0:0:
344,56,151004,2,0,P|376:80|393:139,1,87.5,0|10,0:0|0:0,0:0:0:0:
312,224,151347,1,0,0:0:0:0:
440,352,151518,2,0,L|474:224,1,131.25,2|0,0:0|0:0,0:0:0:0:
441,157,151861,6,0,L|308:106,1,105.000004005432,8|2,0:0|0:0,0:0:0:0:
120,100,152204,1,0,0:0:0:0:
108,140,152289,1,0,0:0:0:0:
120,180,152375,1,2,0:0:0:0:
140,216,152461,1,0,0:0:0:0:
168,248,152547,1,0,0:0:0:0:
176,288,152632,1,0,0:0:0:0:
164,328,152718,1,2,0:0:0:0:
256,160,152889,6,0,L|256:125,8,35
352,288,153404,1,0,0:0:0:0:
392,84,153575,6,0,L|280:56,1,105.000004005432,6|0,0:0|0:0,0:0:0:0:
108,112,153918,2,0,L|80:236,1,105.000004005432,10|0,0:0|0:0,0:0:0:0:
244,320,154261,1,2,0:0:0:0:
400,216,154432,1,0,0:0:0:0:
220,156,154604,2,0,P|276:144|316:120,1,105.000004005432,10|2,0:0|0:0,0:0:0:0:
492,48,154947,1,0,0:0:0:0:
400,216,155118,6,0,L|444:312,1,105.000004005432,2|8,0:0|0:0,0:0:0:0:
272,184,155461,6,0,L|332:312,1,122.500001168251,2|0,0:0|0:0,0:0:0:0:
136,136,155804,6,0,L|204:272,1,140,2|8,0:0|0:0,0:0:0:0:
344,344,156147,1,2,0:0:0:0:
50,195,156318,6,0,P|110:159|154:115,1,105.000004005432,2|0,0:0|0:0,0:0:0:0:
364,80,156661,2,0,P|404:120|472:152,1,105.000004005432,10|0,0:0|0:0,0:0:0:0:
424,296,157004,2,0,L|264:332,1,157.500006008148,2|0,0:0|0:0,0:0:0:0:
200,344,157347,2,0,P|260:288|280:232,1,105.000004005432,10|2,0:0|0:0,0:0:0:0:
88,152,157689,1,0,0:0:0:0:
256,68,157861,6,0,P|312:76|368:116,1,105.000004005432,2|8,0:0|0:0,0:0:0:0:
216,160,158204,6,0,P|272:168|344:224,1,122.500001168251,2|0,0:0|0:0,0:0:0:0:
172,264,158547,6,0,P|228:272|292:328,1,140,2|8,0:0|0:0,0:0:0:0:
48,336,158889,1,2,0:0:0:0:
36,210,159061,6,0,L|136:176,1,105.000004005432,2|0,0:0|0:0,0:0:0:0:
348,100,159404,2,0,L|246:73,1,105.000004005432,10|0,0:0|0:0,0:0:0:0:
440,216,159747,2,0,P|392:264|380:308,1,105.000004005432,2|0,0:0|0:0,0:0:0:0:
352,332,160004,1,0,0:0:0:0:
324,364,160089,1,10,0:0:0:0:
168,356,160261,1,2,0:0:0:0:
68,232,160432,1,0,0:0:0:0:
184,72,160604,6,0,B|240:64|240:64|308:88,1,105.000004005432,2|8,0:0|0:0,0:0:0:0:
188,180,160947,6,0,B|244:172|244:172|324:204,1,122.500001168251,2|0,0:0|0:0,0:0:0:0:
200,296,161289,6,0,B|256:288|256:288|336:324,1,140,2|8,0:0|0:0,0:0:0:0:
120,340,161632,1,2,0:0:0:0:
408,208,161804,6,0,P|436:152|432:96,1,105.000004005432,2|0,0:0|0:0,0:0:0:0:
240,28,162147,2,0,P|212:84|216:140,1,105.000004005432,10|0,0:0|0:0,0:0:0:0:
4,144,162489,1,2,0:0:0:0:
144,300,162661,1,0,0:0:0:0:
144,300,162747,1,0,0:0:0:0:
144,300,162832,2,0,L|240:244,1,105.000004005432,10|2,0:0|0:0,0:0:0:0:
408,208,163175,1,0,0:0:0:0:
280,108,163347,6,0,P|236:72|248:16,1,105.000004005432,2|8,0:0|0:0,0:0:0:0:
176,168,163689,6,0,P|132:128|128:52,1,122.500001168251,2|0,0:0|0:0,0:0:0:0:
68,236,164032,6,0,P|24:196|4:100,1,140,2|8,0:0|0:0,0:0:0:0:
260,48,164375,1,2,0:0:0:0:
144,248,164547,6,0,P|184:288|240:300,1,105.000004005432,6|0,0:0|0:0,0:0:0:0:
380,160,164889,2,0,P|340:200|284:212,1,105.000004005432,10|0,0:0|0:0,0:0:0:0:
120,80,165232,1,2,0:0:0:0:
52,280,165404,1,0,0:0:0:0:
52,280,165489,1,0,0:0:0:0:
52,280,165575,2,0,L|156:308,1,105.000004005432,10|2,0:0|0:0,0:0:0:0:
364,288,165918,5,0,0:0:0:0:
220,136,166089,1,2,0:0:0:0:
280,336,166261,1,8,0:0:0:0:
300,128,166432,1,2,0:0:0:0:
188,304,166604,5,0,0:0:0:0:
372,200,166775,1,2,0:0:0:0:
164,216,166947,1,8,0:0:0:0:
272,232,167118,1,2,0:0:0:0:
272,232,167204,1,0,0:0:0:0:
272,232,167289,6,0,L|252:124,1,105.000004005432,2|0,0:0|0:0,0:0:0:0:
96,268,167632,2,0,P|88:188|104:152,1,105.000004005432,10|0,0:0|0:0,0:0:0:0:
401,127,167975,2,0,P|350:124|304:148,1,105.000004005432,2|0,0:0|0:0,0:0:0:0:
316,288,168232,1,0,0:0:0:0:
336,296,168318,2,0,P|387:299|434:276,1,105.000004005432,10|2,0:0|0:0,0:0:0:0:
232,324,168661,5,0,0:0:0:0:
144,324,168832,1,2,0:0:0:0:
216,224,169004,5,8,0:0:0:0:
96,224,169175,1,2,0:0:0:0:
192,124,169347,5,0,0:0:0:0:
40,124,169518,1,2,0:0:0:0:
168,28,169689,1,8,0:0:0:0:
376,32,169861,1,2,0:0:0:0:
376,32,169947,1,0,0:0:0:0:
376,32,170032,6,0,L|420:132,1,105.000004005432,2|0,0:0|0:0,0:0:0:0:
376,352,170375,2,0,L|420:252,1,105.000004005432,10|0,0:0|0:0,0:0:0:0:
136,32,170718,2,0,L|92:132,1,105.000004005432,2|0,0:0|0:0,0:0:0:0:
136,352,171061,2,0,L|92:252,1,105.000004005432,10|2,0:0|0:0,0:0:0:0:
352,216,171404,5,0,0:0:0:0:
192,248,171575,1,2,0:0:0:0:
328,84,171747,1,8,0:0:0:0:
168,112,171918,1,2,0:0:0:0:
342,240,172089,5,0,0:0:0:0:
179,229,172261,1,2,0:0:0:0:
353,106,172432,1,8,0:0:0:0:
191,91,172604,1,2,0:0:0:0:
80,216,172775,6,0,L|56:272,3,52.5000020027161,10|8|8|8,0:0|0:0|0:0|0:0,0:0:0:0:
152,316,173118,2,0,L|216:332,3,52.5000020027161,10|8|8|8,0:0|0:0|0:0|0:0,0:0:0:0:
308,324,173461,2,0,L|404:304,3,52.5000020027161,10|8|8|8,0:0|0:0|0:0|0:0,0:0:0:0:
424,232,173804,2,0,L|456:164,3,52.5000020027161,10|8|10|8,0:0|0:0|0:0|0:0,0:0:0:0:
396,92,174147,5,8,0:0:0:0:
352,68,174232,1,8,0:0:0:0:
296,64,174318,1,10,0:0:0:0:
248,80,174404,1,8,0:0:0:0:
256,132,174489,1,8,0:0:0:0:
280,180,174575,1,8,0:0:0:0:
280,232,174661,1,10,0:0:0:0:
248,276,174747,1,8,0:0:0:0:
204,288,174832,1,8,0:0:0:0:
152,284,174918,1,8,0:0:0:0:
128,236,175004,1,10,0:0:0:0:
140,184,175089,1,8,0:0:0:0:
170,139,175175,6,0,B|187:60|129:34|129:34|71:122|-36:108,1,280,0|4,0:0|0:0,0:0:0:0:
80,80,185975,5,0,0:0:0:0:
160,120,186147,1,8,0:0:0:0:
240,76,186318,1,0,0:0:0:0:
332,84,186489,5,4,0:0:0:0:
332,84,186661,2,0,L|392:140,1,70,0|8,0:0|0:0,0:0:0:0:
317,257,187004,2,0,L|308:188,1,70
204,188,187347,2,0,L|194:257,1,70,0|8,0:0|0:0,0:0:0:0:
128,131,187689,6,0,L|180:84,1,70
332,84,188032,2,0,L|280:131,1,70,0|8,0:0|0:0,0:0:0:0:
120,128,188375,2,0,L|171:80,1,70
323,80,188718,2,0,L|271:127,1,70,0|8,0:0|0:0,0:0:0:0:
124,288,189061,5,0,0:0:0:0:
124,288,189147,1,0,0:0:0:0:
124,288,189232,2,0,P|164:304|200:304,1,70
280,280,189575,1,8,0:0:0:0:
368,224,189747,2,0,P|376:184|368:140,1,70
312,68,190089,2,0,P|268:64|232:48,1,70,0|8,0:0|0:0,0:0:0:0:
104,104,190432,6,0,P|96:148|116:184,1,70
208,208,190775,2,0,P|216:164|196:128,1,70,0|8,0:0|0:0,0:0:0:0:
96,108,191118,2,0,P|88:152|108:188,1,70
200,212,191461,2,0,P|208:168|188:132,1,70,0|8,0:0|0:0,0:0:0:0:
324,56,191804,5,0,0:0:0:0:
324,56,191889,1,0,0:0:0:0:
324,56,191975,1,0,0:0:0:0:
368,136,192147,1,0,0:0:0:0:
340,224,192318,2,0,P|304:256|280:256,1,70,8|0,0:0|0:0,0:0:0:0:
324,56,192661,5,0,0:0:0:0:
368,136,192832,1,0,0:0:0:0:
340,224,193004,2,0,P|292:233|272:221,1,70,8|0,0:0|0:0,0:0:0:0:
188,56,193347,5,0,0:0:0:0:
144,136,193518,1,0,0:0:0:0:
172,224,193689,2,0,P|208:256|232:256,1,70,8|0,0:0|0:0,0:0:0:0:
188,56,194032,5,0,0:0:0:0:
144,136,194204,1,0,0:0:0:0:
172,224,194375,2,0,P|219:233|239:221,1,70,8|0,0:0|0:0,0:0:0:0:
404,72,194718,5,8,0:0:0:0:
360,64,194804,1,8,0:0:0:0:
316,60,194889,1,8,0:0:0:0:
272,72,194975,1,8,0:0:0:0:
288,116,195061,1,8,0:0:0:0:
292,160,195147,1,8,0:0:0:0:
280,204,195232,1,8,0:0:0:0:
252,240,195318,1,8,0:0:0:0:
212,264,195404,5,8,0:0:0:0:
168,276,195489,1,8,0:0:0:0:
124,264,195575,1,8,0:0:0:0:
84,240,195661,1,8,0:0:0:0:
64,200,195747,1,8,0:0:0:0:
60,156,195832,1,8,0:0:0:0:
72,112,195918,1,8,0:0:0:0:
96,72,196004,1,8,0:0:0:0:
124,37,196089,1,8,0:0:0:0:
256,192,196175,12,4,197461,0:0:0:0:
