osu file format v13

[General]
AudioFilename: Assertive - Four's Fall Down - 41 Skybound.mp3
AudioLeadIn: 0
PreviewTime: 20552
Countdown: 0
SampleSet: Soft
StackLeniency: 0.7
Mode: 0
LetterboxInBreaks: 0
WidescreenStoryboard: 0

[Editor]
DistanceSpacing: 1.3
BeatDivisor: 4
GridSize: 4
TimelineZoom: 1

[Metadata]
Title:Skybound
TitleUnicode:Skybound
Artist:Assertive
ArtistUnicode:Assertive
Creator:AlpacaCokelat
Version:Easy
Source:
Tags:rainbow & rooted four's fall down dnb drum and bass uk hardcore
BeatmapID:305877
BeatmapSetID:111738

[Difficulty]
HPDrainRate:2
CircleSize:3
OverallDifficulty:2
ApproachRate:3
SliderMultiplier:0.699999999999999
SliderTickRate:1

[Events]
//Background and Video events
0,0,"bg.jpg",0,0
//Break Periods
2,66022,75335
2,87965,97278
2,120860,124707
2,175736,185049
//Storyboard Layer 0 (Background)
//Storyboard Layer 1 (Fail)
//Storyboard Layer 2 (Pass)
//Storyboard Layer 3 (Foreground)
//Storyboard Sound Samples
//Background Colour Transformations
3,100,163,162,255

[TimingPoints]
10947,342.857142857143,4,2,4,40,1,0
21918,-100,4,2,4,70,0,1
32889,-100,4,2,4,60,0,0
43860,-100,4,2,4,60,0,0
76775,-100,4,2,2,50,0,0
87403,-100,4,2,1,50,0,0
98718,-100,4,2,2,50,0,0
109689,-100,4,2,1,60,0,0
131632,-100,4,2,1,70,0,1
152204,-100,4,2,1,70,0,0
153575,-100,4,2,1,70,0,1
175432,-100,4,2,1,70,0,0
175518,-100,4,2,1,80,0,1
175604,-100,4,2,1,70,0,0
186489,-100,4,2,1,40,0,0

[Colours]
Combo1 : 37,64,250
Combo2 : 43,186,255
Combo3 : 163,50,211
Combo4 : 230,227,230

[HitObjects]
242,73,10947,6,0,B|179:77|179:77|144:112|104:124,2,140,4|2|0,0:0|0:0|0:0,0:0:0:0:
324,116,12661,2,0,L|380:180,1,69.9999999999999,8|2,0:0|0:0,0:0:0:0:
420,244,13347,1,8,0:0:0:0:
348,300,13689,5,0,0:0:0:0:
256,292,14032,2,0,L|152:282,1,105,2|2,0:0|0:0,0:0:0:0:
172,148,15061,2,0,L|276:158,2,105,0|0|10,0:0|0:0|0:0,0:0:0:0:
84,164,16432,6,0,P|68:212|108:296,2,140,0|2|0,0:0|0:0|0:0,0:0:0:0:
140,92,18147,2,0,L|224:92,1,69.9999999999999,8|2,0:0|0:0,0:0:0:0:
300,84,18832,1,8,0:0:0:0:
268,168,19175,6,0,P|236:232|260:304,1,140,0|2,0:0|0:0,0:0:0:0:
332,240,20204,1,8,0:0:0:0:
428,232,20547,2,0,P|411:188|366:149,2,105,8|8|0,0:0|0:0|0:0,0:0:0:0:
332,240,21918,6,0,B|252:284|180:216|180:216|124:208,1,210,4|8,0:0|0:0,0:0:0:0:
48,196,23289,1,0,0:0:0:0:
92,116,23632,2,0,L|240:128,1,140,8|8,0:0|0:0,0:0:0:0:
316,88,24661,6,0,P|284:132|360:272,1,210,0|8,0:0|0:0,0:0:0:0:
412,212,26032,2,0,P|416:152|388:112,2,105,0|0|8,0:0|0:0|0:0,0:0:0:0:
348,276,27404,6,0,B|264:304|176:248|176:248|88:296,2,280,0|0|0,0:0|0:0|0:0,0:0:0:0:
332,188,30489,2,0,P|256:188|212:140,1,140,8|8,0:0|0:0,0:0:0:0:
152,76,31518,2,0,P|100:84|56:116,2,105,0|0|8,0:0|0:0|0:0,0:0:0:0:
248,84,32889,6,0,B|320:108|380:56|380:56|420:128,1,210,4|8,0:0|0:0,0:0:0:0:
424,208,34261,1,0,0:0:0:0:
336,228,34604,2,0,L|192:240,1,140,8|8,0:0|0:0,0:0:0:0:
200,332,35632,6,0,P|140:312|136:172,1,210,0|8,0:0|0:0,0:0:0:0:
216,176,37004,2,0,P|248:224|252:280,2,105,0|0|8,0:0|0:0|0:0,0:0:0:0:
149,114,38375,6,0,L|48:68,2,105,0|0|8,0:0|0:0|0:0,0:0:0:0:
232,156,39747,2,0,P|268:163|308:152,1,69.9999999999999,0|8,0:0|0:0,0:0:0:0:
384,124,40432,1,0,0:0:0:0:
464,164,40775,1,8,0:0:0:0:
256,192,41118,12,4,43861,0:0:0:0:
388,288,46604,5,0,0:0:0:0:
448,220,46947,2,0,L|436:80,1,140,8|8,0:0|0:0,0:0:0:0:
349,53,47975,2,0,B|313:89|313:89|248:124|145:89,1,210,0|8,0:0|0:0,0:0:0:0:
68,76,49347,6,0,P|52:108|76:212,1,140
152,248,50375,1,8,0:0:0:0:
224,196,50718,2,0,B|264:160|320:152|320:152|380:204|380:248,1,210,0|8,0:0|0:0,0:0:0:0:
404,320,52089,6,0,P|456:336|512:336,2,105,0|0|8,0:0|0:0|0:0,0:0:0:0:
372,236,53461,2,0,P|320:248|264:244,2,105,0|0|8,0:0|0:0|0:0,0:0:0:0:
412,152,54832,6,0,L|448:52,2,105,4|0|8,0:0|0:0|0:0,0:0:0:0:
332,200,56204,1,0,0:0:0:0:
280,276,56547,2,0,P|244:236|252:152,1,140,10|10,0:0|0:0,0:0:0:0:
328,100,57575,6,0,L|440:108,2,105,0|0|8,0:0|0:0|0:0,0:0:0:0:
244,136,58947,1,0,0:0:0:0:
168,184,59289,2,0,B|92:176|68:88,1,140,10|10,0:0|0:0,0:0:0:0:
144,40,60318,6,0,P|192:48|252:28,2,105,0|0|8,0:0|0:0|0:0,0:0:0:0:
70,96,61689,1,0,0:0:0:0:
48,184,62032,2,0,P|40:240|68:316,1,140,10|10,0:0|0:0,0:0:0:0:
144,264,63061,6,0,P|204:256|252:272,2,105,0|0|8,0:0|0:0|0:0,0:0:0:0:
92,340,64432,2,0,P|60:304|56:248,2,105,8|8|0,0:0|0:0|0:0,0:0:0:0:
144,264,65804,5,4,0:0:0:0:
80,124,76775,6,0,P|124:104|184:112,1,105,2|0,0:0|0:0,0:0:0:0:
292,184,77804,2,0,P|388:200|476:48,1,280,2|0,0:0|0:0,0:0:0:0:
388,52,79518,6,0,L|284:64,1,105,2|0,0:0|0:0,0:0:0:0:
148,76,80547,2,0,B|56:88|56:88|40:160|72:208|148:236,1,280
224,196,82261,6,0,P|256:176|292:112,1,105,2|0,0:0|0:0,0:0:0:0:
412,56,83289,2,0,P|404:132|276:292,1,280,2|0,0:0|0:0,0:0:0:0:
192,308,85004,6,0,B|140:320|140:320|80:304,1,105,0|2,0:0|0:0,0:0:0:0:
48,176,86032,2,0,B|116:144|156:52|156:52|232:60|252:120,1,280,2|8,0:0|0:0,0:0:0:0:
252,200,87747,5,4,0:0:0:0:
196,104,98718,6,0,P|204:152|144:220,1,140,4|2,0:0|0:0,0:0:0:0:
320,276,100089,2,0,P|312:228|372:160,1,140,2|2,0:0|0:0,0:0:0:0:
192,108,101461,6,0,B|124:108|124:108|96:132|48:132,2,140,2|2|2,0:0|0:0|0:0,0:0:0:0:
372,128,103518,1,2,0:0:0:0:
220,224,104204,6,0,L|148:356,1,140,2|2,0:0|0:0,0:0:0:0:
64,188,105575,2,0,L|131:65,1,140,2|2,0:0|0:0,0:0:0:0:
308,112,106947,6,0,P|348:156|424:192,2,140,2|2|2,0:0|0:0|0:0,0:0:0:0:
144,32,109004,1,2,0:0:0:0:
56,192,109689,6,0,L|48:276,1,69.9999999999999,4|8,0:0|0:0,0:0:0:0:
120,320,110375,2,0,L|200:328,1,69.9999999999999,8|8,0:0|0:0,0:0:0:0:
272,284,111061,2,0,P|328:252|412:244,1,140,8|8,0:0|0:0,0:0:0:0:
368,64,112432,6,0,L|292:44,1,69.9999999999999,8|8,0:0|0:0,0:0:0:0:
208,44,113118,2,0,L|140:61,1,69.9999999999999,8|8,0:0|0:0,0:0:0:0:
84,136,113804,2,0,P|108:184|120:284,1,140,8|8,0:0|0:0,0:0:0:0:
300,304,115175,6,0,L|392:296,2,69.9999999999999,8|8|8,0:0|0:0|0:0,0:0:0:0:
248,228,116204,1,8,0:0:0:0:
192,156,116547,2,0,L|122:162,2,69.9999999999999,8|8|8,0:0|0:0|0:0,0:0:0:0:
248,84,117575,1,8,0:0:0:0:
340,92,117918,6,0,P|371:107|400:127,1,69.9999999999999,8|8,0:0|0:0,0:0:0:0:
400,220,118604,2,0,P|371:239|339:254,1,69.9999999999999,8|8,0:0|0:0,0:0:0:0:
244,264,119289,2,0,P|160:152|248:84,1,280,0|4,0:0|0:0,0:0:0:0:
256,192,126147,12,0,130261,0:0:0:0:
144,48,131632,6,0,L|308:64,1,140,6|0,0:0|0:0,0:0:0:0:
360,112,132661,1,8,0:0:0:0:
448,132,133004,2,0,P|376:200|280:156,1,210,0|8,0:0|0:0,0:0:0:0:
196,172,134375,6,0,P|216:228|232:248,2,69.9999999999999,2|10|2,0:0|0:0|0:0,0:0:0:0:
232,88,135404,1,8,0:0:0:0:
320,72,135747,2,0,P|380:84|396:80,2,69.9999999999999,2|10|0,0:0|0:0|0:0,0:0:0:0:
232,88,136775,1,8,0:0:0:0:
140,68,137118,6,0,P|104:104|88:196,1,140,2|0,0:0|0:0,0:0:0:0:
148,256,138147,1,8,0:0:0:0:
220,200,138489,2,0,P|236:160|236:124,2,69.9999999999999,2|10|0,0:0|0:0|0:0,0:0:0:0:
148,256,139518,1,8,0:0:0:0:
232,288,139861,6,0,B|284:280|308:204|308:204|340:204,1,140,2|0,0:0|0:0,0:0:0:0:
420,200,140889,1,8,0:0:0:0:
424,108,141232,2,0,L|352:112,1,69.9999999999999,2|10,0:0|0:0,0:0:0:0:
264,108,141918,2,0,P|232:96|200:64,1,69.9999999999999,0|8,0:0|0:0,0:0:0:0:
116,52,142604,6,0,P|92:92|76:192,1,140,6|0,0:0|0:0,0:0:0:0:
136,252,143632,1,8,0:0:0:0:
204,312,143975,2,0,P|228:272|244:172,1,140,0|0,0:0|0:0,0:0:0:0:
220,92,145004,1,8,0:0:0:0:
312,80,145347,6,0,L|388:76,2,69.9999999999999,2|10|2,0:0|0:0|0:0,0:0:0:0:
220,92,146375,1,8,0:0:0:0:
132,112,146718,2,0,P|96:144|80:176,1,69.9999999999999,2|10,0:0|0:0,0:0:0:0:
112,252,147404,1,0,0:0:0:0:
180,312,147747,1,8,0:0:0:0:
268,332,148089,6,0,P|320:316|372:176,1,210,2|8,0:0|0:0,0:0:0:0:
352,92,149461,2,0,P|300:108|248:248,1,210,0|8,0:0|0:0,0:0:0:0:
336,224,150832,6,0,P|368:212|416:224,2,69.9999999999999,2|10|2,0:0|0:0|0:0,0:0:0:0:
372,308,151861,1,8,0:0:0:0:
280,308,152204,6,0,B|224:280|180:296|124:336|60:304,1,210
28,232,153575,6,0,P|20:188|28:140,1,69.9999999999999,6|8,0:0|0:0,0:0:0:0:
76,88,154261,2,0,B|132:56|132:56|176:80|236:48,1,140,0|2,0:0|0:0,0:0:0:0:
292,84,155289,1,8,0:0:0:0:
372,40,155632,2,0,P|420:36|460:128,1,140,0|2,0:0|0:0,0:0:0:0:
428,188,156661,5,8,0:0:0:0:
356,244,157004,2,0,L|268:292,1,69.9999999999999,0|8,0:0|0:0,0:0:0:0:
208,300,157689,2,0,B|168:284|168:284|132:304|84:280,2,105,2|2|2,0:0|0:0|0:0,0:0:0:0:
256,220,159061,6,0,L|248:56,1,140,2|0,0:0|0:0,0:0:0:0:
328,36,160089,1,8,0:0:0:0:
404,84,160432,2,0,P|429:129|433:181,2,105,2|0|8,0:0|0:0|0:0,0:0:0:0:
328,36,161804,6,0,L|248:56,1,69.9999999999999,2|8,0:0|0:0,0:0:0:0:
244,144,162489,2,0,L|164:164,1,69.9999999999999,0|8,0:0|0:0,0:0:0:0:
116,232,163175,2,0,L|136:312,1,69.9999999999999,2|8,0:0|0:0,0:0:0:0:
216,264,163861,2,0,L|236:348,1,69.9999999999999,2|8,0:0|0:0,0:0:0:0:
320,300,164547,5,6,0:0:0:0:
384,236,164889,1,10,0:0:0:0:
432,160,165232,2,0,P|400:112|336:112,1,105,2|2,0:0|0:0,0:0:0:0:
264,116,166089,2,0,L|194:112,2,69.9999999999999,2|2|2,0:0|0:0|0:0,0:0:0:0:
352,220,167289,5,2,0:0:0:0:
280,276,167632,1,10,0:0:0:0:
200,320,167975,2,0,P|144:332|100:316,1,105,2|2,0:0|0:0,0:0:0:0:
64,232,168832,2,0,L|44:144,2,69.9999999999999,2|2|2,0:0|0:0|0:0,0:0:0:0:
200,224,170032,5,2,0:0:0:0:
288,204,170375,1,8,0:0:0:0:
376,180,170718,2,0,L|452:160,1,69.9999999999999,0|8,0:0|0:0,0:0:0:0:
416,76,171404,6,0,L|340:96,1,69.9999999999999,2|8,0:0|0:0,0:0:0:0:
260,120,172089,2,0,P|208:152|196:172,1,69.9999999999999,0|8,0:0|0:0,0:0:0:0:
256,192,172775,12,4,175518,0:0:0:0:
168,128,186489,6,0,P|208:96|360:136,1,210,4|8,0:0|0:0,0:0:0:0:
420,188,187861,2,0,P|384:212|344:216,1,69.9999999999999,0|8,0:0|0:0,0:0:0:0:
268,220,188547,2,0,P|224:224|192:240,1,69.9999999999999,0|8,0:0|0:0,0:0:0:0:
184,324,189232,6,0,P|132:300|148:156,1,210,0|8,0:0|0:0,0:0:0:0:
220,132,190604,2,0,P|280:120|296:112,2,69.9999999999999,0|8|0,0:0|0:0|0:0,0:0:0:0:
144,80,191632,1,8,0:0:0:0:
92,156,191975,6,0,B|147:202|184:252|184:252|273:232|344:236,2,280
244,84,195404,1,0,0:0:0:0:
256,192,196089,12,4,197461,0:0:0:0:
