osu file format v13

[General]
AudioFilename: ED.mp3
AudioLeadIn: 0
PreviewTime: 44142
Countdown: 0
SampleSet: Soft
StackLeniency: 0.7
Mode: 0
LetterboxInBreaks: 0
WidescreenStoryboard: 0

[Editor]
DistanceSpacing: 1
BeatDivisor: 4
GridSize: 4
TimelineZoom: 1

[Metadata]
Title:Sequentia (TV Size)
TitleUnicode:Sequentia (TV Size)
Artist:Asriel
ArtistUnicode:Asriel
Creator:Vhy
Version:Normal
Source:11eyes
Tags:ending [minakami yuki] lass
BeatmapID:342768
BeatmapSetID:137062

[Difficulty]
HPDrainRate:3
CircleSize:3
OverallDifficulty:4
ApproachRate:5
SliderMultiplier:0.8
SliderTickRate:1

[Events]
//Background and Video events
0,0,"11eyes.jpg",0,0
Video,242,"avi.avi"
//Break Periods
//Storyboard Layer 0 (Background)
//Storyboard Layer 1 (Fail)
//Storyboard Layer 2 (Pass)
//Storyboard Layer 3 (Foreground)
//Storyboard Sound Samples
//Background Colour Transformations
3,100,163,162,255

[TimingPoints]
254,283.152430391694,4,2,1,65,1,0
9598,-100,4,2,3,55,0,0
9668,-100,4,2,1,65,0,0
12429,-100,4,2,3,55,0,0
12500,-100,4,2,1,65,0,0
12995,-100,4,2,3,55,0,0
13066,-100,4,2,1,65,0,0
13845,-100,4,2,2,80,0,0
16393,-100,4,2,4,70,0,0
16464,-100,4,2,2,80,0,0
18375,-100,4,2,1,65,0,0
20924,-100,4,2,3,55,0,0
20994,-100,4,2,1,65,0,0
22056,-100,4,2,3,55,0,0
22127,-100,4,2,1,65,0,0
22906,-100,4,2,2,80,0,0
25454,-100,4,2,4,70,0,0
25525,-100,4,2,2,80,0,0
26587,-100,4,2,4,70,0,0
27719,-100,4,2,1,65,0,0
34798,-100,4,2,3,55,0,0
34869,-100,4,2,1,65,0,0
36780,-100,4,2,2,80,0,0
41311,-100,4,2,4,70,0,0
41381,-100,4,2,2,80,0,0
44992,-100,4,2,1,80,0,0
45416,-100,4,2,2,80,0,1
46407,-100,4,2,4,70,0,1
46478,-100,4,2,2,80,0,1
47540,-100,4,2,4,70,0,1
47611,-100,4,2,2,80,0,1
49805,-100,4,2,4,70,0,1
49876,-100,4,2,2,80,0,1
54336,-100,4,2,4,70,0,1
54406,-100,4,2,2,80,0,1
56601,-100,4,2,4,70,0,1
56672,-100,4,2,2,80,0,1
57733,-100,4,2,4,70,0,1
57804,-100,4,2,2,80,0,1
59432,-100,4,2,4,70,0,1
59503,-100,4,2,2,80,0,1
63396,-100,4,2,4,70,0,1
63467,-100,4,2,2,80,0,1
66228,-100,4,2,4,70,0,1
66299,-100,4,2,2,80,0,1
67927,-100,4,2,4,70,0,1
67998,-100,4,2,2,80,0,1
70192,-100,4,2,4,70,0,1
70263,-100,4,2,2,80,0,1
79253,-100,4,2,4,70,0,1
79324,-100,4,2,2,80,0,1
80386,-100,4,2,4,70,0,1
80456,-100,4,2,2,80,0,1
81801,-100,4,2,2,80,0,0
82085,-100,4,2,1,71,0,0
82368,-100,4,2,1,62,0,0
82651,-100,4,2,1,53,0,0
82934,-100,4,2,1,45,0,0
83217,-100,4,2,1,36,0,0
83500,-100,4,2,1,27,0,0
83783,-100,4,2,1,18,0,0
84067,-100,4,2,1,10,0,0

[Colours]
Combo1 : 0,64,0
Combo2 : 128,0,0
Combo3 : 210,210,210
Combo4 : 221,221,0

[HitObjects]
420,64,8748,5,0,0:0:0:0:
400,140,9031,1,0,0:0:0:0:
364,212,9314,6,0,P|300:260|220:268,1,160,4|0,0:0|0:0,0:0:0:0:
148,244,10164,2,0,P|109:173|112:93,1,160,8|8,0:0|0:0,0:0:0:0:
179,53,11013,1,0,0:0:0:0:
256,28,11296,6,0,L|336:36,1,80,8|0,0:0|0:0,0:0:0:0:
416,48,11863,1,8,0:0:0:0:
388,124,12146,2,0,P|352:196|360:276,2,160,0|0|8,0:0|0:0|0:0,0:0:0:0:
228,104,13845,5,4,0:0:0:0:
164,152,14128,1,8,0:0:0:0:
120,220,14411,1,0,0:0:0:0:
132,300,14694,2,0,P|212:312|304:308,1,160,8|8,0:0|0:0,0:0:0:0:
436,248,15827,1,8,0:0:0:0:
456,172,16110,6,0,P|408:132|312:120,1,160
272,188,16959,2,0,B|205:233|205:233|126:240,2,160,8|8|0,0:0|0:0|0:0,0:0:0:0:
318,253,18375,5,4,0:0:0:0:
388,216,18658,2,0,P|375:139|320:76,1,160,8|8,0:0|0:0,0:0:0:0:
164,56,19791,2,0,L|84:40,2,80,8|0|8,0:0|0:0|0:0,0:0:0:0:
228,104,20640,6,0,P|248:172|200:240,1,160
128,276,21490,1,8,0:0:0:0:
172,344,21773,2,0,P|245:370|318:343,1,160,0|8,0:0|0:0,0:0:0:0:
412,212,22906,6,0,L|492:188,2,80,4|8|0,0:0|0:0|0:0,0:0:0:0:
332,208,23755,2,0,P|251:192|187:149,1,160,8|8,0:0|0:0,0:0:0:0:
300,36,24888,1,8,0:0:0:0:
376,56,25171,6,0,P|437:74|475:115,2,120,0|0|8,0:0|0:0|0:0,0:0:0:0:
320,112,26304,2,0,B|248:165|250:248|250:248|172:208|96:246,1,320,0|4,0:0|0:0,0:0:0:0:
32,296,27719,6,0,P|100:336|180:336,1,160,0|2,0:0|0:0,0:0:0:0:
256,312,28569,2,0,P|335:312|403:352,1,160,2|0,0:0|0:0,0:0:0:0:
480,212,29701,6,0,P|400:211|332:171,1,160,2|0,0:0|0:0,0:0:0:0:
280,112,30551,1,0,0:0:0:0:
272,32,30834,2,0,P|350:46|410:98,1,160,2|0,0:0|0:0,0:0:0:0:
320,232,31967,6,0,P|251:272|172:272,1,160
100,240,32816,1,2,0:0:0:0:
60,172,33099,2,0,P|106:108|181:83,1,160,0|2,0:0|0:0,0:0:0:0:
260,68,33949,1,2,0:0:0:0:
304,136,34232,6,0,B|332:176|332:176|368:192|401:180,2,120,0|0|2,0:0|0:0|0:0,0:0:0:0:
340,64,35364,2,0,L|420:48,2,80,0|8|0,0:0|0:0|0:0,0:0:0:0:
260,68,36214,2,0,L|181:83,1,80,8|0,0:0|0:0,0:0:0:0:
128,22,36780,6,0,P|98:93|153:158,1,160,8|8,0:0|0:0,0:0:0:0:
304,132,37913,2,0,P|325:206|285:273,1,160,8|8,0:0|0:0,0:0:0:0:
204,264,38762,5,0,0:0:0:0:
140,312,39045,2,0,P|70:273|50:197,1,160,8|8,0:0|0:0,0:0:0:0:
160,84,40178,1,8,0:0:0:0:
236,56,40461,1,0,0:0:0:0:
316,72,40744,1,8,0:0:0:0:
372,128,41027,6,0,B|351:184|351:184|368:235|326:278,1,160,2|0,0:0|0:0,0:0:0:0:
277,213,41877,5,8,0:0:0:0:
256,192,42160,12,0,43293,0:0:0:0:
84,236,44142,6,0,L|56:160,1,80,8|8,0:0|0:0,0:0:0:0:
132,136,44708,2,0,L|160:212,1,80,8|8,0:0|0:0,0:0:0:0:
232,308,45416,6,0,P|284:332|348:332,1,120,4|8,0:0|0:0,0:0:0:0:
384,264,46124,2,0,P|443:264|498:287,2,120,0|0|8,0:0|0:0|0:0,0:0:0:0:
356,188,47257,6,0,P|356:128|331:74,2,120,0|0|8,0:0|0:0|0:0,0:0:0:0:
280,216,48389,1,0,0:0:0:0:
224,160,48673,2,0,P|160:116|76:120,1,160,8|8,0:0|0:0,0:0:0:0:
48,192,49522,6,0,L|28:312,2,120,0|4|8,0:0|0:0|0:0,0:0:0:0:
160,76,50938,2,0,P|228:40|296:76,1,160,8|8,0:0|0:0,0:0:0:0:
228,120,51787,6,0,L|196:196,1,80,0|8,0:0|0:0,0:0:0:0:
271,224,52354,1,0,0:0:0:0:
332,276,52637,2,0,P|280:336|204:348,2,160,8|8|8,0:0|0:0|0:0,0:0:0:0:
384,216,54052,6,0,P|421:176|483:148,2,120,8|4|8,0:0|0:0|0:0,0:0:0:0:
225,194,55468,1,8,0:0:0:0:
170,135,55751,1,0,0:0:0:0:
100,96,56035,1,8,0:0:0:0:
168,56,56318,6,0,P|224:32|284:28,2,120,0|0|8,0:0|0:0|0:0,0:0:0:0:
100,96,57450,2,0,P|61:141|39:196,2,120,0|0|8,0:0|0:0|0:0,0:0:0:0:
170,135,58583,1,0,0:0:0:0:
200,212,58866,1,8,0:0:0:0:
244,280,59149,6,0,P|300:312|356:312,2,120,0|0|8,0:0|0:0|0:0,0:0:0:0:
256,192,60565,12,0,61698,0:0:0:0:
268,232,62405,6,0,L|404:208,1,120,0|8,0:0|0:0,0:0:0:0:
444,152,63113,2,0,P|456:96|496:40,2,120,0|4|8,0:0|0:0|0:0,0:0:0:0:
468,228,64246,1,0,0:0:0:0:
432,300,64529,6,0,L|272:316,1,160,8|8,0:0|0:0,0:0:0:0:
196,336,65379,1,0,0:0:0:0:
132,284,65662,1,8,0:0:0:0:
100,208,65945,6,0,P|84:152|96:92,2,120,0|0|8,0:0|0:0|0:0,0:0:0:0:
260,232,67361,1,8,0:0:0:0:
336,260,67644,6,0,P|386:296|412:352,2,120,0|4|8,0:0|0:0|0:0,0:0:0:0:
204,172,69060,2,0,P|196:132|204:92,1,80,8|0,0:0|0:0,0:0:0:0:
276,60,69626,1,8,0:0:0:0:
208,16,69909,6,0,P|148:24|96:52,2,120,0|4|8,0:0|0:0|0:0,0:0:0:0:
356,76,71325,2,0,B|416:128|416:128|444:204,1,160,8|8,0:0|0:0,0:0:0:0:
432,284,72174,1,0,0:0:0:0:
368,332,72457,6,0,P|292:360|212:360,1,160,8|8,0:0|0:0,0:0:0:0:
105,239,73590,2,0,P|179:211|259:210,1,160,8|8,0:0|0:0,0:0:0:0:
408,264,74723,6,0,P|436:188|436:108,1,160,8|8,0:0|0:0,0:0:0:0:
365,72,75572,1,0,0:0:0:0:
287,56,75855,2,0,P|259:131|259:211,1,160,8|8,0:0|0:0,0:0:0:0:
288,284,76705,1,0,0:0:0:0:
252,356,76988,6,0,P|176:372|100:348,1,160,8|8,0:0|0:0,0:0:0:0:
128,192,78120,1,8,0:0:0:0:
208,192,78404,1,0,0:0:0:0:
288,192,78687,1,8,0:0:0:0:
356,232,78970,6,0,L|396:348,2,120,0|0|8,0:0|0:0|0:0,0:0:0:0:
356,152,80102,2,0,L|396:36,2,120,0|0|2,0:0|0:0|0:0,0:0:0:0:
288,192,81235,5,2,0:0:0:0:
208,192,81518,1,2,0:0:0:0:
128,192,81801,1,4,0:0:0:0:
256,192,81943,12,2,84067,0:0:0:0:
