osu file format v13

[General]
AudioFilename: ED.mp3
AudioLeadIn: 0
PreviewTime: 44142
Countdown: 0
SampleSet: Soft
StackLeniency: 0.7
Mode: 0
LetterboxInBreaks: 0
WidescreenStoryboard: 0

[Editor]
DistanceSpacing: 1.2
BeatDivisor: 4
GridSize: 4
TimelineZoom: 1.4

[Metadata]
Title:Sequentia (TV Size)
TitleUnicode:Sequentia (TV Size)
Artist:Asriel
ArtistUnicode:Asriel
Creator:Vhy
Version:Hard
Source:11eyes
Tags:ending [minakami yuki] lass
BeatmapID:342767
BeatmapSetID:137062

[Difficulty]
HPDrainRate:5
CircleSize:4
OverallDifficulty:6
ApproachRate:8
SliderMultiplier:1.4
SliderTickRate:2

[Events]
//Background and Video events
Video,242,"avi.avi"
0,0,"11eyes.jpg",0,0
//Break Periods
//Storyboard Layer 0 (Background)
//Storyboard Layer 1 (Fail)
//Storyboard Layer 2 (Pass)
//Storyboard Layer 3 (Foreground)
//Storyboard Sound Samples

[TimingPoints]
254,283.152430391694,4,2,1,65,1,0
13845,-100,4,2,2,80,0,0
18375,-100,4,2,1,65,0,0
22906,-100,4,2,2,80,0,0
27719,-153.846153846154,4,2,1,65,0,0
28569,-153.846153846154,4,2,2,65,0,0
29277,-153.846153846154,4,2,1,65,0,0
30834,-153.846153846154,4,2,2,65,0,0
31542,-153.846153846154,4,2,1,65,0,0
33099,-153.846153846154,4,2,2,65,0,0
33807,-153.846153846154,4,2,1,65,0,0
36780,-100,4,2,2,80,0,0
44992,-200,4,2,1,80,0,0
45416,-100,4,2,2,80,0,1
54052,-200,4,2,2,80,0,1
54336,-200,4,2,1,80,0,1
54477,-100,4,2,2,80,0,1
57733,-100,4,2,4,70,0,1
57804,-100,4,2,2,80,0,1
81801,-100,4,2,2,80,0,0
82085,-100,4,2,1,71,0,0
82368,-100,4,2,1,62,0,0
82651,-100,4,2,1,53,0,0
82934,-100,4,2,1,45,0,0
83217,-100,4,2,1,36,0,0
83500,-100,4,2,1,27,0,0
83783,-100,4,2,1,18,0,0
84067,-100,4,2,1,10,0,0

[Colours]
Combo1 : 0,64,0
Combo2 : 128,0,0
Combo3 : 210,210,210
Combo4 : 221,221,0

[HitObjects]
56,128,8748,5,0,0:0:0:0:
180,192,9031,1,0,0:0:0:0:
88,296,9314,6,0,P|156:280|224:296,1,140,4|8,0:0|0:0,0:0:0:0:
288,348,9739,2,0,L|344:216,1,140
352,136,10164,1,8,0:0:0:0:
200,60,10447,1,0,0:0:0:0:
252,216,10730,1,8,0:0:0:0:
316,60,11013,2,0,P|384:60|432:112,1,140,0|8,0:0|0:0,0:0:0:0:
448,276,11580,6,0,B|400:248|364:304|312:276,1,140,0|8,0:0|0:0,0:0:0:0:
252,216,12004,1,0,0:0:0:0:
192,156,12146,2,0,B|140:128|104:184|56:156,1,140,0|8,0:0|0:0,0:0:0:0:
172,36,12712,2,0,P|248:39|300:73,1,140,0|8,0:0|0:0,0:0:0:0:
368,124,13137,1,0,0:0:0:0:
358,209,13279,2,0,L|272:320,1,140,8|0,0:0|0:0,0:0:0:0:
272,320,13845,6,0,B|232:320|232:320|192:352|136:328,1,140,4|8,0:0|0:0,0:0:0:0:
180,256,14270,2,0,P|176:188|144:120,1,140
80,72,14694,2,0,P|152:88|228:72,1,140,8|0,0:0|0:0,0:0:0:0:
296,44,15119,1,0,0:0:0:0:
371,79,15261,2,0,P|406:84|437:69,1,70,8|0,0:0|0:0,0:0:0:0:
343,159,15544,2,0,B|331:211|355:243|355:243|399:271,2,140,0|8|0,0:0|0:0|0:0,0:0:0:0:
200,72,16393,5,8,0:0:0:0:
124,36,16535,1,0,0:0:0:0:
76,104,16676,2,0,B|108:143|108:143|121:176|112:231,1,140,0|8,0:0|0:0,0:0:0:0:
264,304,17243,2,0,P|348:296|400:272,1,140,0|8,0:0|0:0,0:0:0:0:
456,212,17667,1,0,0:0:0:0:
476,128,17809,2,0,P|484:96|480:60,2,70,0|8|0,0:0|0:0|0:0,0:0:0:0:
312,168,18375,6,0,P|244:176|196:128,1,140,4|8,0:0|0:0,0:0:0:0:
207,45,18800,1,0,0:0:0:0:
268,104,18942,2,0,L|224:236,1,140,0|8,0:0|0:0,0:0:0:0:
100,348,19508,1,0,0:0:0:0:
224,236,19791,2,0,L|296:228,1,70,8|0,0:0|0:0,0:0:0:0:
364,184,20074,2,0,B|408:152|404:112|404:112|440:72,2,140,0|8|0,0:0|0:0|0:0,0:0:0:0:
228,84,20924,6,0,P|156:88|100:124,1,140,8|0,0:0|0:0,0:0:0:0:
64,288,21490,2,0,P|136:284|192:248,1,140,8|0,0:0|0:0,0:0:0:0:
260,196,21915,2,0,L|320:156,1,70,0|8,0:0|0:0,0:0:0:0:
367,90,22198,2,0,P|305:26|267:107,1,210
268,108,22906,6,0,P|272:176|328:220,1,140,4|8,0:0|0:0,0:0:0:0:
404,248,23330,2,0,L|472:268,1,70
484,352,23614,2,0,L|416:332,1,70,0|8,0:0|0:0,0:0:0:0:
252,292,24038,2,0,B|216:288|216:288|160:304|116:264,1,140,0|8,0:0|0:0,0:0:0:0:
184,212,24463,1,0,0:0:0:0:
192,128,24605,1,0,0:0:0:0:
128,72,24746,1,0,0:0:0:0:
48,48,24888,1,8,0:0:0:0:
192,128,25171,6,0,B|240:160|264:100|328:128,1,140,0|8,0:0|0:0,0:0:0:0:
404,164,25596,1,0,0:0:0:0:
472,216,25737,2,0,P|480:252|412:316,1,140,0|8,0:0|0:0,0:0:0:0:
256,252,26304,2,0,P|200:280|224:340,1,140,0|8,0:0|0:0,0:0:0:0:
308,324,26728,5,0,0:0:0:0:
344,248,26870,1,8,0:0:0:0:
300,176,27011,1,0,0:0:0:0:
216,176,27153,1,8,0:0:0:0:
168,248,27295,1,0,0:0:0:0:
200,320,27436,1,4,0:0:0:0:
200,320,27719,6,0,P|244:332|288:324,1,90.9999958343508,8|0,0:0|0:0,0:0:0:0:
384,276,28286,1,2,0:0:0:0:
416,172,28569,2,0,L|396:132,1,45.4999979171754,8|2,0:0|0:0,0:0:0:0:
316,56,28993,1,2,0:0:0:0:
316,56,29135,2,0,P|296:96|300:140,1,90.9999958343508,8|2,0:0|0:0,0:0:0:0:
240,232,29701,5,8,0:0:0:0:
168,148,29985,1,0,0:0:0:0:
164,256,30268,1,0,0:0:0:0:
92,172,30551,1,2,0:0:0:0:
88,280,30834,2,0,P|112:320|152:332,1,90.9999958343508,8|2,0:0|0:0,0:0:0:0:
180,332,31259,1,2,0:0:0:0:
204,324,31400,1,8,0:0:0:0:
300,276,31683,1,2,0:0:0:0:
324,168,31967,5,8,0:0:0:0:
404,244,32250,1,0,0:0:0:0:
300,276,32533,1,0,0:0:0:0:
324,168,32816,1,0,0:0:0:0:
404,244,33099,1,8,0:0:0:0:
300,276,33382,2,0,L|212:252,1,90.9999958343508,2|8,0:0|0:0,0:0:0:0:
108,220,33949,1,2,0:0:0:0:
68,116,34232,6,0,L|36:84,1,45.4999979171754,8|0,0:0|0:0,0:0:0:0:
128,28,34657,2,0,L|160:60,1,45.4999979171754,0|8,0:0|0:0,0:0:0:0:
268,88,35081,2,0,P|308:108|332:148,2,90.9999958343508,0|2|8,0:0|0:0|0:0,0:0:0:0:
192,168,35931,5,2,0:0:0:0:
181,221,36072,1,8,0:0:0:0:
193,274,36214,1,8,0:0:0:0:
230,313,36355,1,8,0:0:0:0:
282,329,36497,1,0,0:0:0:0:
428,244,36780,6,0,P|448:176|428:112,1,140,8|0,0:0|0:0,0:0:0:0:
368,52,37205,1,0,0:0:0:0:
288,24,37346,2,0,L|220:48,1,70,8|0,0:0|0:0,0:0:0:0:
136,44,37630,2,0,P|104:104|112:176,1,140,0|8,0:0|0:0,0:0:0:0:
188,204,38054,2,0,L|254:180,1,70,0|0,0:0|0:0,0:0:0:0:
412,124,38479,1,8,0:0:0:0:
476,180,38621,1,0,0:0:0:0:
496,260,38762,6,0,P|476:304|392:296,1,140,0|8,0:0|0:0,0:0:0:0:
324,148,39329,2,0,P|280:104|208:80,1,140,0|8,0:0|0:0,0:0:0:0:
124,92,39753,2,0,L|116:164,1,70,0|0,0:0|0:0,0:0:0:0:
164,324,40178,6,0,P|232:308|300:324,1,140,8|0,0:0|0:0,0:0:0:0:
376,360,40603,1,0,0:0:0:0:
440,304,40744,2,0,L|464:164,1,140,8|0,0:0|0:0,0:0:0:0:
304,112,41311,2,0,L|288:44,1,70,8|8,0:0|0:0,0:0:0:0:
224,100,41594,2,0,L|200:237,1,140,0|8,0:0|0:0,0:0:0:0:
256,192,42160,12,0,43717,0:0:0:0:
464,288,44142,6,0,P|400:292|340:340,1,140,8|8,0:0|0:0,0:0:0:0:
288,272,44567,2,0,L|320:208,1,70,8|8,0:0|0:0,0:0:0:0:
256,56,44992,6,0,B|227:48|216:74|189:71,1,70,8|0,0:0|0:0,0:0:0:0:
112,103,45416,6,0,B|76:143|76:143|104:179|44:235|116:283,1,210,4|8,0:0|0:0,0:0:0:0:
263,365,46124,1,0,0:0:0:0:
316,300,46266,1,0,0:0:0:0:
392,332,46407,1,8,0:0:0:0:
428,256,46549,2,0,B|500:208|440:152|468:116|468:116|432:76,1,210,0|8,0:0|0:0,0:0:0:0:
268,40,47257,1,0,0:0:0:0:
192,76,47398,2,0,P|160:51|144:26,1,70,0|8,0:0|0:0,0:0:0:0:
264,124,47682,6,0,B|278:169|251:203|251:203|289:258|368:240,1,210,4|8,0:0|0:0,0:0:0:0:
336,76,48389,1,0,0:0:0:0:
188,152,48673,1,8,0:0:0:0:
124,308,48956,2,0,P|175:350|238:327,1,140,0|8,0:0|0:0,0:0:0:0:
396,272,49522,2,0,L|464:252,2,70,0|0|8,0:0|0:0|0:0,0:0:0:0:
336,332,49947,6,0,B|300:280|324:236|324:236|276:200|290:137,1,210,4|8,0:0|0:0,0:0:0:0:
368,168,50513,1,0,0:0:0:0:
356,84,50655,2,0,P|292:56|224:80,1,140,0|8,0:0|0:0,0:0:0:0:
128,212,51221,1,0,0:0:0:0:
52,64,51504,1,8,0:0:0:0:
191,156,51787,6,0,P|258:166|295:224,1,140,0|8,0:0|0:0,0:0:0:0:
203,363,52212,2,0,P|180:299|212:240,1,140,4|0,0:0|0:0,0:0:0:0:
376,250,52637,2,0,P|332:302|265:306,1,140,8|0,0:0|0:0,0:0:0:0:
376,84,53203,1,8,0:0:0:0:
308,36,53345,1,0,0:0:0:0:
224,44,53486,1,0,0:0:0:0:
72,116,53769,2,0,L|100:180,1,70,8|0,0:0|0:0,0:0:0:0:
180,208,54052,6,0,P|208:208|248:196,1,70,8|8,0:0|0:0,0:0:0:0:
320,240,54477,6,0,B|308:260|308:260|324:272|312:288|312:288|328:300|316:316|316:316|280:356|204:364,1,210,4|8,0:0|0:0,0:0:0:0:
96,236,55185,1,0,0:0:0:0:
112,152,55327,1,0,0:0:0:0:
188,120,55468,1,8,0:0:0:0:
356,104,55751,2,0,B|420:136|420:136|464:188,2,140,0|8|0,0:0|0:0|0:0,0:0:0:0:
348,272,56601,1,8,0:0:0:0:
348,272,56742,6,0,B|284:240|284:240|240:188,1,140
188,120,57167,2,0,P|228:64|296:48,1,140,8|0,0:0|0:0,0:0:0:0:
376,64,57592,2,0,L|476:172,1,140,0|0,0:0|0:0,0:0:0:0:
460,252,58017,6,0,P|420:240|328:264,1,140,0|8,0:0|0:0,0:0:0:0:
184,176,58583,1,0,0:0:0:0:
228,340,58866,1,8,0:0:0:0:
88,244,59149,2,0,P|52:176|68:112,1,140,0|8,0:0|0:0,0:0:0:0:
24,44,59574,2,0,P|80:76|156:72,1,140
232,40,59999,2,0,L|312:28,2,70,8|0|0,0:0|0:0|0:0,0:0:0:0:
256,192,60565,12,0,61981,0:0:0:0:
408,328,62264,5,8,0:0:0:0:
408,328,62405,1,0,0:0:0:0:
408,328,62547,2,0,P|384:264|396:196,1,140,0|8,0:0|0:0,0:0:0:0:
288,68,63113,2,0,P|312:132|300:200,1,140,8|8,0:0|0:0,0:0:0:0:
240,260,63538,6,0,B|160:296|140:280|140:280|128:304|40:296,1,210,4|8,0:0|0:0,0:0:0:0:
160,176,64246,1,0,0:0:0:0:
52,48,64529,1,8,0:0:0:0:
52,48,64671,2,0,B|140:40|152:64|152:64|172:48|252:84,1,210,0|8,0:0|0:0,0:0:0:0:
420,72,65379,1,0,0:0:0:0:
336,216,65662,1,8,0:0:0:0:
460,332,65945,6,0,L|420:196,1,140,0|8,0:0|0:0,0:0:0:0:
364,132,66370,2,0,B|284:120|252:192|252:192|180:204,1,210,0|8,0:0|0:0,0:0:0:0:
68,80,67077,1,0,0:0:0:0:
48,164,67219,1,0,0:0:0:0:
72,244,67361,1,8,0:0:0:0:
224,316,67644,1,0,0:0:0:0:
392,320,67927,1,8,0:0:0:0:
392,320,68069,6,0,B|452:280|452:280|492:220|432:152,1,210,4|8,0:0|0:0,0:0:0:0:
280,84,68776,1,0,0:0:0:0:
204,232,69060,1,8,0:0:0:0:
372,232,69343,1,0,0:0:0:0:
225,150,69626,1,8,0:0:0:0:
224,316,69909,2,0,P|289:339|361:345,1,140,0|8,0:0|0:0,0:0:0:0:
428,296,70334,6,0,B|460:244|460:244|456:152|360:144,1,210,4|8,0:0|0:0,0:0:0:0:
200,140,71042,1,0,0:0:0:0:
236,216,71183,2,0,P|266:231|303:223,1,70,0|8,0:0|0:0,0:0:0:0:
276,144,71466,2,0,P|248:80|184:64,1,140,4|0,0:0|0:0,0:0:0:0:
184,63,71891,1,8,0:0:0:0:
44,156,72174,2,0,P|28:224|52:288,1,140,0|8,0:0|0:0,0:0:0:0:
124,332,72599,1,0,0:0:0:0:
172,263,72741,6,0,P|220:215|287:219,1,140,0|8,0:0|0:0,0:0:0:0:
408,340,73307,1,0,0:0:0:0:
248,288,73590,1,8,0:0:0:0:
368,168,73873,2,0,L|428:128,2,70,0|0|8,0:0|0:0|0:0,0:0:0:0:
204,204,74439,2,0,P|140:175|128:111,1,140,0|8,0:0|0:0,0:0:0:0:
196,60,74864,1,0,0:0:0:0:
274,92,75006,2,0,P|340:106|368:168,1,140,0|8,0:0|0:0,0:0:0:0:
260,300,75572,5,0,0:0:0:0:
184,340,75714,1,0,0:0:0:0:
100,332,75855,1,8,0:0:0:0:
32,176,76138,2,0,L|156:104,1,140,0|8,0:0|0:0,0:0:0:0:
320,116,76705,2,0,L|196:188,1,140,0|8,0:0|0:0,0:0:0:0:
158,259,77129,6,0,P|160:325|214:371,1,140
236,289,77554,1,8,0:0:0:0:
404,304,77837,1,0,0:0:0:0:
440,228,77979,1,0,0:0:0:0:
408,152,78120,1,8,0:0:0:0:
264,68,78404,2,0,B|208:60|192:112|136:124,1,140,0|8,0:0|0:0,0:0:0:0:
284,208,78970,6,0,B|336:196|352:144|408:152,1,140,0|8,0:0|0:0,0:0:0:0:
408,152,79395,1,0,0:0:0:0:
248,348,79819,2,0,P|168:332|112:352,1,140,8|0,0:0|0:0,0:0:0:0:
40,200,80386,1,8,0:0:0:0:
40,200,80527,2,0,P|106:219|173:202,1,140
244,160,80952,6,0,P|310:140|377:157,1,140,2|2,0:0|0:0,0:0:0:0:
304,308,81518,1,2,0:0:0:0:
174,202,81801,1,6,0:0:0:0:
256,192,81872,12,2,84067,0:0:0:0:
