osu file format v13

[General]
AudioFilename: ED.mp3
AudioLeadIn: 0
PreviewTime: 44142
Countdown: 0
SampleSet: Soft
StackLeniency: 0.7
Mode: 0
LetterboxInBreaks: 0
WidescreenStoryboard: 0

[Editor]
DistanceSpacing: 1
BeatDivisor: 4
GridSize: 4
TimelineZoom: 1

[Metadata]
Title:Sequentia (TV Size)
TitleUnicode:Sequentia (TV Size)
Artist:Asriel
ArtistUnicode:Asriel
Creator:Vhy
Version:Easy
Source:11eyes
Tags:ending [minakami yuki] lass
BeatmapID:342766
BeatmapSetID:137062

[Difficulty]
HPDrainRate:2
CircleSize:3
OverallDifficulty:2
ApproachRate:3
SliderMultiplier:0.6
SliderTickRate:1

[Events]
//Background and Video events
0,0,"11eyes.jpg",0,0
Video,242,"avi.avi"
//Break Periods
//Storyboard Layer 0 (Background)
//Storyboard Layer 1 (Fail)
//Storyboard Layer 2 (Pass)
//Storyboard Layer 3 (Foreground)
//Storyboard Sound Samples
//Background Colour Transformations
3,100,163,162,255

[TimingPoints]
254,283.152430391694,4,2,1,65,1,0
13845,-100,4,2,2,80,0,0
16959,-100,4,2,4,70,0,0
17030,-100,4,2,2,80,0,0
17526,-100,4,2,4,70,0,0
17597,-100,4,2,2,80,0,0
18375,-100,4,2,1,65,0,0
18658,-100,4,2,3,55,0,0
18729,-100,4,2,1,65,0,0
22906,-100,4,2,2,80,0,0
28002,-100,4,2,2,65,0,0
36497,-100,4,2,4,80,0,0
36780,-100,4,2,2,80,0,0
41311,-100,4,2,4,70,0,0
41381,-100,4,2,2,80,0,0
44708,-100,4,2,4,70,0,0
44779,-100,4,2,2,80,0,0
44992,-100,4,2,1,80,0,0
45416,-100,4,2,2,80,0,1
59432,-100,4,2,4,70,0,1
59503,-100,4,2,2,80,0,1
66228,-100,4,2,4,70,0,1
66299,-100,4,2,2,80,0,1
67927,-100,4,2,4,70,0,1
67998,-100,4,2,2,80,0,1
69626,-100,4,2,4,70,0,1
69697,-100,4,2,2,80,0,1
70192,-100,4,2,4,70,0,1
70263,-100,4,2,2,80,0,1
70758,-100,4,2,4,70,0,1
70829,-100,4,2,2,80,0,1
81801,-100,4,2,2,80,0,0
82085,-100,4,2,1,71,0,0
82368,-100,4,2,1,62,0,0
82651,-100,4,2,1,53,0,0
82934,-100,4,2,1,45,0,0
83217,-100,4,2,1,36,0,0
83500,-100,4,2,1,27,0,0
83783,-100,4,2,1,18,0,0
84067,-100,4,2,1,10,0,0

[Colours]
Combo1 : 0,64,0
Combo2 : 128,0,0
Combo3 : 210,210,210
Combo4 : 221,221,0

[HitObjects]
248,56,8748,6,0,L|308:48,2,60,0|0|4,0:0|0:0|0:0,0:0:0:0:
192,80,9598,2,0,P|144:112|124:168,1,120,8|8,0:0|0:0,0:0:0:0:
180,276,10730,1,8,0:0:0:0:
261,360,11296,1,8,0:0:0:0:
295,246,11863,5,8,0:0:0:0:
380,332,12429,1,8,0:0:0:0:
414,219,12995,2,0,L|428:160,1,60,8|8,0:0|0:0,0:0:0:0:
344,72,13845,6,0,L|330:131,1,60,4|8,0:0|0:0,0:0:0:0:
295,246,14694,2,0,P|247:278|183:278,1,120,8|8,0:0|0:0,0:0:0:0:
100,196,15827,6,0,P|148:164|212:164,1,120,8|8,0:0|0:0,0:0:0:0:
268,156,16676,2,0,B|320:140|352:160|352:160|376:220|376:220|412:232|464:208,1,240
408,100,18375,6,0,P|328:68|236:84,1,180,4|8,0:0|0:0,0:0:0:0:
136,148,19791,1,8,0:0:0:0:
108,264,20357,1,8,0:0:0:0:
188,356,20924,6,0,P|248:364|308:352,1,120,8|8,0:0|0:0,0:0:0:0:
392,272,22056,2,0,L|412:216,1,60,8|8,0:0|0:0,0:0:0:0:
328,128,22906,6,0,L|317:69,1,60,4|8,0:0|0:0,0:0:0:0:
204,32,23755,2,0,B|144:48|144:48|96:88,2,120,8|8|8,0:0|0:0|0:0,0:0:0:0:
256,192,25171,12,4,27436,0:0:0:0:
335,180,28569,6,0,B|360:176|380:132|447:162,1,120,2|0,0:0|0:0,0:0:0:0:
400,52,29701,2,0,B|303:42|270:131|173:113,1,240,2|0,0:0|0:0,0:0:0:0:
68,56,31400,1,0,0:0:0:0:
174,113,31967,6,0,B|155:209|244:242|235:340,1,240,2|0,0:0|0:0,0:0:0:0:
346,293,33665,2,0,B|355:196|266:163|284:66,1,240,2|2,0:0|0:0,0:0:0:0:
411,194,35648,2,0,P|385:247|346:293,1,120,8|8,0:0|0:0,0:0:0:0:
288,316,36497,6,0,L|228:316,1,60,4|8,0:0|0:0,0:0:0:0:
112,280,37346,2,0,P|72:240|60:180,1,120,8|8,0:0|0:0,0:0:0:0:
128,80,38479,2,0,L|152:24,2,60,8|0|8,0:0|0:0|0:0,0:0:0:0:
144,200,39612,1,8,0:0:0:0:
224,288,40178,6,0,P|280:308|344:300,1,120,8|8,0:0|0:0,0:0:0:0:
392,276,41027,2,0,B|448:244|448:188|448:188|400:136,1,180,2|8,0:0|0:0,0:0:0:0:
256,192,42160,12,0,43293,0:0:0:0:
264,208,44142,5,8,0:0:0:0:
284,152,44425,2,0,P|284:92|252:36,1,120,8|8,0:0|0:0,0:0:0:0:
172,72,45416,6,0,L|156:160,1,90,4|8,0:0|0:0,0:0:0:0:
168,280,46407,1,8,0:0:0:0:
264,208,46974,1,8,0:0:0:0:
280,328,47540,1,8,0:0:0:0:
376,256,48106,2,0,P|416:212|432:152,1,120,8|8,0:0|0:0,0:0:0:0:
372,53,49239,6,0,P|332:97|316:154,1,120,8|8,0:0|0:0,0:0:0:0:
376,256,50371,2,0,P|332:296|271:312,1,120,8|8,0:0|0:0,0:0:0:0:
225,203,51504,6,0,P|168:184|110:193,1,120,8|8,0:0|0:0,0:0:0:0:
44,292,52637,2,0,P|100:310|159:302,1,120,8|8,0:0|0:0,0:0:0:0:
268,248,53769,5,8,0:0:0:0:
308,204,54052,2,0,P|342:177|388:156,2,90,8|4|8,0:0|0:0|0:0,0:0:0:0:
404,276,55468,1,8,0:0:0:0:
292,324,56035,1,8,0:0:0:0:
188,268,56601,6,0,P|140:228|120:172,1,120,8|8,0:0|0:0,0:0:0:0:
12,124,57733,2,0,P|52:76|108:56,1,120,8|8,0:0|0:0,0:0:0:0:
224,44,58866,5,8,0:0:0:0:
284,56,59149,2,0,B|296:72|296:72|296:144,2,90,0|0|8,0:0|0:0|0:0,0:0:0:0:
256,192,60565,12,0,61981,0:0:0:0:
300,235,63113,6,0,P|303:191|292:148,2,90,0|4|8,0:0|0:0|0:0,0:0:0:0:
204,308,64529,2,0,P|248:344|310:355,2,120,8|8|8,0:0|0:0|0:0,0:0:0:0:
172,256,65945,2,0,P|164:212|172:168,2,90,0|0|8,0:0|0:0|0:0,0:0:0:0:
292,248,67361,1,8,0:0:0:0:
352,244,67644,6,0,P|412:228|452:124,1,180,0|8,0:0|0:0,0:0:0:0:
356,52,69060,1,8,0:0:0:0:
300,36,69343,2,0,B|248:32|216:60|216:60|180:92|100:88,2,210,0|4|8,0:0|0:0|0:0,0:0:0:0:
332,152,71891,6,0,B|296:188|316:220|280:260,1,120,8|8,0:0|0:0,0:0:0:0:
164,288,73024,2,0,B|200:252|180:220|216:180,1,120,8|8,0:0|0:0,0:0:0:0:
284,84,74156,2,0,P|232:44|172:36,1,120,8|8,0:0|0:0,0:0:0:0:
76,96,75289,2,0,L|56:216,1,120,8|8,0:0|0:0,0:0:0:0:
112,320,76422,5,8,0:0:0:0:
224,280,76988,1,8,0:0:0:0:
336,240,77554,1,8,0:0:0:0:
448,200,78120,1,8,0:0:0:0:
383,99,78687,6,0,P|336:64|277:55,1,120,8|8,0:0|0:0,0:0:0:0:
184,132,79819,2,0,P|232:168|292:176,1,120,8|8,0:0|0:0,0:0:0:0:
396,236,80952,6,0,L|380:296,1,60,2|2,0:0|0:0,0:0:0:0:
324,316,81518,2,0,L|264:332,1,60,2|4,0:0|0:0,0:0:0:0:
256,192,82085,12,2,84067,0:0:0:0:
