osu file format v12

[General]
AudioFilename: Asriel - Seiren.mp3
AudioLeadIn: 0
PreviewTime: 10076
Countdown: 0
SampleSet: Normal
StackLeniency: 0.7
Mode: 1
LetterboxInBreaks: 1

[Editor]
Bookmarks: 35127,64723,70408,105690,109371,142943,175408,199915,211676,245831,281112,316183,317102,326132
DistanceSpacing: 1
BeatDivisor: 4
GridSize: 16

[Metadata]
Title:Seiren
TitleUnicode:Seiren
Artist:Asriel
ArtistUnicode:Asriel
Creator:Pizza Kun
Version:Taikin Oni
Source:Oratorium
Tags:fight Album Oratorium
BeatmapID:249998
BeatmapSetID:87103

[Difficulty]
HPDrainRate:6
CircleSize:5
OverallDifficulty:6
ApproachRate:5
SliderMultiplier:1.4
SliderTickRate:1

[Events]
//Background and Video events
0,0,"BG.jpg",0,0
//Break Periods
//Storyboard Layer 0 (Background)
//Storyboard Layer 1 (Fail)
//Storyboard Layer 2 (Pass)
//Storyboard Layer 3 (Foreground)
//Storyboard Sound Samples
//Background Colour Transformations
3,100,0,0,0

[TimingPoints]
1062,281.69014084507,4,1,0,70,1,0
46695,-114.942528735632,4,1,0,70,0,0
47259,-133.333333333333,4,1,0,70,0,0
65005,-114.942528735632,4,1,0,70,0,0
65850,-100,4,1,0,70,0,0
73597,-100,4,1,0,70,0,1
105146,-100,4,1,0,70,0,0
141343,-114.942528735632,4,1,0,70,0,0
141907,-133.333333333333,4,1,0,70,0,0
159935,-114.942528735632,4,1,0,70,0,0
160780,-100,4,1,0,70,0,0
168245,-100,4,1,0,70,0,1
199935,-100,4,1,0,70,0,0
200005,-200,4,1,0,70,0,0
213456,-161.290322580645,4,1,0,70,0,0
214019,-133.333333333333,4,1,0,70,0,0
214583,-114.942528735632,4,1,0,70,0,0
215146,-100,4,1,0,70,0,0
258526,-133.333333333333,4,1,0,70,0,0
264723,-161.290322580645,4,1,0,70,0,0
265193,-200,4,1,0,70,0,0
272329,-161.290322580645,4,1,0,70,0,0
272892,-133.333333333333,4,1,0,70,0,0
273456,-114.942528735632,4,1,0,70,0,0
273738,-100,4,1,0,70,0,0
276484,-100,4,1,0,70,0,1
307963,-100,4,1,0,70,0,0
325709,-114.942528735632,4,1,0,70,0,0
325850,-133.333333333333,4,1,0,70,0,0
325991,-161.290322580645,4,1,0,70,0,0
326132,-200,4,1,0,70,0,0

[HitObjects]
256,192,10076,1,8,0:0:0:0:
256,192,10217,1,0,0:0:0:0:
256,192,10498,1,4,0:0:0:0:
256,192,10780,1,0,0:0:0:0:
256,192,10921,1,8,0:0:0:0:
256,192,11202,1,0,0:0:0:0:
256,192,11343,1,0,0:0:0:0:
256,192,11484,1,8,0:0:0:0:
256,192,11625,1,0,0:0:0:0:
256,192,11695,1,0,0:0:0:0:
256,192,11766,1,8,0:0:0:0:
256,192,12047,1,8,0:0:0:0:
256,192,12259,1,8,0:0:0:0:
256,192,12329,1,0,0:0:0:0:
256,192,12470,1,0,0:0:0:0:
256,192,12540,1,0,0:0:0:0:
256,192,12611,1,8,0:0:0:0:
256,192,12752,1,4,0:0:0:0:
256,192,13033,1,0,0:0:0:0:
256,192,13174,1,8,0:0:0:0:
256,192,13315,1,8,0:0:0:0:
256,192,13385,1,8,0:0:0:0:
256,192,13456,1,0,0:0:0:0:
256,192,13597,1,0,0:0:0:0:
256,192,13738,1,8,0:0:0:0:
256,192,13878,1,0,0:0:0:0:
256,192,13949,1,0,0:0:0:0:
256,192,14019,1,0,0:0:0:0:
256,192,14160,1,0,0:0:0:0:
256,192,14301,1,8,0:0:0:0:
256,192,14442,1,8,0:0:0:0:
256,192,14512,1,0,0:0:0:0:
256,192,14653,1,0,0:0:0:0:
256,192,14723,1,8,0:0:0:0:
256,192,14864,1,8,0:0:0:0:
256,192,15005,1,4,0:0:0:0:
256,192,15287,1,0,0:0:0:0:
256,192,15428,1,8,0:0:0:0:
256,192,15569,1,8,0:0:0:0:
256,192,15639,1,8,0:0:0:0:
256,192,15709,1,0,0:0:0:0:
256,192,15850,1,0,0:0:0:0:
256,192,15991,1,8,0:0:0:0:
256,192,16132,1,0,0:0:0:0:
256,192,16273,1,8,0:0:0:0:
256,192,16414,1,8,0:0:0:0:
256,192,16554,1,0,0:0:0:0:
256,192,16836,1,8,0:0:0:0:
256,192,16977,1,0,0:0:0:0:
256,192,17118,1,8,0:0:0:0:
256,192,17259,1,4,0:0:0:0:
256,192,17540,1,0,0:0:0:0:
256,192,17681,1,8,0:0:0:0:
256,192,17822,1,0,0:0:0:0:
256,192,17892,1,0,0:0:0:0:
256,192,17963,1,8,0:0:0:0:
256,192,18104,1,8,0:0:0:0:
256,192,18245,1,0,0:0:0:0:
256,192,18385,1,8,0:0:0:0:
256,192,18667,1,0,0:0:0:0:
256,192,18808,1,8,0:0:0:0:
256,192,19090,1,0,0:0:0:0:
256,192,19231,1,0,0:0:0:0:
256,192,19371,1,8,0:0:0:0:
256,192,19512,1,8,0:0:0:0:
256,192,19653,1,4,0:0:0:0:
256,192,19935,1,0,0:0:0:0:
256,192,20077,1,8,0:0:0:0:
256,192,20216,1,0,0:0:0:0:
256,192,20357,1,0,0:0:0:0:
256,192,20498,1,8,0:0:0:0:
256,192,20780,1,4,0:0:0:0:
256,192,21061,1,8,0:0:0:0:
256,192,21202,1,0,0:0:0:0:
256,192,21343,1,0,0:0:0:0:
256,192,21461,1,0,0:0:0:0:
256,192,21578,1,14,0:0:0:0:
256,192,21907,1,8,0:0:0:0:
256,192,22047,1,0,0:0:0:0:
256,192,22188,1,0,0:0:0:0:
256,192,22329,1,8,0:0:0:0:
256,192,22470,1,0,0:0:0:0:
256,192,22611,1,0,0:0:0:0:
256,192,22752,1,8,0:0:0:0:
256,192,23033,1,0,0:0:0:0:
256,192,23174,1,0,0:0:0:0:
256,192,23315,1,8,0:0:0:0:
256,192,23456,1,0,0:0:0:0:
256,192,23597,1,0,0:0:0:0:
256,192,23714,1,0,0:0:0:0:
256,192,23831,1,14,0:0:0:0:
256,192,24160,1,4,0:0:0:0:
256,192,24442,1,8,0:0:0:0:
256,192,24583,1,0,0:0:0:0:
256,192,24723,1,8,0:0:0:0:
256,192,24864,1,8,0:0:0:0:
256,192,25005,1,8,0:0:0:0:
256,192,25146,1,8,0:0:0:0:
256,192,25287,1,0,0:0:0:0:
256,192,25428,1,8,0:0:0:0:
256,192,25569,1,8,0:0:0:0:
256,192,25709,1,8,0:0:0:0:
256,192,25850,1,8,0:0:0:0:
256,192,25991,1,0,0:0:0:0:
256,192,26132,1,8,0:0:0:0:
256,192,26414,1,8,0:0:0:0:
256,192,26508,1,8,0:0:0:0:
256,192,26601,1,0,0:0:0:0:
256,192,26695,1,0,0:0:0:0:
256,192,26789,1,8,0:0:0:0:
256,192,26883,1,8,0:0:0:0:
256,192,26977,1,0,0:0:0:0:
256,192,27259,1,8,0:0:0:0:
256,192,27400,1,4,0:0:0:0:
256,192,28104,1,8,0:0:0:0:
256,192,28245,1,4,0:0:0:0:
256,192,28667,1,14,0:0:0:0:
256,192,28949,1,8,0:0:0:0:
256,192,29090,1,0,0:0:0:0:
256,192,29231,1,0,0:0:0:0:
256,192,29371,1,0,0:0:0:0:
256,192,29512,1,8,0:0:0:0:
256,192,29653,1,0,0:0:0:0:
256,192,29935,1,0,0:0:0:0:
256,192,30076,1,8,0:0:0:0:
256,192,30357,1,0,0:0:0:0:
256,192,30498,1,0,0:0:0:0:
256,192,30639,1,8,0:0:0:0:
256,192,30921,1,0,0:0:0:0:
256,192,31202,1,8,0:0:0:0:
256,192,31343,1,0,0:0:0:0:
256,192,31625,1,0,0:0:0:0:
256,192,31766,1,8,0:0:0:0:
256,192,31907,1,0,0:0:0:0:
256,192,31977,1,0,0:0:0:0:
256,192,32047,1,0,0:0:0:0:
256,192,32188,1,0,0:0:0:0:
256,192,32329,1,8,0:0:0:0:
256,192,32470,1,0,0:0:0:0:
256,192,32752,1,0,0:0:0:0:
256,192,32892,1,8,0:0:0:0:
256,192,33174,1,0,0:0:0:0:
256,192,33315,1,0,0:0:0:0:
256,192,33456,1,8,0:0:0:0:
256,192,33597,1,8,0:0:0:0:
256,192,33667,1,8,0:0:0:0:
256,192,33738,1,0,0:0:0:0:
256,192,33878,1,0,0:0:0:0:
256,192,34019,1,8,0:0:0:0:
256,192,34301,1,0,0:0:0:0:
256,192,34442,1,0,0:0:0:0:
256,192,34583,1,8,0:0:0:0:
256,192,34723,1,0,0:0:0:0:
256,192,34794,1,8,0:0:0:0:
256,192,34864,1,0,0:0:0:0:
256,192,35005,1,0,0:0:0:0:
256,192,35146,1,8,0:0:0:0:
256,192,35428,1,0,0:0:0:0:
256,192,35709,1,8,0:0:0:0:
256,192,35850,1,0,0:0:0:0:
256,192,36132,1,0,0:0:0:0:
256,192,36273,1,8,0:0:0:0:
256,192,36414,1,8,0:0:0:0:
256,192,36554,1,0,0:0:0:0:
256,192,36695,1,0,0:0:0:0:
256,192,36766,1,0,0:0:0:0:
256,192,36836,1,8,0:0:0:0:
256,192,37118,1,0,0:0:0:0:
256,192,37259,1,0,0:0:0:0:
256,192,37400,1,8,0:0:0:0:
256,192,37540,1,8,0:0:0:0:
256,192,37681,1,4,0:0:0:0:
256,192,37963,1,8,0:0:0:0:
256,192,38104,1,0,0:0:0:0:
256,192,38174,1,8,0:0:0:0:
256,192,38245,1,0,0:0:0:0:
256,192,38385,1,0,0:0:0:0:
256,192,38526,1,8,0:0:0:0:
256,192,38667,1,8,0:0:0:0:
256,192,38808,1,0,0:0:0:0:
256,192,39090,1,8,0:0:0:0:
256,192,39231,1,0,0:0:0:0:
256,192,39512,1,0,0:0:0:0:
256,192,39653,1,8,0:0:0:0:
256,192,39794,1,8,0:0:0:0:
256,192,39935,1,0,0:0:0:0:
256,192,40216,1,8,0:0:0:0:
256,192,40357,1,0,0:0:0:0:
256,192,40639,1,0,0:0:0:0:
256,192,40780,1,8,0:0:0:0:
256,192,40921,1,8,0:0:0:0:
256,192,40991,1,8,0:0:0:0:
256,192,41061,1,0,0:0:0:0:
256,192,41202,1,0,0:0:0:0:
256,192,41343,1,8,0:0:0:0:
256,192,41484,1,0,0:0:0:0:
256,192,41766,1,0,0:0:0:0:
256,192,41907,1,8,0:0:0:0:
256,192,42047,1,8,0:0:0:0:
256,192,42188,1,0,0:0:0:0:
256,192,42329,1,0,0:0:0:0:
256,192,42400,1,0,0:0:0:0:
256,192,42470,1,8,0:0:0:0:
256,192,42611,1,0,0:0:0:0:
256,192,42892,1,0,0:0:0:0:
256,192,43033,1,8,0:0:0:0:
256,192,43174,1,8,0:0:0:0:
256,192,43245,1,8,0:0:0:0:
256,192,43315,1,0,0:0:0:0:
256,192,43456,1,0,0:0:0:0:
256,192,43597,1,8,0:0:0:0:
256,192,43738,1,0,0:0:0:0:
256,192,44019,1,0,0:0:0:0:
256,192,44160,1,8,0:0:0:0:
256,192,44301,1,8,0:0:0:0:
256,192,44442,1,0,0:0:0:0:
256,192,44723,1,8,0:0:0:0:
256,192,44864,1,0,0:0:0:0:
256,192,45146,1,0,0:0:0:0:
256,192,45287,1,8,0:0:0:0:
256,192,45428,1,8,0:0:0:0:
256,192,45498,1,8,0:0:0:0:
256,192,45569,1,0,0:0:0:0:
256,192,45639,1,8,0:0:0:0:
256,192,45709,1,0,0:0:0:0:
256,192,45850,1,8,0:0:0:0:
256,192,45991,1,0,0:0:0:0:
256,192,46061,1,8,0:0:0:0:
256,192,46132,1,0,0:0:0:0:
256,192,46273,1,0,0:0:0:0:
256,192,46414,1,14,0:0:0:0:
256,192,46695,1,0,0:0:0:0:
256,192,47259,1,0,0:0:0:0:
256,192,47822,1,0,0:0:0:0:
256,192,48385,1,0,0:0:0:0:
256,192,48667,1,0,0:0:0:0:
256,192,48949,1,0,0:0:0:0:
256,192,49512,1,0,0:0:0:0:
256,192,50076,1,0,0:0:0:0:
256,192,50357,1,8,0:0:0:0:
256,192,50498,1,0,0:0:0:0:
256,192,50639,1,0,0:0:0:0:
256,192,50780,1,4,0:0:0:0:
256,192,51202,1,0,0:0:0:0:
256,192,51484,1,8,0:0:0:0:
256,192,51766,1,0,0:0:0:0:
256,192,52047,1,8,0:0:0:0:
256,192,52188,1,8,0:0:0:0:
256,192,52329,1,0,0:0:0:0:
256,192,52611,1,8,0:0:0:0:
256,192,52892,1,0,0:0:0:0:
256,192,53174,1,8,0:0:0:0:
256,192,53456,1,0,0:0:0:0:
256,192,53738,1,8,0:0:0:0:
256,192,54019,1,0,0:0:0:0:
256,192,54301,1,8,0:0:0:0:
256,192,54442,1,8,0:0:0:0:
256,192,54583,1,0,0:0:0:0:
256,192,54864,1,8,0:0:0:0:
256,192,55146,1,0,0:0:0:0:
256,192,55428,1,8,0:0:0:0:
256,192,55709,1,0,0:0:0:0:
256,192,55991,1,0,0:0:0:0:
256,192,56273,1,8,0:0:0:0:
256,192,56414,1,8,0:0:0:0:
256,192,56554,1,0,0:0:0:0:
256,192,56836,1,8,0:0:0:0:
256,192,57118,1,0,0:0:0:0:
256,192,57400,1,8,0:0:0:0:
256,192,57540,1,8,0:0:0:0:
256,192,57681,1,0,0:0:0:0:
256,192,57963,1,8,0:0:0:0:
256,192,58245,1,0,0:0:0:0:
256,192,58526,1,8,0:0:0:0:
256,192,58808,1,0,0:0:0:0:
256,192,58949,1,0,0:0:0:0:
256,192,59090,1,8,0:0:0:0:
256,192,59371,1,0,0:0:0:0:
256,192,59653,1,8,0:0:0:0:
256,192,59935,1,0,0:0:0:0:
256,192,60216,1,8,0:0:0:0:
256,192,60498,1,0,0:0:0:0:
256,192,61061,1,0,0:0:0:0:
256,192,61202,1,0,0:0:0:0:
256,192,61343,1,8,0:0:0:0:
256,192,61625,1,0,0:0:0:0:
256,192,61907,1,8,0:0:0:0:
256,192,62188,1,4,0:0:0:0:
256,192,62470,1,0,0:0:0:0:
256,192,62752,1,0,0:0:0:0:
256,192,63315,1,4,0:0:0:0:
256,192,63456,1,0,0:0:0:0:
256,192,63738,1,0,0:0:0:0:
256,192,63878,1,8,0:0:0:0:
256,192,64160,1,8,0:0:0:0:
256,192,64442,1,8,0:0:0:0:
256,192,64583,1,8,0:0:0:0:
256,192,64723,1,0,0:0:0:0:
256,192,65005,1,8,0:0:0:0:
256,192,65146,1,8,0:0:0:0:
256,192,65287,1,0,0:0:0:0:
256,192,65428,1,0,0:0:0:0:
256,192,65569,1,8,0:0:0:0:
256,192,65850,1,0,0:0:0:0:
256,192,65991,1,0,0:0:0:0:
256,192,66132,1,8,0:0:0:0:
256,192,66273,1,0,0:0:0:0:
256,192,66554,1,0,0:0:0:0:
256,192,66695,1,8,0:0:0:0:
256,192,66836,1,8,0:0:0:0:
256,192,66907,1,8,0:0:0:0:
256,192,66977,1,8,0:0:0:0:
256,192,67118,1,0,0:0:0:0:
256,192,67259,1,8,0:0:0:0:
256,192,67540,1,0,0:0:0:0:
256,192,67681,1,0,0:0:0:0:
256,192,67822,1,8,0:0:0:0:
256,192,67963,1,8,0:0:0:0:
256,192,68033,1,8,0:0:0:0:
256,192,68104,1,0,0:0:0:0:
256,192,68245,1,0,0:0:0:0:
256,192,68385,1,8,0:0:0:0:
256,192,68526,1,0,0:0:0:0:
256,192,68808,1,0,0:0:0:0:
256,192,68949,1,8,0:0:0:0:
256,192,69090,1,8,0:0:0:0:
256,192,69231,1,4,0:0:0:0:
256,192,69653,1,4,0:0:0:0:
256,192,69935,1,0,0:0:0:0:
256,192,70029,1,8,0:0:0:0:
256,192,70216,1,0,0:0:0:0:
256,192,70498,1,0,0:0:0:0:
256,192,70780,1,0,0:0:0:0:
256,192,70921,1,8,0:0:0:0:
256,192,71061,1,0,0:0:0:0:
256,192,71132,1,0,0:0:0:0:
256,192,71202,1,0,0:0:0:0:
256,192,71343,1,0,0:0:0:0:
256,192,71484,1,8,0:0:0:0:
256,192,71625,1,0,0:0:0:0:
256,192,71766,1,8,0:0:0:0:
256,192,71907,1,4,0:0:0:0:
256,192,72188,1,8,0:0:0:0:
256,192,72329,1,4,0:0:0:0:
256,192,72611,1,4,0:0:0:0:
256,192,72892,1,4,0:0:0:0:
256,192,73174,1,14,0:0:0:0:
256,192,73597,1,4,0:0:0:0:
256,192,73878,1,0,0:0:0:0:
256,192,74019,1,8,0:0:0:0:
256,192,74160,1,8,0:0:0:0:
256,192,74231,1,8,0:0:0:0:
256,192,74301,1,0,0:0:0:0:
256,192,74371,1,0,0:0:0:0:
256,192,74442,1,0,0:0:0:0:
256,192,74583,1,8,0:0:0:0:
256,192,74723,1,8,0:0:0:0:
256,192,74864,1,0,0:0:0:0:
256,192,75005,1,0,0:0:0:0:
256,192,75076,1,0,0:0:0:0:
256,192,75146,1,8,0:0:0:0:
256,192,75216,1,0,0:0:0:0:
256,192,75287,1,8,0:0:0:0:
256,192,75357,1,8,0:0:0:0:
256,192,75428,1,0,0:0:0:0:
256,192,75569,1,0,0:0:0:0:
256,192,75709,1,8,0:0:0:0:
256,192,75850,1,4,0:0:0:0:
256,192,76132,1,0,0:0:0:0:
256,192,76273,1,8,0:0:0:0:
256,192,76414,1,8,0:0:0:0:
256,192,76484,1,8,0:0:0:0:
256,192,76554,1,0,0:0:0:0:
256,192,76625,1,8,0:0:0:0:
256,192,76695,1,0,0:0:0:0:
256,192,76766,1,0,0:0:0:0:
256,192,76836,1,8,0:0:0:0:
256,192,76977,1,8,0:0:0:0:
256,192,77118,1,0,0:0:0:0:
256,192,77259,1,0,0:0:0:0:
256,192,77400,1,8,0:0:0:0:
256,192,77540,1,8,0:0:0:0:
256,192,77611,1,8,0:0:0:0:
256,192,77681,1,0,0:0:0:0:
256,192,77822,1,0,0:0:0:0:
256,192,77963,1,8,0:0:0:0:
256,192,78104,1,4,0:0:0:0:
256,192,78385,1,0,0:0:0:0:
256,192,78526,1,8,0:0:0:0:
256,192,78667,1,0,0:0:0:0:
256,192,78738,1,0,0:0:0:0:
256,192,78808,1,0,0:0:0:0:
256,192,78878,1,8,0:0:0:0:
256,192,78949,1,0,0:0:0:0:
256,192,79090,1,8,0:0:0:0:
256,192,79231,1,4,0:0:0:0:
256,192,79512,1,0,0:0:0:0:
256,192,79653,1,8,0:0:0:0:
256,192,79794,1,8,0:0:0:0:
256,192,79864,1,0,0:0:0:0:
256,192,79935,1,8,0:0:0:0:
256,192,80005,1,8,0:0:0:0:
256,192,80076,1,0,0:0:0:0:
256,192,80216,1,8,0:0:0:0:
256,192,80357,1,4,0:0:0:0:
256,192,80639,1,0,0:0:0:0:
256,192,80780,1,8,0:0:0:0:
256,192,80921,1,8,0:0:0:0:
256,192,81061,1,0,0:0:0:0:
256,192,81132,1,0,0:0:0:0:
256,192,81202,1,0,0:0:0:0:
256,192,81273,1,0,0:0:0:0:
256,192,81343,1,8,0:0:0:0:
256,192,81484,1,4,0:0:0:0:
256,192,81766,1,0,0:0:0:0:
256,192,81907,1,8,0:0:0:0:
256,192,82047,1,0,0:0:0:0:
256,192,82118,1,0,0:0:0:0:
256,192,82188,1,0,0:0:0:0:
256,192,82329,1,0,0:0:0:0:
256,192,82470,1,8,0:0:0:0:
256,192,82611,1,8,0:0:0:0:
256,192,82681,1,8,0:0:0:0:
256,192,82752,1,0,0:0:0:0:
256,192,82892,1,0,0:0:0:0:
256,192,83033,1,8,0:0:0:0:
256,192,83174,1,8,0:0:0:0:
256,192,83245,1,0,0:0:0:0:
256,192,83315,1,0,0:0:0:0:
256,192,83385,1,8,0:0:0:0:
256,192,83456,1,0,0:0:0:0:
256,192,83597,1,8,0:0:0:0:
256,192,83738,1,8,0:0:0:0:
256,192,83878,1,0,0:0:0:0:
256,192,83949,1,0,0:0:0:0:
256,192,84019,1,0,0:0:0:0:
256,192,84090,1,0,0:0:0:0:
256,192,84160,1,8,0:0:0:0:
256,192,84301,1,8,0:0:0:0:
256,192,84442,1,0,0:0:0:0:
256,192,84583,1,0,0:0:0:0:
256,192,84653,1,0,0:0:0:0:
256,192,84723,1,8,0:0:0:0:
256,192,84864,1,8,0:0:0:0:
256,192,85005,1,4,0:0:0:0:
256,192,85146,1,0,0:0:0:0:
256,192,85287,1,8,0:0:0:0:
256,192,85569,1,0,0:0:0:0:
256,192,85709,1,0,0:0:0:0:
256,192,85850,1,8,0:0:0:0:
256,192,85991,1,8,0:0:0:0:
256,192,86061,1,0,0:0:0:0:
256,192,86132,1,0,0:0:0:0:
256,192,86202,1,8,0:0:0:0:
256,192,86273,1,0,0:0:0:0:
256,192,86414,1,8,0:0:0:0:
256,192,86554,1,0,0:0:0:0:
256,192,86625,1,8,0:0:0:0:
256,192,86695,1,0,0:0:0:0:
256,192,86766,1,0,0:0:0:0:
256,192,86836,1,8,0:0:0:0:
256,192,86977,1,8,0:0:0:0:
256,192,87118,1,4,0:0:0:0:
256,192,87400,1,0,0:0:0:0:
256,192,87540,1,8,0:0:0:0:
256,192,87681,1,8,0:0:0:0:
256,192,87752,1,8,0:0:0:0:
256,192,87822,1,0,0:0:0:0:
256,192,87963,1,0,0:0:0:0:
256,192,88104,1,8,0:0:0:0:
256,192,88245,1,0,0:0:0:0:
256,192,88526,1,0,0:0:0:0:
256,192,88667,1,8,0:0:0:0:
256,192,88808,1,8,0:0:0:0:
256,192,88949,1,0,0:0:0:0:
256,192,89090,1,0,0:0:0:0:
256,192,89160,1,0,0:0:0:0:
256,192,89231,1,8,0:0:0:0:
256,192,89371,1,0,0:0:0:0:
256,192,89653,1,0,0:0:0:0:
256,192,89794,1,8,0:0:0:0:
256,192,89935,1,0,0:0:0:0:
256,192,90076,1,0,0:0:0:0:
256,192,90216,1,0,0:0:0:0:
256,192,90287,1,0,0:0:0:0:
256,192,90357,1,8,0:0:0:0:
256,192,90498,1,0,0:0:0:0:
256,192,90780,1,0,0:0:0:0:
256,192,90921,1,8,0:0:0:0:
256,192,91061,1,8,0:0:0:0:
256,192,91132,1,8,0:0:0:0:
256,192,91202,1,0,0:0:0:0:
256,192,91273,1,8,0:0:0:0:
256,192,91343,1,0,0:0:0:0:
256,192,91414,1,0,0:0:0:0:
256,192,91484,1,8,0:0:0:0:
256,192,91625,1,4,0:0:0:0:
256,192,91907,1,0,0:0:0:0:
256,192,92047,1,8,0:0:0:0:
256,192,92188,1,0,0:0:0:0:
256,192,92259,1,8,0:0:0:0:
256,192,92329,1,0,0:0:0:0:
256,192,92400,1,0,0:0:0:0:
256,192,92470,1,0,0:0:0:0:
256,192,92611,1,8,0:0:0:0:
256,192,92752,1,8,0:0:0:0:
256,192,92822,1,8,0:0:0:0:
256,192,92892,1,0,0:0:0:0:
256,192,93033,1,0,0:0:0:0:
256,192,93174,1,8,0:0:0:0:
256,192,93315,1,8,0:0:0:0:
256,192,93385,1,0,0:0:0:0:
256,192,93456,1,0,0:0:0:0:
256,192,93526,1,8,0:0:0:0:
256,192,93597,1,0,0:0:0:0:
256,192,93738,1,8,0:0:0:0:
256,192,93878,1,4,0:0:0:0:
256,192,94160,1,0,0:0:0:0:
256,192,94301,1,8,0:0:0:0:
256,192,94442,1,0,0:0:0:0:
256,192,94583,1,0,0:0:0:0:
256,192,94653,1,0,0:0:0:0:
256,192,94723,1,0,0:0:0:0:
256,192,94794,1,0,0:0:0:0:
256,192,94864,1,8,0:0:0:0:
256,192,95005,1,8,0:0:0:0:
256,192,95146,1,0,0:0:0:0:
256,192,95287,1,0,0:0:0:0:
256,192,95357,1,0,0:0:0:0:
256,192,95428,1,8,0:0:0:0:
256,192,95569,1,8,0:0:0:0:
256,192,95639,1,8,0:0:0:0:
256,192,95709,1,0,0:0:0:0:
256,192,95850,1,0,0:0:0:0:
256,192,95991,1,8,0:0:0:0:
256,192,96132,1,8,0:0:0:0:
256,192,96202,1,0,0:0:0:0:
256,192,96273,1,0,0:0:0:0:
256,192,96414,1,0,0:0:0:0:
256,192,96554,1,8,0:0:0:0:
256,192,96836,1,8,0:0:0:0:
256,192,97118,1,0,0:0:0:0:
256,192,97259,1,0,0:0:0:0:
256,192,97540,1,0,0:0:0:0:
256,192,97681,1,8,0:0:0:0:
256,192,97963,1,0,0:0:0:0:
256,192,98245,1,8,0:0:0:0:
256,192,98385,1,0,0:0:0:0:
256,192,98667,1,0,0:0:0:0:
256,192,98738,1,0,0:0:0:0:
256,192,98808,1,8,0:0:0:0:
256,192,98949,1,8,0:0:0:0:
256,192,99090,1,0,0:0:0:0:
256,192,99231,1,0,0:0:0:0:
256,192,99301,1,0,0:0:0:0:
256,192,99371,1,8,0:0:0:0:
256,192,99512,1,8,0:0:0:0:
256,192,99653,1,0,0:0:0:0:
256,192,99794,1,0,0:0:0:0:
256,192,99935,1,8,0:0:0:0:
256,192,100216,1,0,0:0:0:0:
256,192,100498,1,8,0:0:0:0:
256,192,100639,1,8,0:0:0:0:
256,192,100780,1,0,0:0:0:0:
256,192,100921,1,0,0:0:0:0:
256,192,101061,1,8,0:0:0:0:
256,192,101202,1,8,0:0:0:0:
256,192,101273,1,8,0:0:0:0:
256,192,101343,1,0,0:0:0:0:
256,192,101414,1,0,0:0:0:0:
256,192,101484,1,0,0:0:0:0:
256,192,101625,1,8,0:0:0:0:
256,192,101766,1,8,0:0:0:0:
256,192,101907,1,0,0:0:0:0:
256,192,102047,1,0,0:0:0:0:
256,192,102188,1,8,0:0:0:0:
256,192,102470,1,8,0:0:0:0:
256,192,102564,1,8,0:0:0:0:
256,192,102658,1,0,0:0:0:0:
256,192,102752,1,8,0:0:0:0:
256,192,102963,1,4,0:0:0:0:
256,192,103315,1,0,0:0:0:0:
256,192,103597,1,0,0:0:0:0:
256,192,103878,1,0,0:0:0:0:
256,192,104160,1,0,0:0:0:0:
256,192,104301,1,0,0:0:0:0:
256,192,104442,1,8,0:0:0:0:
256,192,105146,1,4,0:0:0:0:
256,192,105428,1,0,0:0:0:0:
256,192,105569,1,8,0:0:0:0:
256,192,105709,1,8,0:0:0:0:
256,192,105850,1,0,0:0:0:0:
256,192,105991,1,0,0:0:0:0:
256,192,106061,1,0,0:0:0:0:
256,192,106132,1,8,0:0:0:0:
256,192,106273,1,0,0:0:0:0:
256,192,106414,1,8,0:0:0:0:
256,192,106554,1,8,0:0:0:0:
256,192,106695,1,0,0:0:0:0:
256,192,106977,1,0,0:0:0:0:
256,192,107259,1,8,0:0:0:0:
256,192,107400,1,4,0:0:0:0:
256,192,107681,1,0,0:0:0:0:
256,192,107822,1,8,0:0:0:0:
256,192,107963,1,0,0:0:0:0:
256,192,108033,1,0,0:0:0:0:
256,192,108104,1,0,0:0:0:0:
256,192,108245,1,0,0:0:0:0:
256,192,108385,1,8,0:0:0:0:
256,192,108526,1,8,0:0:0:0:
256,192,108667,1,0,0:0:0:0:
256,192,108808,1,0,0:0:0:0:
256,192,108878,1,0,0:0:0:0:
256,192,108949,1,8,0:0:0:0:
256,192,109231,1,0,0:0:0:0:
256,192,109512,1,8,0:0:0:0:
256,192,109653,1,4,0:0:0:0:
256,192,109935,1,0,0:0:0:0:
256,192,110076,1,8,0:0:0:0:
256,192,110287,1,8,0:0:0:0:
256,192,110357,1,0,0:0:0:0:
256,192,110498,1,0,0:0:0:0:
256,192,110569,1,0,0:0:0:0:
256,192,110639,1,8,0:0:0:0:
256,192,110780,1,0,0:0:0:0:
256,192,110921,1,8,0:0:0:0:
256,192,111061,1,8,0:0:0:0:
256,192,111132,1,8,0:0:0:0:
256,192,111202,1,0,0:0:0:0:
256,192,111414,1,0,0:0:0:0:
256,192,111484,1,8,0:0:0:0:
256,192,111625,1,0,0:0:0:0:
256,192,111766,1,8,0:0:0:0:
256,192,111907,1,4,0:0:0:0:
256,192,112188,1,0,0:0:0:0:
256,192,112329,1,8,0:0:0:0:
256,192,112470,1,8,0:0:0:0:
256,192,112540,1,8,0:0:0:0:
256,192,112611,1,0,0:0:0:0:
256,192,112752,1,0,0:0:0:0:
256,192,112892,1,8,0:0:0:0:
256,192,113033,1,0,0:0:0:0:
256,192,113174,1,8,0:0:0:0:
256,192,113315,1,0,0:0:0:0:
256,192,113385,1,0,0:0:0:0:
256,192,113456,1,8,0:0:0:0:
256,192,113597,1,0,0:0:0:0:
256,192,113667,1,0,0:0:0:0:
256,192,113738,1,0,0:0:0:0:
256,192,113878,1,0,0:0:0:0:
256,192,114019,1,8,0:0:0:0:
256,192,114160,1,8,0:0:0:0:
256,192,114301,1,4,0:0:0:0:
256,192,114583,1,8,0:0:0:0:
256,192,114723,1,4,0:0:0:0:
256,192,115005,1,8,0:0:0:0:
256,192,115146,1,4,0:0:0:0:
256,192,115428,1,0,0:0:0:0:
256,192,115709,1,8,0:0:0:0:
256,192,115850,1,0,0:0:0:0:
256,192,115921,1,0,0:0:0:0:
256,192,115991,1,0,0:0:0:0:
256,192,116061,1,0,0:0:0:0:
256,192,116132,1,8,0:0:0:0:
256,192,116273,1,4,0:0:0:0:
256,192,116554,1,4,0:0:0:0:
256,192,116836,1,8,0:0:0:0:
256,192,116977,1,4,0:0:0:0:
256,192,117259,1,8,0:0:0:0:
256,192,117353,1,0,0:0:0:0:
256,192,117446,1,0,0:0:0:0:
256,192,117540,1,8,0:0:0:0:
256,192,117611,1,0,0:0:0:0:
256,192,117681,1,8,0:0:0:0:
256,192,117775,1,0,0:0:0:0:
256,192,117892,1,0,0:0:0:0:
256,192,118057,1,0,0:0:0:0:
256,192,118245,1,8,0:0:0:0:
256,192,118315,1,8,0:0:0:0:
256,192,118385,1,0,0:0:0:0:
256,192,118526,1,4,0:0:0:0:
256,192,118667,1,8,0:0:0:0:
256,192,118808,1,4,0:0:0:0:
256,192,119090,1,8,0:0:0:0:
256,192,119231,1,0,0:0:0:0:
256,192,119371,1,0,0:0:0:0:
256,192,119512,1,0,0:0:0:0:
256,192,119653,1,8,0:0:0:0:
256,192,119794,1,0,0:0:0:0:
256,192,119935,1,8,0:0:0:0:
256,192,120029,1,0,0:0:0:0:
256,192,120216,1,0,0:0:0:0:
256,192,120498,1,0,0:0:0:0:
256,192,120639,1,8,0:0:0:0:
256,192,120780,1,0,0:0:0:0:
256,192,121061,1,8,0:0:0:0:
256,192,121132,1,0,0:0:0:0:
256,192,121202,1,0,0:0:0:0:
256,192,121273,1,0,0:0:0:0:
256,192,121343,1,0,0:0:0:0:
256,192,121414,1,0,0:0:0:0:
256,192,121484,1,8,0:0:0:0:
256,192,121554,1,8,0:0:0:0:
256,192,121625,1,0,0:0:0:0:
256,192,121766,1,0,0:0:0:0:
256,192,121907,1,8,0:0:0:0:
256,192,122047,1,4,0:0:0:0:
256,192,122752,1,0,0:0:0:0:
256,192,122893,1,8,0:0:0:0:
256,192,123315,1,4,0:0:0:0:
256,192,123597,1,8,0:0:0:0:
256,192,123738,1,0,0:0:0:0:
256,192,124019,1,0,0:0:0:0:
256,192,124160,1,8,0:0:0:0:
256,192,124301,1,8,0:0:0:0:
256,192,124442,1,0,0:0:0:0:
256,192,124723,1,8,0:0:0:0:
256,192,124864,1,0,0:0:0:0:
256,192,124935,1,0,0:0:0:0:
256,192,125005,1,0,0:0:0:0:
256,192,125146,1,0,0:0:0:0:
256,192,125287,1,8,0:0:0:0:
256,192,125569,1,0,0:0:0:0:
256,192,125709,1,0,0:0:0:0:
256,192,125780,1,0,0:0:0:0:
256,192,125850,1,8,0:0:0:0:
256,192,125991,1,0,0:0:0:0:
256,192,126273,1,0,0:0:0:0:
256,192,126414,1,8,0:0:0:0:
256,192,126554,1,8,0:0:0:0:
256,192,126625,1,8,0:0:0:0:
256,192,126695,1,0,0:0:0:0:
256,192,126836,1,0,0:0:0:0:
256,192,126977,1,8,0:0:0:0:
256,192,127118,1,0,0:0:0:0:
256,192,127400,1,0,0:0:0:0:
256,192,127540,1,8,0:0:0:0:
256,192,127822,1,0,0:0:0:0:
256,192,127963,1,0,0:0:0:0:
256,192,128104,1,8,0:0:0:0:
256,192,128245,1,8,0:0:0:0:
256,192,128315,1,0,0:0:0:0:
256,192,128385,1,0,0:0:0:0:
256,192,128526,1,0,0:0:0:0:
256,192,128667,1,8,0:0:0:0:
256,192,128949,1,0,0:0:0:0:
256,192,129231,1,8,0:0:0:0:
256,192,129371,1,8,0:0:0:0:
256,192,129512,1,0,0:0:0:0:
256,192,129653,1,0,0:0:0:0:
256,192,129794,1,8,0:0:0:0:
256,192,130076,1,0,0:0:0:0:
256,192,130216,1,0,0:0:0:0:
256,192,130287,1,0,0:0:0:0:
256,192,130357,1,8,0:0:0:0:
256,192,130498,1,0,0:0:0:0:
256,192,130780,1,0,0:0:0:0:
256,192,130921,1,8,0:0:0:0:
256,192,131061,1,8,0:0:0:0:
256,192,131202,1,0,0:0:0:0:
256,192,131484,1,8,0:0:0:0:
256,192,131625,1,8,0:0:0:0:
256,192,131695,1,8,0:0:0:0:
256,192,131766,1,0,0:0:0:0:
256,192,131907,1,0,0:0:0:0:
256,192,132047,1,8,0:0:0:0:
256,192,132329,1,4,0:0:0:0:
256,192,132611,1,8,0:0:0:0:
256,192,132752,1,0,0:0:0:0:
256,192,132822,1,8,0:0:0:0:
256,192,132892,1,0,0:0:0:0:
256,192,133033,1,0,0:0:0:0:
256,192,133174,1,8,0:0:0:0:
256,192,133456,1,0,0:0:0:0:
256,192,133597,1,0,0:0:0:0:
256,192,133738,1,8,0:0:0:0:
256,192,133878,1,8,0:0:0:0:
256,192,133949,1,8,0:0:0:0:
256,192,134019,1,0,0:0:0:0:
256,192,134160,1,0,0:0:0:0:
256,192,134231,1,0,0:0:0:0:
256,192,134301,1,8,0:0:0:0:
256,192,134583,1,0,0:0:0:0:
256,192,134723,1,0,0:0:0:0:
256,192,134864,1,8,0:0:0:0:
256,192,135005,1,8,0:0:0:0:
256,192,135146,1,0,0:0:0:0:
256,192,135287,1,0,0:0:0:0:
256,192,135357,1,0,0:0:0:0:
256,192,135428,1,8,0:0:0:0:
256,192,135709,1,0,0:0:0:0:
256,192,135991,1,8,0:0:0:0:
256,192,136132,1,0,0:0:0:0:
256,192,136414,1,0,0:0:0:0:
256,192,136554,1,8,0:0:0:0:
256,192,136695,1,0,0:0:0:0:
256,192,136836,1,0,0:0:0:0:
256,192,137118,1,8,0:0:0:0:
256,192,137259,1,0,0:0:0:0:
256,192,137329,1,8,0:0:0:0:
256,192,137400,1,0,0:0:0:0:
256,192,137540,1,0,0:0:0:0:
256,192,137681,1,8,0:0:0:0:
256,192,137822,1,8,0:0:0:0:
256,192,137963,1,0,0:0:0:0:
256,192,138245,1,8,0:0:0:0:
256,192,138385,1,0,0:0:0:0:
256,192,138526,1,0,0:0:0:0:
256,192,138667,1,0,0:0:0:0:
256,192,138738,1,0,0:0:0:0:
256,192,138808,1,8,0:0:0:0:
256,192,138949,1,8,0:0:0:0:
256,192,139090,1,0,0:0:0:0:
256,192,139231,1,0,0:0:0:0:
256,192,139371,1,8,0:0:0:0:
256,192,139512,1,0,0:0:0:0:
256,192,139794,1,0,0:0:0:0:
256,192,139935,1,8,0:0:0:0:
256,192,140076,1,8,0:0:0:0:
256,192,140146,1,0,0:0:0:0:
256,192,140216,1,0,0:0:0:0:
256,192,140357,1,0,0:0:0:0:
256,192,140498,1,8,0:0:0:0:
256,192,140639,1,0,0:0:0:0:
256,192,140921,1,0,0:0:0:0:
256,192,141061,1,8,0:0:0:0:
256,192,141343,1,4,0:0:0:0:
256,192,141907,1,0,0:0:0:0:
256,192,142470,1,0,0:0:0:0:
256,192,143033,1,0,0:0:0:0:
256,192,143315,1,8,0:0:0:0:
256,192,143597,1,0,0:0:0:0:
256,192,144160,1,0,0:0:0:0:
256,192,144723,1,0,0:0:0:0:
256,192,145005,1,8,0:0:0:0:
256,192,145146,1,0,0:0:0:0:
256,192,145287,1,8,0:0:0:0:
256,192,145428,1,8,0:0:0:0:
256,192,145498,1,8,0:0:0:0:
256,192,145569,1,8,0:0:0:0:
256,192,145850,1,4,0:0:0:0:
256,192,146132,1,0,0:0:0:0:
256,192,146414,1,0,0:0:0:0:
256,192,146977,1,0,0:0:0:0:
256,192,147259,1,8,0:0:0:0:
256,192,147540,1,0,0:0:0:0:
256,192,147822,1,8,0:0:0:0:
256,192,148104,1,8,0:0:0:0:
256,192,148385,1,0,0:0:0:0:
256,192,148667,1,0,0:0:0:0:
256,192,149231,1,0,0:0:0:0:
256,192,149512,1,8,0:0:0:0:
256,192,149794,1,0,0:0:0:0:
256,192,150076,1,8,0:0:0:0:
256,192,150357,1,0,0:0:0:0:
256,192,150639,1,8,0:0:0:0:
256,192,150921,1,0,0:0:0:0:
256,192,151202,1,8,0:0:0:0:
256,192,151484,1,8,0:0:0:0:
256,192,151766,1,0,0:0:0:0:
256,192,152047,1,0,0:0:0:0:
256,192,152329,1,8,0:0:0:0:
256,192,152611,1,0,0:0:0:0:
256,192,153174,1,0,0:0:0:0:
256,192,153456,1,8,0:0:0:0:
256,192,153738,1,0,0:0:0:0:
256,192,154019,1,0,0:0:0:0:
256,192,154301,1,8,0:0:0:0:
256,192,154583,1,8,0:0:0:0:
256,192,154864,1,0,0:0:0:0:
256,192,155146,1,8,0:0:0:0:
256,192,155428,1,0,0:0:0:0:
256,192,155709,1,8,0:0:0:0:
256,192,155991,1,0,0:0:0:0:
256,192,156273,1,0,0:0:0:0:
256,192,156554,1,0,0:0:0:0:
256,192,156836,1,8,0:0:0:0:
256,192,157118,1,0,0:0:0:0:
256,192,157400,1,8,0:0:0:0:
256,192,157963,1,8,0:0:0:0:
256,192,158526,1,8,0:0:0:0:
256,192,158808,1,0,0:0:0:0:
256,192,159090,1,0,0:0:0:0:
256,192,159371,1,8,0:0:0:0:
256,192,159935,1,8,0:0:0:0:
256,192,160216,1,8,0:0:0:0:
256,192,160498,1,0,0:0:0:0:
256,192,160780,1,8,0:0:0:0:
256,192,160921,1,0,0:0:0:0:
256,192,160991,1,0,0:0:0:0:
256,192,161061,1,0,0:0:0:0:
256,192,161202,1,0,0:0:0:0:
256,192,161343,1,8,0:0:0:0:
256,192,161625,1,0,0:0:0:0:
256,192,161907,1,8,0:0:0:0:
256,192,162047,1,0,0:0:0:0:
256,192,162329,1,0,0:0:0:0:
256,192,162470,1,8,0:0:0:0:
256,192,162611,1,8,0:0:0:0:
256,192,162681,1,8,0:0:0:0:
256,192,162752,1,0,0:0:0:0:
256,192,162892,1,0,0:0:0:0:
256,192,163033,1,8,0:0:0:0:
256,192,163174,1,8,0:0:0:0:
256,192,163315,1,0,0:0:0:0:
256,192,163456,1,0,0:0:0:0:
256,192,163526,1,0,0:0:0:0:
256,192,163597,1,8,0:0:0:0:
256,192,163878,1,4,0:0:0:0:
256,192,164301,1,4,0:0:0:0:
256,192,164723,1,8,0:0:0:0:
256,192,165005,1,0,0:0:0:0:
256,192,165146,1,0,0:0:0:0:
256,192,165287,1,8,0:0:0:0:
256,192,165569,1,0,0:0:0:0:
256,192,165662,1,0,0:0:0:0:
256,192,165850,1,8,0:0:0:0:
256,192,166132,1,8,0:0:0:0:
256,192,166273,1,0,0:0:0:0:
256,192,166414,1,0,0:0:0:0:
256,192,166554,1,14,0:0:0:0:
256,192,166836,1,8,0:0:0:0:
256,192,166977,1,0,0:0:0:0:
256,192,167259,1,0,0:0:0:0:
256,192,167400,1,0,0:0:0:0:
256,192,167540,1,0,0:0:0:0:
256,192,167822,1,8,0:0:0:0:
256,192,167963,1,0,0:0:0:0:
256,192,168245,1,4,0:0:0:0:
256,192,168526,1,0,0:0:0:0:
256,192,168667,1,8,0:0:0:0:
256,192,168808,1,8,0:0:0:0:
256,192,168878,1,8,0:0:0:0:
256,192,168949,1,0,0:0:0:0:
256,192,169019,1,0,0:0:0:0:
256,192,169090,1,0,0:0:0:0:
256,192,169231,1,8,0:0:0:0:
256,192,169371,1,8,0:0:0:0:
256,192,169512,1,0,0:0:0:0:
256,192,169653,1,0,0:0:0:0:
256,192,169723,1,0,0:0:0:0:
256,192,169794,1,8,0:0:0:0:
256,192,169935,1,8,0:0:0:0:
256,192,170076,1,0,0:0:0:0:
256,192,170146,1,0,0:0:0:0:
256,192,170216,1,0,0:0:0:0:
256,192,170287,1,0,0:0:0:0:
256,192,170357,1,8,0:0:0:0:
256,192,170498,1,4,0:0:0:0:
256,192,170780,1,0,0:0:0:0:
256,192,170921,1,8,0:0:0:0:
256,192,171061,1,8,0:0:0:0:
256,192,171132,1,8,0:0:0:0:
256,192,171202,1,0,0:0:0:0:
256,192,171273,1,8,0:0:0:0:
256,192,171343,1,0,0:0:0:0:
256,192,171414,1,0,0:0:0:0:
256,192,171484,1,8,0:0:0:0:
256,192,171625,1,8,0:0:0:0:
256,192,171766,1,0,0:0:0:0:
256,192,171907,1,0,0:0:0:0:
256,192,172047,1,8,0:0:0:0:
256,192,172188,1,0,0:0:0:0:
256,192,172259,1,8,0:0:0:0:
256,192,172329,1,0,0:0:0:0:
256,192,172470,1,0,0:0:0:0:
256,192,172611,1,8,0:0:0:0:
256,192,172752,1,4,0:0:0:0:
256,192,173033,1,0,0:0:0:0:
256,192,173174,1,8,0:0:0:0:
256,192,173315,1,8,0:0:0:0:
256,192,173385,1,8,0:0:0:0:
256,192,173456,1,0,0:0:0:0:
256,192,173526,1,8,0:0:0:0:
256,192,173597,1,0,0:0:0:0:
256,192,173738,1,8,0:0:0:0:
256,192,173878,1,4,0:0:0:0:
256,192,174160,1,0,0:0:0:0:
256,192,174301,1,8,0:0:0:0:
256,192,174442,1,0,0:0:0:0:
256,192,174512,1,0,0:0:0:0:
256,192,174583,1,0,0:0:0:0:
256,192,174723,1,0,0:0:0:0:
256,192,174864,1,8,0:0:0:0:
256,192,175005,1,4,0:0:0:0:
256,192,175287,1,0,0:0:0:0:
256,192,175428,1,8,0:0:0:0:
256,192,175569,1,8,0:0:0:0:
256,192,175639,1,8,0:0:0:0:
256,192,175709,1,0,0:0:0:0:
256,192,175850,1,0,0:0:0:0:
256,192,175991,1,8,0:0:0:0:
256,192,176132,1,4,0:0:0:0:
256,192,176414,1,0,0:0:0:0:
256,192,176554,1,8,0:0:0:0:
256,192,176695,1,0,0:0:0:0:
256,192,176766,1,8,0:0:0:0:
256,192,176836,1,0,0:0:0:0:
256,192,176907,1,0,0:0:0:0:
256,192,176977,1,0,0:0:0:0:
256,192,177118,1,8,0:0:0:0:
256,192,177259,1,8,0:0:0:0:
256,192,177329,1,8,0:0:0:0:
256,192,177400,1,0,0:0:0:0:
256,192,177540,1,0,0:0:0:0:
256,192,177681,1,8,0:0:0:0:
256,192,177822,1,0,0:0:0:0:
256,192,177892,1,0,0:0:0:0:
256,192,177963,1,0,0:0:0:0:
256,192,178033,1,8,0:0:0:0:
256,192,178104,1,0,0:0:0:0:
256,192,178245,1,8,0:0:0:0:
256,192,178385,1,0,0:0:0:0:
256,192,178526,1,8,0:0:0:0:
256,192,178597,1,8,0:0:0:0:
256,192,178667,1,0,0:0:0:0:
256,192,178808,1,0,0:0:0:0:
256,192,178949,1,0,0:0:0:0:
256,192,179019,1,0,0:0:0:0:
256,192,179090,1,8,0:0:0:0:
256,192,179231,1,8,0:0:0:0:
256,192,179371,1,8,0:0:0:0:
256,192,179512,1,0,0:0:0:0:
256,192,179794,1,0,0:0:0:0:
256,192,179935,1,8,0:0:0:0:
256,192,180076,1,8,0:0:0:0:
256,192,180216,1,0,0:0:0:0:
256,192,180287,1,0,0:0:0:0:
256,192,180357,1,0,0:0:0:0:
256,192,180428,1,0,0:0:0:0:
256,192,180498,1,8,0:0:0:0:
256,192,180639,1,8,0:0:0:0:
256,192,180780,1,0,0:0:0:0:
256,192,180921,1,0,0:0:0:0:
256,192,180991,1,0,0:0:0:0:
256,192,181061,1,8,0:0:0:0:
256,192,181202,1,8,0:0:0:0:
256,192,181343,1,0,0:0:0:0:
256,192,181484,1,0,0:0:0:0:
256,192,181625,1,14,0:0:0:0:
256,192,181907,1,0,0:0:0:0:
256,192,182047,1,8,0:0:0:0:
256,192,182188,1,8,0:0:0:0:
256,192,182329,1,0,0:0:0:0:
256,192,182400,1,8,0:0:0:0:
256,192,182470,1,0,0:0:0:0:
256,192,182611,1,0,0:0:0:0:
256,192,182752,1,8,0:0:0:0:
256,192,182892,1,4,0:0:0:0:
256,192,183174,1,0,0:0:0:0:
256,192,183315,1,8,0:0:0:0:
256,192,183456,1,8,0:0:0:0:
256,192,183526,1,8,0:0:0:0:
256,192,183597,1,0,0:0:0:0:
256,192,183738,1,0,0:0:0:0:
256,192,183878,1,8,0:0:0:0:
256,192,184019,1,0,0:0:0:0:
256,192,184301,1,0,0:0:0:0:
256,192,184442,1,8,0:0:0:0:
256,192,184583,1,8,0:0:0:0:
256,192,184653,1,8,0:0:0:0:
256,192,184723,1,0,0:0:0:0:
256,192,184794,1,0,0:0:0:0:
256,192,184864,1,8,0:0:0:0:
256,192,185005,1,8,0:0:0:0:
256,192,185146,1,0,0:0:0:0:
256,192,185216,1,8,0:0:0:0:
256,192,185287,1,0,0:0:0:0:
256,192,185357,1,0,0:0:0:0:
256,192,185428,1,0,0:0:0:0:
256,192,185569,1,8,0:0:0:0:
256,192,185850,1,0,0:0:0:0:
256,192,185991,1,0,0:0:0:0:
256,192,186061,1,0,0:0:0:0:
256,192,186132,1,8,0:0:0:0:
256,192,186273,1,8,0:0:0:0:
256,192,186343,1,8,0:0:0:0:
256,192,186414,1,0,0:0:0:0:
256,192,186554,1,0,0:0:0:0:
256,192,186695,1,8,0:0:0:0:
256,192,186836,1,8,0:0:0:0:
256,192,186907,1,8,0:0:0:0:
256,192,186977,1,0,0:0:0:0:
256,192,187047,1,8,0:0:0:0:
256,192,187118,1,0,0:0:0:0:
256,192,187188,1,0,0:0:0:0:
256,192,187259,1,8,0:0:0:0:
256,192,187400,1,8,0:0:0:0:
256,192,187540,1,0,0:0:0:0:
256,192,187681,1,0,0:0:0:0:
256,192,187752,1,0,0:0:0:0:
256,192,187822,1,8,0:0:0:0:
256,192,187963,1,8,0:0:0:0:
256,192,188033,1,0,0:0:0:0:
256,192,188104,1,8,0:0:0:0:
256,192,188174,1,8,0:0:0:0:
256,192,188245,1,0,0:0:0:0:
256,192,188385,1,8,0:0:0:0:
256,192,188526,1,4,0:0:0:0:
256,192,188808,1,0,0:0:0:0:
256,192,188949,1,8,0:0:0:0:
256,192,189090,1,8,0:0:0:0:
256,192,189160,1,8,0:0:0:0:
256,192,189231,1,8,0:0:0:0:
256,192,189371,1,0,0:0:0:0:
256,192,189512,1,8,0:0:0:0:
256,192,189653,1,8,0:0:0:0:
256,192,189723,1,8,0:0:0:0:
256,192,189794,1,0,0:0:0:0:
256,192,189864,1,0,0:0:0:0:
256,192,189935,1,8,0:0:0:0:
256,192,190076,1,8,0:0:0:0:
256,192,190216,1,8,0:0:0:0:
256,192,190357,1,0,0:0:0:0:
256,192,190498,1,0,0:0:0:0:
256,192,190569,1,0,0:0:0:0:
256,192,190639,1,8,0:0:0:0:
256,192,190709,1,0,0:0:0:0:
256,192,190780,1,8,0:0:0:0:
256,192,190850,1,8,0:0:0:0:
256,192,190921,1,0,0:0:0:0:
256,192,191061,1,0,0:0:0:0:
256,192,191202,1,8,0:0:0:0:
256,192,191484,1,4,0:0:0:0:
256,192,191625,1,0,0:0:0:0:
256,192,191907,1,8,0:0:0:0:
256,192,192048,1,0,0:0:0:0:
256,192,192188,1,0,0:0:0:0:
256,192,192259,1,0,0:0:0:0:
256,192,192329,1,8,0:0:0:0:
256,192,192470,1,8,0:0:0:0:
256,192,192611,1,8,0:0:0:0:
256,192,192681,1,0,0:0:0:0:
256,192,192752,1,0,0:0:0:0:
256,192,192892,1,8,0:0:0:0:
256,192,193033,1,0,0:0:0:0:
256,192,193104,1,0,0:0:0:0:
256,192,193174,1,0,0:0:0:0:
256,192,193315,1,0,0:0:0:0:
256,192,193456,1,8,0:0:0:0:
256,192,193597,1,0,0:0:0:0:
256,192,193667,1,8,0:0:0:0:
256,192,193738,1,0,0:0:0:0:
256,192,193808,1,0,0:0:0:0:
256,192,193878,1,8,0:0:0:0:
256,192,194019,1,8,0:0:0:0:
256,192,194160,1,8,0:0:0:0:
256,192,194231,1,8,0:0:0:0:
256,192,194301,1,0,0:0:0:0:
256,192,194442,1,0,0:0:0:0:
256,192,194583,1,8,0:0:0:0:
256,192,194864,1,4,0:0:0:0:
256,192,195005,1,0,0:0:0:0:
256,192,195287,1,8,0:0:0:0:
256,192,195428,1,0,0:0:0:0:
256,192,195709,1,8,0:0:0:0:
256,192,195991,1,0,0:0:0:0:
256,192,196132,1,0,0:0:0:0:
256,192,196202,1,0,0:0:0:0:
256,192,196273,1,8,0:0:0:0:
256,192,196414,1,0,0:0:0:0:
256,192,196484,1,8,0:0:0:0:
256,192,196554,1,0,0:0:0:0:
256,192,196695,1,0,0:0:0:0:
256,192,196836,1,8,0:0:0:0:
256,192,196977,1,8,0:0:0:0:
256,192,197047,1,0,0:0:0:0:
256,192,197118,1,0,0:0:0:0:
256,192,197188,1,0,0:0:0:0:
256,192,197259,1,0,0:0:0:0:
256,192,197400,1,8,0:0:0:0:
256,192,197540,1,4,0:0:0:0:
256,192,197963,1,0,0:0:0:0:
256,192,198245,1,0,0:0:0:0:
256,192,198526,1,0,0:0:0:0:
256,192,198667,1,8,0:0:0:0:
256,192,198808,1,8,0:0:0:0:
256,192,198878,1,0,0:0:0:0:
256,192,198949,1,0,0:0:0:0:
256,192,199019,1,0,0:0:0:0:
256,192,199090,1,8,0:0:0:0:
256,192,199231,1,0,0:0:0:0:
256,192,199371,1,8,0:0:0:0:
256,192,199512,1,0,0:0:0:0:
256,192,199794,1,0,0:0:0:0:
256,192,199935,1,4,0:0:0:0:
256,192,200639,1,0,0:0:0:0:
256,192,200874,1,8,0:0:0:0:
256,192,202000,1,8,0:0:0:0:
256,192,202093,1,8,0:0:0:0:
256,192,202189,1,0,0:0:0:0:
256,192,202611,1,0,0:0:0:0:
256,192,202752,1,8,0:0:0:0:
256,192,203033,1,8,0:0:0:0:
256,192,203174,1,8,0:0:0:0:
256,192,203315,1,0,0:0:0:0:
256,192,203597,1,0,0:0:0:0:
256,192,203878,1,8,0:0:0:0:
256,192,204160,1,0,0:0:0:0:
256,192,204442,1,8,0:0:0:0:
256,192,204723,1,8,0:0:0:0:
256,192,204864,1,0,0:0:0:0:
256,192,205146,1,0,0:0:0:0:
256,192,205287,1,8,0:0:0:0:
256,192,205569,1,8,0:0:0:0:
256,192,205709,1,8,0:0:0:0:
256,192,205850,1,0,0:0:0:0:
256,192,206132,1,8,0:0:0:0:
256,192,206414,1,0,0:0:0:0:
256,192,206695,1,0,0:0:0:0:
256,192,206836,1,8,0:0:0:0:
256,192,207118,1,8,0:0:0:0:
256,192,207259,1,0,0:0:0:0:
256,192,207540,1,0,0:0:0:0:
256,192,208104,1,8,0:0:0:0:
256,192,208667,1,0,0:0:0:0:
256,192,208808,1,0,0:0:0:0:
256,192,208949,1,8,0:0:0:0:
256,192,209231,1,8,0:0:0:0:
256,192,209371,1,0,0:0:0:0:
256,192,209653,1,0,0:0:0:0:
256,192,209794,1,8,0:0:0:0:
256,192,210076,1,8,0:0:0:0:
256,192,210216,1,8,0:0:0:0:
256,192,210498,1,8,0:0:0:0:
256,192,210639,1,8,0:0:0:0:
256,192,210780,1,0,0:0:0:0:
256,192,211015,1,0,0:0:0:0:
256,192,211296,1,0,0:0:0:0:
256,192,211766,1,0,0:0:0:0:
256,192,212188,1,0,0:0:0:0:
256,192,212329,1,8,0:0:0:0:
256,192,212611,1,8,0:0:0:0:
256,192,212892,1,0,0:0:0:0:
256,192,213174,1,0,0:0:0:0:
256,192,213456,1,4,0:0:0:0:
256,192,214019,1,0,0:0:0:0:
256,192,214583,1,0,0:0:0:0:
256,192,214723,1,8,0:0:0:0:
256,192,214864,1,0,0:0:0:0:
256,192,215146,1,0,0:0:0:0:
256,192,215428,1,8,0:0:0:0:
256,192,215709,1,8,0:0:0:0:
256,192,215850,1,0,0:0:0:0:
256,192,215921,1,0,0:0:0:0:
256,192,215991,1,8,0:0:0:0:
256,192,216132,1,4,0:0:0:0:
256,192,216414,1,4,0:0:0:0:
256,192,216695,1,14,0:0:0:0:
256,192,217400,1,8,0:0:0:0:
256,192,217493,1,0,0:0:0:0:
256,192,217587,1,0,0:0:0:0:
256,192,217681,1,8,0:0:0:0:
256,192,217822,1,4,0:0:0:0:
256,192,218057,1,8,0:0:0:0:
256,192,218151,1,0,0:0:0:0:
256,192,218245,1,8,0:0:0:0:
256,192,218315,1,8,0:0:0:0:
256,192,218385,1,0,0:0:0:0:
256,192,218667,1,0,0:0:0:0:
256,192,218878,1,8,0:0:0:0:
256,192,218949,1,8,0:0:0:0:
256,192,219019,1,0,0:0:0:0:
256,192,219090,1,8,0:0:0:0:
256,192,219231,1,0,0:0:0:0:
256,192,219371,1,0,0:0:0:0:
256,192,219442,1,8,0:0:0:0:
256,192,219512,1,0,0:0:0:0:
256,192,219653,1,8,0:0:0:0:
256,192,219723,1,8,0:0:0:0:
256,192,219794,1,0,0:0:0:0:
256,192,219935,1,8,0:0:0:0:
256,192,220076,1,4,0:0:0:0:
256,192,220216,1,0,0:0:0:0:
256,192,220357,1,8,0:0:0:0:
256,192,220498,1,0,0:0:0:0:
256,192,220592,1,8,0:0:0:0:
256,192,220686,1,8,0:0:0:0:
256,192,220780,1,0,0:0:0:0:
256,192,220921,1,8,0:0:0:0:
256,192,221061,1,0,0:0:0:0:
256,192,221202,1,8,0:0:0:0:
256,192,221273,1,0,0:0:0:0:
256,192,221343,1,8,0:0:0:0:
256,192,221484,1,0,0:0:0:0:
256,192,221625,1,8,0:0:0:0:
256,192,221766,1,0,0:0:0:0:
256,192,221907,1,8,0:0:0:0:
256,192,222047,1,0,0:0:0:0:
256,192,222118,1,0,0:0:0:0:
256,192,222188,1,0,0:0:0:0:
256,192,222329,1,14,0:0:0:0:
256,192,222611,1,0,0:0:0:0:
256,192,222752,1,8,0:0:0:0:
256,192,222892,1,0,0:0:0:0:
256,192,222963,1,0,0:0:0:0:
256,192,223033,1,8,0:0:0:0:
256,192,223174,1,0,0:0:0:0:
256,192,223315,1,8,0:0:0:0:
256,192,223385,1,0,0:0:0:0:
256,192,223456,1,0,0:0:0:0:
256,192,223597,1,8,0:0:0:0:
256,192,223738,1,0,0:0:0:0:
256,192,223878,1,8,0:0:0:0:
256,192,224019,1,0,0:0:0:0:
256,192,224090,1,0,0:0:0:0:
256,192,224160,1,8,0:0:0:0:
256,192,224301,1,0,0:0:0:0:
256,192,224371,1,8,0:0:0:0:
256,192,224442,1,0,0:0:0:0:
256,192,224583,1,4,0:0:0:0:
256,192,224864,1,0,0:0:0:0:
256,192,224935,1,0,0:0:0:0:
256,192,225005,1,8,0:0:0:0:
256,192,225146,1,8,0:0:0:0:
256,192,225287,1,8,0:0:0:0:
256,192,225428,1,0,0:0:0:0:
256,192,225498,1,0,0:0:0:0:
256,192,225569,1,0,0:0:0:0:
256,192,225709,1,8,0:0:0:0:
256,192,225991,1,0,0:0:0:0:
256,192,226061,1,0,0:0:0:0:
256,192,226132,1,8,0:0:0:0:
256,192,226273,1,0,0:0:0:0:
256,192,226554,1,0,0:0:0:0:
256,192,226695,1,8,0:0:0:0:
256,192,226977,1,4,0:0:0:0:
256,192,227259,1,8,0:0:0:0:
256,192,227400,1,4,0:0:0:0:
256,192,227681,1,8,0:0:0:0:
256,192,227822,1,4,0:0:0:0:
256,192,228104,1,8,0:0:0:0:
256,192,228245,1,0,0:0:0:0:
256,192,228385,1,0,0:0:0:0:
256,192,228526,1,0,0:0:0:0:
256,192,228667,1,8,0:0:0:0:
256,192,228808,1,0,0:0:0:0:
256,192,229090,1,8,0:0:0:0:
256,192,229231,1,4,0:0:0:0:
256,192,229512,1,0,0:0:0:0:
256,192,229653,1,14,0:0:0:0:
256,192,229935,1,8,0:0:0:0:
256,192,230076,1,4,0:0:0:0:
256,192,230357,1,4,0:0:0:0:
256,192,230639,1,4,0:0:0:0:
256,192,230921,1,4,0:0:0:0:
256,192,231061,1,8,0:0:0:0:
256,192,231202,1,8,0:0:0:0:
256,192,231343,1,0,0:0:0:0:
256,192,231484,1,14,0:0:0:0:
256,192,231695,1,0,0:0:0:0:
256,192,231907,1,0,0:0:0:0:
256,192,232048,1,0,0:0:0:0:
256,192,232329,1,0,0:0:0:0:
256,192,232470,1,0,0:0:0:0:
256,192,232611,1,8,0:0:0:0:
256,192,232752,1,0,0:0:0:0:
256,192,232822,1,0,0:0:0:0:
256,192,232892,1,8,0:0:0:0:
256,192,233033,1,8,0:0:0:0:
256,192,233174,1,0,0:0:0:0:
256,192,233315,1,8,0:0:0:0:
256,192,233385,1,0,0:0:0:0:
256,192,233456,1,8,0:0:0:0:
256,192,233738,1,4,0:0:0:0:
256,192,233878,1,8,0:0:0:0:
256,192,233972,1,0,0:0:0:0:
256,192,234066,1,0,0:0:0:0:
256,192,234160,1,8,0:0:0:0:
256,192,234231,1,0,0:0:0:0:
256,192,234301,1,8,0:0:0:0:
256,192,234442,1,0,0:0:0:0:
256,192,234583,1,8,0:0:0:0:
256,192,234723,1,4,0:0:0:0:
256,192,235052,1,0,0:0:0:0:
256,192,235146,1,8,0:0:0:0:
256,192,235240,1,8,0:0:0:0:
256,192,235334,1,0,0:0:0:0:
256,192,235428,1,8,0:0:0:0:
256,192,235522,1,0,0:0:0:0:
256,192,235615,1,0,0:0:0:0:
256,192,235709,1,8,0:0:0:0:
256,192,235897,1,14,0:0:0:0:
256,192,236132,1,0,0:0:0:0:
256,192,236273,1,8,0:0:0:0:
256,192,236414,1,8,0:0:0:0:
256,192,236554,1,0,0:0:0:0:
256,192,236695,1,0,0:0:0:0:
256,192,236766,1,0,0:0:0:0:
256,192,236836,1,8,0:0:0:0:
256,192,236977,1,0,0:0:0:0:
256,192,237259,1,0,0:0:0:0:
256,192,237540,1,0,0:0:0:0:
256,192,237681,1,8,0:0:0:0:
256,192,237822,1,0,0:0:0:0:
256,192,237892,1,8,0:0:0:0:
256,192,238033,1,8,0:0:0:0:
256,192,238104,1,0,0:0:0:0:
256,192,238385,1,0,0:0:0:0:
256,192,238526,1,8,0:0:0:0:
256,192,238667,1,0,0:0:0:0:
256,192,238949,1,8,0:0:0:0:
256,192,239090,1,0,0:0:0:0:
256,192,239160,1,8,0:0:0:0:
256,192,239231,1,0,0:0:0:0:
256,192,239371,1,0,0:0:0:0:
256,192,239512,1,8,0:0:0:0:
256,192,239794,1,0,0:0:0:0:
256,192,240076,1,0,0:0:0:0:
256,192,240216,1,8,0:0:0:0:
256,192,240357,1,4,0:0:0:0:
256,192,240639,1,8,0:0:0:0:
256,192,240780,1,0,0:0:0:0:
256,192,240850,1,0,0:0:0:0:
256,192,240921,1,8,0:0:0:0:
256,192,241061,1,8,0:0:0:0:
256,192,241202,1,8,0:0:0:0:
256,192,241273,1,8,0:0:0:0:
256,192,241343,1,0,0:0:0:0:
256,192,241484,1,0,0:0:0:0:
256,192,241766,1,0,0:0:0:0:
256,192,241907,1,8,0:0:0:0:
256,192,242047,1,0,0:0:0:0:
256,192,242329,1,0,0:0:0:0:
256,192,242400,1,8,0:0:0:0:
256,192,242470,1,0,0:0:0:0:
256,192,242611,1,4,0:0:0:0:
256,192,242892,1,0,0:0:0:0:
256,192,242963,1,8,0:0:0:0:
256,192,243033,1,0,0:0:0:0:
256,192,243174,1,8,0:0:0:0:
256,192,243315,1,8,0:0:0:0:
256,192,243385,1,8,0:0:0:0:
256,192,243456,1,0,0:0:0:0:
256,192,243597,1,0,0:0:0:0:
256,192,243738,1,8,0:0:0:0:
256,192,244019,1,0,0:0:0:0:
256,192,244160,1,8,0:0:0:0:
256,192,244231,1,8,0:0:0:0:
256,192,244301,1,0,0:0:0:0:
256,192,244442,1,0,0:0:0:0:
256,192,244723,1,0,0:0:0:0:
256,192,244864,1,4,0:0:0:0:
256,192,245146,1,8,0:0:0:0:
256,192,245216,1,8,0:0:0:0:
256,192,245287,1,0,0:0:0:0:
256,192,245357,1,0,0:0:0:0:
256,192,245428,1,8,0:0:0:0:
256,192,245569,1,8,0:0:0:0:
256,192,245709,1,0,0:0:0:0:
256,192,245850,1,8,0:0:0:0:
256,192,245991,1,0,0:0:0:0:
256,192,246273,1,0,0:0:0:0:
256,192,246414,1,8,0:0:0:0:
256,192,246554,1,0,0:0:0:0:
256,192,246625,1,0,0:0:0:0:
256,192,246695,1,8,0:0:0:0:
256,192,246766,1,0,0:0:0:0:
256,192,246907,1,0,0:0:0:0:
256,192,246977,1,8,0:0:0:0:
256,192,247118,1,4,0:0:0:0:
256,192,247400,1,8,0:0:0:0:
256,192,247470,1,0,0:0:0:0:
256,192,247540,1,8,0:0:0:0:
256,192,247611,1,8,0:0:0:0:
256,192,247681,1,0,0:0:0:0:
256,192,247752,1,0,0:0:0:0:
256,192,247822,1,8,0:0:0:0:
256,192,247963,1,0,0:0:0:0:
256,192,248104,1,0,0:0:0:0:
256,192,248245,1,8,0:0:0:0:
256,192,248526,1,8,0:0:0:0:
256,192,248667,1,0,0:0:0:0:
256,192,248808,1,8,0:0:0:0:
256,192,248878,1,0,0:0:0:0:
256,192,248949,1,8,0:0:0:0:
256,192,249019,1,0,0:0:0:0:
256,192,249090,1,0,0:0:0:0:
256,192,249160,1,0,0:0:0:0:
256,192,249231,1,8,0:0:0:0:
256,192,249371,1,4,0:0:0:0:
256,192,249653,1,0,0:0:0:0:
256,192,249794,1,8,0:0:0:0:
256,192,249935,1,8,0:0:0:0:
256,192,250005,1,8,0:0:0:0:
256,192,250076,1,0,0:0:0:0:
256,192,250216,1,0,0:0:0:0:
256,192,250357,1,8,0:0:0:0:
256,192,250498,1,0,0:0:0:0:
256,192,250780,1,0,0:0:0:0:
256,192,250850,1,0,0:0:0:0:
256,192,250921,1,8,0:0:0:0:
256,192,251061,1,0,0:0:0:0:
256,192,251343,1,0,0:0:0:0:
256,192,251484,1,8,0:0:0:0:
256,192,251625,1,0,0:0:0:0:
256,192,251766,1,0,0:0:0:0:
256,192,251836,1,0,0:0:0:0:
256,192,251907,1,0,0:0:0:0:
256,192,252047,1,0,0:0:0:0:
256,192,252188,1,0,0:0:0:0:
256,192,252259,1,8,0:0:0:0:
256,192,252329,1,0,0:0:0:0:
256,192,252470,1,0,0:0:0:0:
256,192,252611,1,8,0:0:0:0:
256,192,252752,1,0,0:0:0:0:
256,192,253033,1,0,0:0:0:0:
256,192,253174,1,8,0:0:0:0:
256,192,253315,1,8,0:0:0:0:
256,192,253385,1,8,0:0:0:0:
256,192,253456,1,0,0:0:0:0:
256,192,253597,1,0,0:0:0:0:
256,192,253738,1,8,0:0:0:0:
256,192,253878,1,0,0:0:0:0:
256,192,254019,1,4,0:0:0:0:
256,192,254301,1,8,0:0:0:0:
256,192,254442,1,0,0:0:0:0:
256,192,254723,1,8,0:0:0:0:
256,192,254864,1,0,0:0:0:0:
256,192,255146,1,0,0:0:0:0:
256,192,255287,1,8,0:0:0:0:
256,192,255569,1,0,0:0:0:0:
256,192,255709,1,8,0:0:0:0:
256,192,255850,1,8,0:0:0:0:
256,192,255991,1,0,0:0:0:0:
256,192,256273,1,4,0:0:0:0:
256,192,256414,1,0,0:0:0:0:
256,192,256554,1,8,0:0:0:0:
256,192,256695,1,0,0:0:0:0:
256,192,256977,1,0,0:0:0:0:
256,192,257118,1,8,0:0:0:0:
256,192,257400,1,4,0:0:0:0:
256,192,257681,1,4,0:0:0:0:
256,192,257822,1,0,0:0:0:0:
256,192,257963,1,8,0:0:0:0:
256,192,258057,1,8,0:0:0:0:
256,192,258151,1,0,0:0:0:0:
256,192,258245,1,8,0:0:0:0:
256,192,258385,1,4,0:0:0:0:
256,192,258808,1,8,0:0:0:0:
256,192,259090,1,0,0:0:0:0:
256,192,259371,1,8,0:0:0:0:
256,192,259559,1,0,0:0:0:0:
256,192,259935,1,8,0:0:0:0:
256,192,260216,1,0,0:0:0:0:
256,192,260639,1,0,0:0:0:0:
256,192,260921,1,8,0:0:0:0:
256,192,261061,1,0,0:0:0:0:
256,192,261343,1,8,0:0:0:0:
256,192,261625,1,0,0:0:0:0:
256,192,261813,1,8,0:0:0:0:
256,192,262188,1,8,0:0:0:0:
256,192,262470,1,0,0:0:0:0:
256,192,262892,1,0,0:0:0:0:
256,192,263174,1,0,0:0:0:0:
256,192,263315,1,8,0:0:0:0:
256,192,263597,1,0,0:0:0:0:
256,192,263878,1,0,0:0:0:0:
256,192,264066,1,8,0:0:0:0:
256,192,264442,1,8,0:0:0:0:
256,192,264723,1,8,0:0:0:0:
256,192,265193,1,0,0:0:0:0:
256,192,265569,1,0,0:0:0:0:
256,192,265850,1,8,0:0:0:0:
256,192,266273,1,8,0:0:0:0:
256,192,266554,1,8,0:0:0:0:
256,192,266695,1,0,0:0:0:0:
256,192,266977,1,8,0:0:0:0:
256,192,267400,1,0,0:0:0:0:
256,192,267822,1,8,0:0:0:0:
256,192,268104,1,0,0:0:0:0:
256,192,268385,1,0,0:0:0:0:
256,192,268573,1,8,0:0:0:0:
256,192,268949,1,8,0:0:0:0:
256,192,269231,1,0,0:0:0:0:
256,192,269512,1,0,0:0:0:0:
256,192,269653,1,8,0:0:0:0:
256,192,270076,1,8,0:0:0:0:
256,192,270357,1,0,0:0:0:0:
256,192,270639,1,0,0:0:0:0:
256,192,270827,1,8,0:0:0:0:
256,192,271202,1,0,0:0:0:0:
256,192,271484,1,0,0:0:0:0:
256,192,271766,1,8,0:0:0:0:
256,192,271836,1,8,0:0:0:0:
256,192,271907,1,0,0:0:0:0:
256,192,272329,1,8,0:0:0:0:
256,192,272611,1,0,0:0:0:0:
256,192,272892,1,8,0:0:0:0:
256,192,273033,1,0,0:0:0:0:
256,192,273174,1,4,0:0:0:0:
256,192,273456,1,4,0:0:0:0:
256,192,273738,1,8,0:0:0:0:
256,192,273878,1,0,0:0:0:0:
256,192,274019,1,0,0:0:0:0:
256,192,274160,1,0,0:0:0:0:
256,192,274301,1,4,0:0:0:0:
256,192,274583,1,4,0:0:0:0:
256,192,274723,1,0,0:0:0:0:
256,192,275005,1,0,0:0:0:0:
256,192,275146,1,4,0:0:0:0:
256,192,275428,1,4,0:0:0:0:
256,192,275709,1,4,0:0:0:0:
256,192,275991,1,8,0:0:0:0:
256,192,276061,1,8,0:0:0:0:
256,192,276132,1,0,0:0:0:0:
256,192,276273,1,8,0:0:0:0:
256,192,276484,1,4,0:0:0:0:
256,192,276695,1,0,0:0:0:0:
256,192,276836,1,8,0:0:0:0:
256,192,276977,1,8,0:0:0:0:
256,192,277047,1,8,0:0:0:0:
256,192,277118,1,0,0:0:0:0:
256,192,277188,1,0,0:0:0:0:
256,192,277259,1,0,0:0:0:0:
256,192,277400,1,8,0:0:0:0:
256,192,277540,1,0,0:0:0:0:
256,192,277611,1,0,0:0:0:0:
256,192,277681,1,0,0:0:0:0:
256,192,277822,1,0,0:0:0:0:
256,192,277963,1,8,0:0:0:0:
256,192,278104,1,8,0:0:0:0:
256,192,278245,1,0,0:0:0:0:
256,192,278385,1,0,0:0:0:0:
256,192,278456,1,0,0:0:0:0:
256,192,278526,1,8,0:0:0:0:
256,192,278597,1,0,0:0:0:0:
256,192,278667,1,8,0:0:0:0:
256,192,278738,1,8,0:0:0:0:
256,192,278808,1,0,0:0:0:0:
256,192,278949,1,0,0:0:0:0:
256,192,279090,1,8,0:0:0:0:
256,192,279231,1,8,0:0:0:0:
256,192,279301,1,8,0:0:0:0:
256,192,279371,1,0,0:0:0:0:
256,192,279512,1,0,0:0:0:0:
256,192,279583,1,0,0:0:0:0:
256,192,279653,1,8,0:0:0:0:
256,192,279794,1,0,0:0:0:0:
256,192,280076,1,0,0:0:0:0:
256,192,280216,1,8,0:0:0:0:
256,192,280357,1,8,0:0:0:0:
256,192,280428,1,8,0:0:0:0:
256,192,280498,1,0,0:0:0:0:
256,192,280569,1,8,0:0:0:0:
256,192,280639,1,0,0:0:0:0:
256,192,280780,1,8,0:0:0:0:
256,192,280921,1,4,0:0:0:0:
256,192,281202,1,0,0:0:0:0:
256,192,281343,1,8,0:0:0:0:
256,192,281484,1,8,0:0:0:0:
256,192,281554,1,0,0:0:0:0:
256,192,281625,1,8,0:0:0:0:
256,192,281695,1,8,0:0:0:0:
256,192,281766,1,0,0:0:0:0:
256,192,281907,1,8,0:0:0:0:
256,192,282047,1,4,0:0:0:0:
256,192,282329,1,0,0:0:0:0:
256,192,282470,1,8,0:0:0:0:
256,192,282611,1,0,0:0:0:0:
256,192,282681,1,8,0:0:0:0:
256,192,282752,1,0,0:0:0:0:
256,192,282892,1,0,0:0:0:0:
256,192,283033,1,8,0:0:0:0:
256,192,283174,1,4,0:0:0:0:
256,192,283456,1,0,0:0:0:0:
256,192,283597,1,8,0:0:0:0:
256,192,283738,1,8,0:0:0:0:
256,192,283808,1,8,0:0:0:0:
256,192,283878,1,0,0:0:0:0:
256,192,284019,1,0,0:0:0:0:
256,192,284160,1,8,0:0:0:0:
256,192,284301,1,4,0:0:0:0:
256,192,284583,1,0,0:0:0:0:
256,192,284723,1,8,0:0:0:0:
256,192,284864,1,8,0:0:0:0:
256,192,284935,1,0,0:0:0:0:
256,192,285005,1,0,0:0:0:0:
256,192,285076,1,8,0:0:0:0:
256,192,285146,1,0,0:0:0:0:
256,192,285287,1,8,0:0:0:0:
256,192,285428,1,8,0:0:0:0:
256,192,285498,1,8,0:0:0:0:
256,192,285569,1,0,0:0:0:0:
256,192,285709,1,0,0:0:0:0:
256,192,285850,1,8,0:0:0:0:
256,192,285991,1,0,0:0:0:0:
256,192,286061,1,0,0:0:0:0:
256,192,286132,1,0,0:0:0:0:
256,192,286273,1,0,0:0:0:0:
256,192,286414,1,8,0:0:0:0:
256,192,286554,1,0,0:0:0:0:
256,192,286836,1,0,0:0:0:0:
256,192,286977,1,8,0:0:0:0:
256,192,287118,1,8,0:0:0:0:
256,192,287188,1,8,0:0:0:0:
256,192,287259,1,0,0:0:0:0:
256,192,287329,1,0,0:0:0:0:
256,192,287400,1,0,0:0:0:0:
256,192,287540,1,8,0:0:0:0:
256,192,287681,1,0,0:0:0:0:
256,192,287822,1,0,0:0:0:0:
256,192,287892,1,0,0:0:0:0:
256,192,287963,1,0,0:0:0:0:
256,192,288033,1,0,0:0:0:0:
256,192,288104,1,8,0:0:0:0:
256,192,288245,1,8,0:0:0:0:
256,192,288385,1,0,0:0:0:0:
256,192,288526,1,0,0:0:0:0:
256,192,288597,1,0,0:0:0:0:
256,192,288667,1,8,0:0:0:0:
256,192,288808,1,8,0:0:0:0:
256,192,288949,1,0,0:0:0:0:
256,192,289090,1,0,0:0:0:0:
256,192,289160,1,0,0:0:0:0:
256,192,289231,1,8,0:0:0:0:
256,192,289371,1,8,0:0:0:0:
256,192,289442,1,8,0:0:0:0:
256,192,289512,1,0,0:0:0:0:
256,192,289653,1,0,0:0:0:0:
256,192,289794,1,8,0:0:0:0:
256,192,289935,1,4,0:0:0:0:
256,192,290216,1,0,0:0:0:0:
256,192,290357,1,8,0:0:0:0:
256,192,290498,1,8,0:0:0:0:
256,192,290639,1,0,0:0:0:0:
256,192,290921,1,8,0:0:0:0:
256,192,291061,1,4,0:0:0:0:
256,192,291343,1,0,0:0:0:0:
256,192,291484,1,8,0:0:0:0:
256,192,291625,1,8,0:0:0:0:
256,192,291695,1,8,0:0:0:0:
256,192,291766,1,0,0:0:0:0:
256,192,291836,1,0,0:0:0:0:
256,192,291907,1,0,0:0:0:0:
256,192,292047,1,8,0:0:0:0:
256,192,292188,1,8,0:0:0:0:
256,192,292329,1,8,0:0:0:0:
256,192,292400,1,8,0:0:0:0:
256,192,292470,1,0,0:0:0:0:
256,192,292611,1,8,0:0:0:0:
256,192,292752,1,0,0:0:0:0:
256,192,292892,1,0,0:0:0:0:
256,192,293033,1,0,0:0:0:0:
256,192,293104,1,0,0:0:0:0:
256,192,293174,1,8,0:0:0:0:
256,192,293315,1,4,0:0:0:0:
256,192,293597,1,0,0:0:0:0:
256,192,293738,1,8,0:0:0:0:
256,192,293878,1,8,0:0:0:0:
256,192,293949,1,0,0:0:0:0:
256,192,294019,1,0,0:0:0:0:
256,192,294160,1,0,0:0:0:0:
256,192,294301,1,8,0:0:0:0:
256,192,294442,1,0,0:0:0:0:
256,192,294512,1,8,0:0:0:0:
256,192,294583,1,0,0:0:0:0:
256,192,294653,1,0,0:0:0:0:
256,192,294723,1,0,0:0:0:0:
256,192,294864,1,8,0:0:0:0:
256,192,295005,1,8,0:0:0:0:
256,192,295146,1,0,0:0:0:0:
256,192,295287,1,0,0:0:0:0:
256,192,295357,1,0,0:0:0:0:
256,192,295428,1,8,0:0:0:0:
256,192,295498,1,8,0:0:0:0:
256,192,295569,1,0,0:0:0:0:
256,192,295709,1,8,0:0:0:0:
256,192,295850,1,0,0:0:0:0:
256,192,295991,1,8,0:0:0:0:
256,192,296132,1,8,0:0:0:0:
256,192,296202,1,8,0:0:0:0:
256,192,296273,1,0,0:0:0:0:
256,192,296343,1,0,0:0:0:0:
256,192,296414,1,8,0:0:0:0:
256,192,296554,1,8,0:0:0:0:
256,192,296695,1,4,0:0:0:0:
256,192,296977,1,0,0:0:0:0:
256,192,297118,1,8,0:0:0:0:
256,192,297259,1,8,0:0:0:0:
256,192,297329,1,0,0:0:0:0:
256,192,297400,1,0,0:0:0:0:
256,192,297470,1,0,0:0:0:0:
256,192,297540,1,0,0:0:0:0:
256,192,297681,1,8,0:0:0:0:
256,192,297822,1,8,0:0:0:0:
256,192,297892,1,8,0:0:0:0:
256,192,297963,1,0,0:0:0:0:
256,192,298104,1,0,0:0:0:0:
256,192,298245,1,8,0:0:0:0:
256,192,298385,1,0,0:0:0:0:
256,192,298456,1,8,0:0:0:0:
256,192,298526,1,0,0:0:0:0:
256,192,298667,1,0,0:0:0:0:
256,192,298808,1,8,0:0:0:0:
256,192,298949,1,4,0:0:0:0:
256,192,299231,1,0,0:0:0:0:
256,192,299371,1,8,0:0:0:0:
256,192,299512,1,8,0:0:0:0:
256,192,299583,1,8,0:0:0:0:
256,192,299653,1,0,0:0:0:0:
256,192,299794,1,0,0:0:0:0:
256,192,299864,1,0,0:0:0:0:
256,192,299935,1,8,0:0:0:0:
256,192,300076,1,4,0:0:0:0:
256,192,300357,1,0,0:0:0:0:
256,192,300498,1,8,0:0:0:0:
256,192,300639,1,8,0:0:0:0:
256,192,300709,1,0,0:0:0:0:
256,192,300780,1,0,0:0:0:0:
256,192,300850,1,8,0:0:0:0:
256,192,300921,1,0,0:0:0:0:
256,192,301061,1,8,0:0:0:0:
256,192,301202,1,4,0:0:0:0:
256,192,301484,1,0,0:0:0:0:
256,192,301625,1,8,0:0:0:0:
256,192,301766,1,8,0:0:0:0:
256,192,301907,1,0,0:0:0:0:
256,192,301977,1,8,0:0:0:0:
256,192,302047,1,0,0:0:0:0:
256,192,302188,1,8,0:0:0:0:
256,192,302329,1,0,0:0:0:0:
256,192,302470,1,8,0:0:0:0:
256,192,302540,1,8,0:0:0:0:
256,192,302611,1,0,0:0:0:0:
256,192,302752,1,8,0:0:0:0:
256,192,302892,1,8,0:0:0:0:
256,192,302963,1,8,0:0:0:0:
256,192,303033,1,0,0:0:0:0:
256,192,303104,1,8,0:0:0:0:
256,192,303174,1,0,0:0:0:0:
256,192,303245,1,0,0:0:0:0:
256,192,303315,1,8,0:0:0:0:
256,192,303456,1,8,0:0:0:0:
256,192,303597,1,4,0:0:0:0:
256,192,303878,1,8,0:0:0:0:
256,192,304019,1,8,0:0:0:0:
256,192,304090,1,8,0:0:0:0:
256,192,304160,1,0,0:0:0:0:
256,192,304301,1,0,0:0:0:0:
256,192,304442,1,8,0:0:0:0:
256,192,304723,1,0,0:0:0:0:
256,192,305005,1,8,0:0:0:0:
256,192,305146,1,0,0:0:0:0:
256,192,305216,1,0,0:0:0:0:
256,192,305287,1,8,0:0:0:0:
256,192,305357,1,0,0:0:0:0:
256,192,305428,1,0,0:0:0:0:
256,192,305498,1,0,0:0:0:0:
256,192,305569,1,8,0:0:0:0:
256,192,305709,1,4,0:0:0:0:
256,192,306132,1,0,0:0:0:0:
256,192,306414,1,0,0:0:0:0:
256,192,306695,1,0,0:0:0:0:
256,192,306977,1,0,0:0:0:0:
256,192,307259,1,8,0:0:0:0:
256,192,307540,1,0,0:0:0:0:
256,192,307681,1,0,0:0:0:0:
256,192,307822,1,8,0:0:0:0:
256,192,307963,1,4,0:0:0:0:
256,192,308245,1,0,0:0:0:0:
256,192,308385,1,8,0:0:0:0:
256,192,308597,1,8,0:0:0:0:
256,192,308667,1,0,0:0:0:0:
256,192,308808,1,0,0:0:0:0:
256,192,308949,1,8,0:0:0:0:
256,192,309090,1,8,0:0:0:0:
256,192,309231,1,0,0:0:0:0:
256,192,309371,1,0,0:0:0:0:
256,192,309442,1,0,0:0:0:0:
256,192,309512,1,8,0:0:0:0:
256,192,309653,1,0,0:0:0:0:
256,192,309794,1,8,0:0:0:0:
256,192,309935,1,0,0:0:0:0:
256,192,310005,1,8,0:0:0:0:
256,192,310076,1,0,0:0:0:0:
256,192,310216,1,4,0:0:0:0:
256,192,310498,1,0,0:0:0:0:
256,192,310639,1,8,0:0:0:0:
256,192,310780,1,8,0:0:0:0:
256,192,310921,1,0,0:0:0:0:
256,192,311061,1,0,0:0:0:0:
256,192,311132,1,0,0:0:0:0:
256,192,311202,1,8,0:0:0:0:
256,192,311343,1,0,0:0:0:0:
256,192,311625,1,0,0:0:0:0:
256,192,311766,1,8,0:0:0:0:
256,192,311836,1,8,0:0:0:0:
256,192,311907,1,0,0:0:0:0:
256,192,312188,1,0,0:0:0:0:
256,192,312329,1,8,0:0:0:0:
256,192,312470,1,0,0:0:0:0:
256,192,312752,1,0,0:0:0:0:
256,192,312892,1,8,0:0:0:0:
256,192,313033,1,0,0:0:0:0:
256,192,313104,1,0,0:0:0:0:
256,192,313174,1,0,0:0:0:0:
256,192,313315,1,0,0:0:0:0:
256,192,313456,1,8,0:0:0:0:
256,192,313597,1,0,0:0:0:0:
256,192,313878,1,0,0:0:0:0:
256,192,314019,1,8,0:0:0:0:
256,192,314160,1,8,0:0:0:0:
256,192,314301,1,0,0:0:0:0:
256,192,314371,1,0,0:0:0:0:
256,192,314442,1,0,0:0:0:0:
256,192,314583,1,8,0:0:0:0:
256,192,314723,1,4,0:0:0:0:
256,192,315005,1,0,0:0:0:0:
256,192,315146,1,8,0:0:0:0:
256,192,315287,1,0,0:0:0:0:
256,192,315357,1,8,0:0:0:0:
256,192,315428,1,0,0:0:0:0:
256,192,315498,1,8,0:0:0:0:
256,192,315569,1,8,0:0:0:0:
256,192,315639,1,0,0:0:0:0:
256,192,315709,1,8,0:0:0:0:
256,192,315850,1,0,0:0:0:0:
256,192,315991,1,0,0:0:0:0:
256,192,316132,1,0,0:0:0:0:
256,192,316202,1,0,0:0:0:0:
256,192,316273,1,8,0:0:0:0:
256,192,316343,1,8,0:0:0:0:
256,192,316414,1,0,0:0:0:0:
256,192,316484,1,0,0:0:0:0:
256,192,316554,1,0,0:0:0:0:
256,192,316625,1,8,0:0:0:0:
256,192,316695,1,0,0:0:0:0:
256,192,316766,1,0,0:0:0:0:
256,192,316836,1,8,0:0:0:0:
256,192,317118,1,4,0:0:0:0:
256,192,317259,1,0,0:0:0:0:
256,192,317400,1,8,0:0:0:0:
256,192,317540,1,0,0:0:0:0:
256,192,317681,1,0,0:0:0:0:
256,192,317822,1,8,0:0:0:0:
256,192,317963,1,8,0:0:0:0:
256,192,318033,1,0,0:0:0:0:
256,192,318104,1,0,0:0:0:0:
256,192,318174,1,0,0:0:0:0:
256,192,318245,1,8,0:0:0:0:
256,192,318385,1,8,0:0:0:0:
256,192,318526,1,0,0:0:0:0:
256,192,318667,1,0,0:0:0:0:
256,192,318738,1,0,0:0:0:0:
256,192,318808,1,8,0:0:0:0:
256,192,318949,1,0,0:0:0:0:
256,192,319090,1,8,0:0:0:0:
256,192,319231,1,4,0:0:0:0:
256,192,319512,1,0,0:0:0:0:
256,192,319653,1,8,0:0:0:0:
256,192,319794,1,8,0:0:0:0:
256,192,319864,1,8,0:0:0:0:
256,192,319935,1,0,0:0:0:0:
256,192,320076,1,0,0:0:0:0:
256,192,320216,1,8,0:0:0:0:
256,192,320357,1,0,0:0:0:0:
256,192,320498,1,0,0:0:0:0:
256,192,320569,1,8,0:0:0:0:
256,192,320639,1,0,0:0:0:0:
256,192,320780,1,8,0:0:0:0:
256,192,320921,1,0,0:0:0:0:
256,192,321061,1,0,0:0:0:0:
256,192,321132,1,8,0:0:0:0:
256,192,321202,1,0,0:0:0:0:
256,192,321343,1,8,0:0:0:0:
256,192,321484,1,4,0:0:0:0:
256,192,321766,1,0,0:0:0:0:
256,192,321907,1,8,0:0:0:0:
256,192,322047,1,8,0:0:0:0:
256,192,322188,1,0,0:0:0:0:
256,192,322329,1,0,0:0:0:0:
256,192,322400,1,0,0:0:0:0:
256,192,322470,1,8,0:0:0:0:
256,192,322611,1,8,0:0:0:0:
256,192,322752,1,0,0:0:0:0:
256,192,323033,1,8,0:0:0:0:
256,192,323174,1,8,0:0:0:0:
256,192,323315,1,0,0:0:0:0:
256,192,323597,1,8,0:0:0:0:
256,192,323738,1,4,0:0:0:0:
256,192,324019,1,0,0:0:0:0:
256,192,324160,1,8,0:0:0:0:
256,192,324301,1,0,0:0:0:0:
256,192,324371,1,0,0:0:0:0:
256,192,324442,1,8,0:0:0:0:
256,192,324583,1,0,0:0:0:0:
256,192,324723,1,8,0:0:0:0:
256,192,324794,1,8,0:0:0:0:
256,192,324864,1,0,0:0:0:0:
256,192,324935,1,0,0:0:0:0:
256,192,325005,1,8,0:0:0:0:
256,192,325146,1,0,0:0:0:0:
256,192,325287,1,8,0:0:0:0:
256,192,325428,1,0,0:0:0:0:
256,192,325569,1,8,0:0:0:0:
256,192,325709,1,8,0:0:0:0:
256,192,325850,1,8,0:0:0:0:
256,192,325991,1,8,0:0:0:0:
256,192,326132,1,4,0:0:0:0:
