osu file format v12

[General]
AudioFilename: Asriel - Seiren.mp3
AudioLeadIn: 0
PreviewTime: 10076
Countdown: 0
SampleSet: Soft
StackLeniency: 0.7
Mode: 0
LetterboxInBreaks: 1

[Editor]
Bookmarks: 35127,70408,105690,109371,142943,175408,199915,211676,245831,281112,316183,317102
DistanceSpacing: 1
BeatDivisor: 4
GridSize: 4

[Metadata]
Title:Seiren
TitleUnicode:Seiren
Artist:Asriel
ArtistUnicode:Asriel
Creator:Pizza Kun
Version:Conflict
Source:Oratorium
Tags:fight Album Oratorium
BeatmapID:251643
BeatmapSetID:87103

[Difficulty]
HPDrainRate:3
CircleSize:3
OverallDifficulty:2
ApproachRate:4
SliderMultiplier:0.999999999999999
SliderTickRate:1

[Events]
//Background and Video events
0,0,"BG.jpg",0,0
//Break Periods
2,105346,117488
2,202388,212136
2,258585,272418
//Storyboard Layer 0 (Background)
//Storyboard Layer 1 (Fail)
//Storyboard Layer 2 (Pass)
//Storyboard Layer 3 (Foreground)
//Storyboard Sound Samples
//Background Colour Transformations
3,100,0,0,0

[TimingPoints]
491,281.69014084507,4,1,0,80,1,0
24160,-100,4,1,0,45,0,0
24723,-100,4,1,0,60,0,0
25287,-100,4,1,0,70,0,0
25850,-100,4,1,0,80,0,0
28667,-133.333333333333,4,2,0,80,0,0
46695,-133.333333333333,4,3,0,80,0,0
63878,-133.333333333333,4,1,0,80,0,0
73597,-100,4,1,0,80,0,1
105146,-133.333333333333,4,2,0,80,0,0
141343,-133.333333333333,4,3,0,80,0,0
159371,-100,4,1,0,80,0,0
213456,-100,4,3,0,80,0,0
215709,-100,4,1,0,80,0,0
217822,-100,4,1,0,80,0,1
254019,-100,4,3,0,80,0,1
258526,-100,4,1,0,80,0,0

[Colours]
Combo1 : 0,196,0
Combo2 : 3,74,154
Combo3 : 55,185,255
Combo4 : 165,243,1

[HitObjects]
256,192,10076,1,0,0:0:0:0:
356,304,10498,2,0,P|426:285|420:220,1,150
364,140,11202,2,0,P|248:96|164:132,1,200
100,180,12047,1,0,0:0:0:0:
196,200,12329,2,0,P|240:152|180:120,1,150
48,240,13174,6,0,P|64:332|176:336,1,200
252,276,14019,2,0,P|284:232|196:136,1,200
252,276,15005,2,0,P|316:328|388:300,1,150
448,244,15709,6,0,P|516:312|452:356,1,200
352,340,16554,1,0,0:0:0:0:
256,344,16836,1,0,0:0:0:0:
156,232,17259,2,0,P|192:168|288:176,1,150
256,268,17963,2,0,B|388:280|316:176|444:208,1,200
492,124,18808,1,0,0:0:0:0:
400,52,19090,1,0,0:0:0:0:
276,88,19371,1,0,0:0:0:0:
256,188,19653,6,0,B|256:224|280:256|280:256|256:284|256:332,2,150
56,188,21061,1,0,0:0:0:0:
116,268,21343,1,0,0:0:0:0:
216,260,21625,1,0,0:0:0:0:
256,168,21907,6,0,B|256:132|280:100|280:100|256:72|256:24,2,150
344,348,23315,1,0,0:0:0:0:
256,300,23597,1,0,0:0:0:0:
172,352,23878,1,0,0:0:0:0:
256,192,24019,12,0,25850,0:0:0:0:
368,88,26414,6,0,L|240:88,1,99.9999999999999
260,188,26977,2,0,L|420:188,1,150
160,188,28104,1,0,0:0:0:0:
396,284,28667,6,0,B|344:284|308:260|244:296,1,150.000005722046
104,324,29794,2,0,P|48:268|96:196,1,150.000005722046
256,192,30921,2,0,B|256:128|256:128|256:80|196:60,1,150.000005722046
136,40,31766,1,0,0:0:0:0:
76,88,32047,2,0,B|76:164|76:164|76:204|120:244,1,150.000005722046
256,324,33174,5,0,0:0:0:0:
400,192,33738,2,0,P|400:136|296:96,1,150.000005722046
176,80,34864,1,0,0:0:0:0:
76,192,35428,2,4,B|76:244|76:252|76:252|124:256|152:288,2,112.500004291534,4|0|0,0:0|0:0|0:0,0:0:0:0:
376,220,37400,5,0,0:0:0:0:
392,296,37681,2,0,P|336:288|300:208,1,150.000005722046,4|0,0:0|0:0,0:0:0:0:
264,148,38526,1,0,0:0:0:0:
268,72,38808,2,0,P|228:80|192:172,1,150.000005722046
252,316,39935,6,0,B|184:316|184:316|112:264,1,150.000005722046
68,136,41061,2,0,P|108:116|220:152,1,150.000005722046
260,192,41907,1,0,0:0:0:0:
324,232,42188,2,0,P|300:268|208:296,2,112.500004291534,4|0|0,0:0|0:0|0:0,0:0:0:0:
368,144,43315,2,0,P|268:124|252:132,2,112.500004291534
460,176,44442,1,0,0:0:0:0:
256,60,45005,6,0,L|256:216,2,150.000005722046
72,188,46695,6,0,P|96:232|188:260,1,150.000005722046,4|0,0:0|0:0,0:0:0:0:
416,128,47822,2,0,P|392:172|300:200,1,150.000005722046,4|0,0:0|0:0,0:0:0:0:
112,132,48949,2,0,P|136:176|228:204,1,150.000005722046,4|0,0:0|0:0,0:0:0:0:
456,184,50076,2,0,P|432:228|340:256,1,150.000005722046,4|0,0:0|0:0,0:0:0:0:
272,224,50921,1,0,0:0:0:0:
216,176,51202,6,0,P|156:144|88:164,2,112.500004291534,4|0|0,0:0|0:0|0:0,0:0:0:0:
272,224,52329,2,0,P|242:283|182:251,1,150.000005722046,4|0,0:0|0:0,0:0:0:0:
164,96,53456,2,0,P|224:64|244:140,1,150.000005722046,4|0,0:0|0:0,0:0:0:0:
140,224,54583,2,0,P|169:283|229:251,1,150.000005722046,4|0,0:0|0:0,0:0:0:0:
272,188,55428,1,0,0:0:0:0:
320,128,55709,6,0,P|376:104|400:172,1,150.000005722046,4|0,0:0|0:0,0:0:0:0:
272,256,56836,2,0,P|316:328|364:308,1,150.000005722046,4|0,0:0|0:0,0:0:0:0:
416,256,57681,1,0,0:0:0:0:
456,192,57963,2,0,P|348:132|272:264,1,300.000011444092,4|0,0:0|0:0,0:0:0:0:
252,332,59371,6,0,P|180:336|160:296,2,112.500004291534,0|0|4,0:0|0:0|2:0,0:0:0:0:
252,208,60639,1,4,2:0:0:0:
328,124,61061,2,0,P|296:84|204:64,1,150.000005722046,4|4,2:0|0:0,0:0:0:0:
128,68,61907,1,4,0:0:0:0:
88,132,62188,1,4,0:0:0:0:
72,204,62470,6,4,P|144:244|172:240,2,112.500004291534,4|4|4,2:0|2:0|2:0,0:0:0:0:
256,296,63878,2,0,L|256:196,2,75.000002861023
180,308,64723,6,0,P|108:304|116:232,1,150.000005722046,4|0,2:0|0:0,0:0:0:0:
192,120,65850,2,0,P|248:100|296:120,2,112.500004291534
144,176,66977,2,0,P|152:224|256:260,1,150.000005722046
300,228,67822,5,0,0:0:0:0:
364,192,68104,1,0,0:0:0:0:
424,144,68385,2,0,P|340:120|292:160,1,150.000005722046
364,192,69231,5,4,2:0:0:0:
216,192,69653,5,4,2:0:0:0:
288,280,70076,2,0,P|252:324|188:272,1,150.000005722046
216,192,70921,1,0,0:0:0:0:
288,168,71202,1,0,0:0:0:0:
352,208,71484,2,0,P|392:240|416:152,1,150.000005722046
308,104,72611,2,0,P|240:128|216:208,1,150.000005722046
348,264,73597,6,0,P|292:288|212:260,1,150,4|0,2:0|0:0,0:0:0:0:
268,176,74301,2,0,P|204:160|116:188,1,150
256,316,75146,2,0,B|220:328|200:316|200:316|176:332|140:316,2,99.9999999999999
284,220,75991,1,0,0:0:0:0:
108,168,76554,1,0,0:0:0:0:
168,248,76836,2,0,P|244:304|384:176,1,300
392,100,77963,6,0,B|244:44|244:44|180:84|104:80,1,300
108,180,79090,2,0,B|178:183|242:143|242:143|390:199,1,300,0|0,0:0|0:0,0:0:0:0:
400,300,80216,2,0,B|252:244|252:244|188:284|112:280,1,300
152,108,81343,6,0,L|256:108,2,99.9999999999999
104,196,82188,1,0,0:0:0:0:
260,284,82611,2,0,P|208:320|144:264,2,150
216,116,83878,6,0,B|264:136|300:112|300:112|360:128,2,150
120,96,85005,2,0,P|88:152|168:256,2,200
296,192,86695,2,0,P|364:192|368:276,1,150,0|4,0:0|2:0,0:0:0:0:
240,316,87540,2,0,P|176:320|192:208,1,200
252,144,88385,5,0,0:0:0:0:
104,280,88949,5,0,0:0:0:0:
256,192,89371,12,0,91625,0:0:0:0:
324,176,92047,6,0,P|300:224|216:184,1,150
128,168,92752,2,0,P|176:116|252:124,1,150
324,176,93456,2,0,P|364:240|304:272,2,150
88,84,94864,6,0,B|72:140|72:140|84:200,2,99.9999999999999
176,40,95709,1,0,0:0:0:0:
268,76,95991,1,0,0:0:0:0:
248,172,96273,2,0,P|188:224|96:160,1,200
176,40,97259,2,0,P|256:44|312:104,1,150
312,188,97963,2,0,P|288:256|192:228,1,150
392,88,99371,6,0,P|440:108|448:172,1,99.9999999999999
396,232,99935,2,0,P|332:252|276:244,2,99.9999999999999
348,144,100780,2,0,P|304:176|340:308,1,200,4|0,2:0|0:0,0:0:0:0:
428,324,101625,1,0,0:0:0:0:
464,208,101907,2,0,P|420:148|328:152,2,150
256,192,103033,12,4,105146,0:0:0:0:
256,192,118808,12,0,122892,1:0:0:0:
256,196,123315,5,4,0:0:0:0:
404,224,123878,2,0,P|388:264|288:280,1,150.000005722046
240,140,125005,2,0,P|172:152|156:228,1,150.000005722046
180,292,125850,1,0,0:0:0:0:
240,336,126132,2,0,P|288:336|320:316,2,75.000002861023
96,288,127259,1,0,0:0:0:0:
164,152,127822,6,0,P|216:140|256:224,1,150.000005722046
124,280,128949,2,0,P|144:332|232:332,1,150.000005722046
344,240,130076,2,0,P|320:204|252:196,2,112.500004291534
328,312,131202,1,0,0:0:0:0:
252,312,131484,2,0,P|180:296|164:272,2,75.000002861023
328,312,132329,6,0,P|368:248|324:176,1,150.000005722046,4|0,0:0|0:0,0:0:0:0:
240,80,133456,2,0,P|148:88|148:148,1,150.000005722046
216,260,134583,2,0,P|148:272|104:208,1,150.000005722046
120,140,135428,1,0,0:0:0:0:
176,92,135709,2,0,P|228:76|276:120,2,112.500004291534
120,140,136836,2,0,P|108:184|180:256,1,150.000005722046
328,280,137963,6,0,P|268:316|208:292,2,112.500004291534
384,228,139090,2,0,P|372:176|276:168,1,150.000005722046
232,308,140216,1,0,0:0:0:0:
68,192,140780,1,0,0:0:0:0:
252,140,141343,5,0,0:0:0:0:
304,280,141907,2,0,P|256:308|168:284,1,150.000005722046,4|4,0:0|0:0,0:0:0:0:
108,240,142752,1,0,0:0:0:0:
80,172,143033,2,0,P|100:100|164:128,1,150.000005722046,4|4,0:0|0:0,0:0:0:0:
192,260,144160,1,4,0:0:0:0:
332,208,144723,6,4,P|331:244|307:272,2,75.000002861023
292,144,145569,1,0,0:0:0:0:
228,104,145850,2,0,P|180:124|152:184,1,112.500004291534
256,224,146695,2,0,P|220:276|80:232,1,225.000008583069
152,108,148104,1,0,0:0:0:0:
288,48,148667,2,0,P|388:72|432:128,1,150.000005722046
316,212,149794,1,0,0:0:0:0:
112,104,150357,6,0,P|60:160|100:216,1,150.000005722046,4|0,0:0|0:0,0:0:0:0:
240,192,151484,2,0,P|276:220|212:296,1,150.000005722046,4|0,0:0|0:0,0:0:0:0:
164,308,152329,1,0,0:0:0:0:
92,300,152611,2,0,P|52:256|100:188,1,150.000005722046,4|0,0:0|0:0,0:0:0:0:
200,96,153738,5,0,0:0:0:0:
272,120,154019,2,0,P|316:144|328:212,2,112.500004291534,0|0|4,0:0|0:0|2:0,0:0:0:0:
164,92,155287,1,4,2:0:0:0:
96,184,155709,2,0,P|104:256|172:300,1,150.000005722046,4|0,2:0|0:0,0:0:0:0:
236,288,156554,1,12,3:0:0:0:
308,268,156836,1,12,3:0:0:0:
344,204,157118,2,0,P|328:152|244:128,2,112.500004291534,4|4|4,2:0|2:0|2:0,0:0:0:0:
256,312,158526,6,0,P|212:340|136:276,1,150.000005722046
112,216,159371,2,0,P|152:164|284:160,1,200,4|0,2:0|0:0,0:0:0:0:
368,204,160216,1,0,0:0:0:0:
452,256,160498,2,0,P|476:304|408:356,2,150
368,204,161625,2,0,B|308:192|252:184|252:184|196:176|148:240,1,200
116,288,162470,2,0,P|80:332|40:348,2,99.9999999999999
176,208,163315,1,0,0:0:0:0:
120,124,163597,1,0,0:0:0:0:
220,124,163878,6,0,P|336:132|388:164,2,150
152,200,165005,1,0,0:0:0:0:
64,244,165287,1,0,0:0:0:0:
52,152,165569,2,0,P|52:96|80:64,2,99.9999999999999
64,244,166414,2,0,P|168:300|276:244,1,250
324,156,167400,1,0,0:0:0:0:
224,96,167822,2,0,P|172:132|180:216,1,150,0|4,0:0|2:0,0:0:0:0:
392,340,168949,6,0,P|476:288|504:204,2,150
292,320,170076,1,0,0:0:0:0:
216,256,170357,2,0,P|252:204|400:172,1,200
352,264,171202,1,0,0:0:0:0:
452,272,171484,1,0,0:0:0:0:
472,172,171766,2,0,P|464:132|436:76,2,99.9999999999999
328,128,172752,6,0,P|189:103|157:183,1,250
300,228,173878,2,0,P|260:328|128:312,1,250
184,176,175005,2,0,P|176:80|308:48,1,250
328,192,176132,2,0,P|284:200|232:248,2,99.9999999999999
420,148,176977,1,0,0:0:0:0:
444,248,177259,2,0,P|380:288|308:280,1,150
84,84,178526,6,0,P|160:60|256:88,2,150
44,176,179653,2,0,P|92:200|240:172,2,200
164,76,181343,6,0,P|220:96|228:180,1,150
104,260,182188,2,0,P|96:324|140:352,2,99.9999999999999
184,200,183033,2,0,P|240:184|364:252,1,200
236,328,184019,2,0,P|164:352|48:232,1,250
108,56,185287,1,0,0:0:0:0:
284,152,185850,6,0,P|260:216|172:232,1,150
104,112,186695,2,0,P|168:84|276:84,1,150
348,92,187400,2,0,P|396:132|392:224,1,150
348,312,188104,2,0,P|288:280|260:196,1,150
88,124,189512,6,0,P|144:104|196:116,2,99.9999999999999
64,220,190357,1,0,0:0:0:0:
124,300,190639,1,0,0:0:0:0:
224,288,190921,2,0,P|288:272|264:156,1,200
128,200,191907,2,0,P|152:264|232:288,1,150
324,284,192611,2,0,P|404:244|392:184,2,150
156,172,194019,6,0,P|124:162|60:178,2,99.9999999999999
216,252,194864,1,0,0:0:0:0:
300,308,195146,1,0,0:0:0:0:
384,252,195428,2,0,P|420:204|340:100,1,200
256,80,196273,1,0,0:0:0:0:
168,124,196554,2,0,P|124:188|152:252,2,150
216,112,197540,1,0,0:0:0:0:
396,284,198808,6,0,L|292:284,2,99.9999999999999
356,192,199653,1,0,0:0:0:0:
256,192,199935,1,4,2:0:0:0:
256,192,200076,12,0,202188,2:0:0:0:
412,192,213456,6,0,L|304:192,1,99.9999999999999
208,292,214019,2,0,L|308:292,1,99.9999999999999
244,196,214583,2,0,L|140:196,1,99.9999999999999
84,116,215146,2,0,L|184:116,1,99.9999999999999
284,112,215709,6,0,P|344:156|324:224,1,150,4|4,2:0|2:0,0:0:0:0:
220,296,216414,2,0,P|140:272|164:212,1,150,0|0,1:0|0:0,0:0:0:0:
320,88,217400,2,0,P|384:72|420:148,1,150,0|4,0:0|2:0,0:0:0:0:
328,252,218245,6,0,P|248:304|152:244,1,200
136,160,219090,1,0,0:0:0:0:
160,64,219371,2,0,P|232:52|268:80,1,99.9999999999999
320,140,219935,2,0,P|256:172|224:156,1,99.9999999999999
136,160,220498,2,0,P|160:96|276:48,1,200
320,140,221343,1,0,0:0:0:0:
356,232,221625,1,0,0:0:0:0:
300,320,221907,2,0,P|224:304|196:228,1,150,0|4,0:0|2:0,0:0:0:0:
132,108,222752,6,0,L|224:156,1,99.9999999999999
128,192,223315,2,0,L|224:152,1,99.9999999999999
336,96,223878,1,0,0:0:0:0:
436,180,224160,2,0,P|464:228|436:312,1,150,0|4,0:0|2:0,0:0:0:0:
307,234,224864,2,0,P|304:268|304:336,2,99.9999999999999
220,184,225709,2,0,P|284:124|160:108,1,250
352,192,226977,6,4,L|508:192,2,150,4|4|4,2:0|2:0|2:0,2:0:0:0:
160,192,228385,1,4,3:0:0:0:
256,216,228667,1,4,3:0:0:0:
352,192,228949,1,4,3:0:0:0:
292,64,229231,6,4,L|140:64,2,150,4|4|4,2:0|2:0|2:0,0:0:0:0:
440,192,230498,1,0,0:0:0:0:
256,328,230921,1,0,0:0:0:0:
144,264,231202,1,0,0:0:0:0:
60,164,231484,6,0,P|120:132|172:160,2,99.9999999999999,4|0|0,2:0|0:0|0:0,0:0:0:0:
144,264,232329,1,0,0:0:0:0:
272,256,232611,2,0,P|272:212|248:108,2,150
172,264,233738,1,0,0:0:0:0:
92,136,234160,1,0,0:0:0:0:
200,32,234583,1,0,0:0:0:0:
80,320,235850,5,4,2:0:0:0:
80,168,236273,2,0,P|120:128|244:168,1,200
444,156,237400,1,0,0:0:0:0:
372,280,237681,2,0,P|436:296|516:256,2,150
156,192,238949,2,0,P|192:140|272:140,1,150
364,180,239653,1,0,0:0:0:0:
400,292,239935,2,0,P|312:300|248:284,1,150,0|4,0:0|2:0,0:0:0:0:
220,192,240639,6,0,L|108:204,1,99.9999999999999
164,112,241202,2,0,L|276:128,1,99.9999999999999
360,96,241766,2,0,L|420:208,1,99.9999999999999
344,264,242329,2,0,L|296:172,1,99.9999999999999
256,84,242892,2,0,L|140:120,1,99.9999999999999
232,272,243456,2,0,P|168:264|124:216,1,99.9999999999999
160,116,244019,2,0,P|108:128|72:168,1,99.9999999999999
296,328,244864,6,0,P|216:344|120:216,1,250,4|0,2:0|0:0,0:0:0:0:
116,100,245850,2,0,P|204:80|316:104,1,200
388,160,246695,2,0,P|320:188|232:184,1,150,0|4,0:0|2:0,0:0:0:0:
152,220,247400,2,0,P|196:260|284:284,2,150
104,96,248526,2,0,P|176:72|280:72,2,150,0|0|4,0:0|0:0|2:0,0:0:0:0:
72,288,249794,5,0,0:0:0:0:
112,192,250076,2,0,P|152:232|148:332,1,150
368,308,250921,1,0,0:0:0:0:
344,212,251202,2,0,P|300:252|272:360,1,150
140,260,252047,1,0,0:0:0:0:
236,200,252329,2,0,P|276:264|268:344,2,150
164,132,253456,1,0,0:0:0:0:
100,252,254019,6,0,L|256:252,1,150,4|4,0:0|0:0,0:0:0:0:
368,160,254864,2,4,L|212:160,1,150
116,52,255709,2,4,L|228:52,1,99.9999999999999
260,156,256273,2,4,L|332:156,3,50
400,196,256977,1,4,0:0:0:0:
368,292,257259,2,4,P|292:300|244:284,1,99.9999999999999
144,216,257963,1,4,0:0:0:0:
292,184,258385,1,4,2:0:0:0:
256,192,273738,12,0,276414,0:0:0:0:
296,84,276836,5,0,0:0:0:0:
392,172,277118,2,0,P|368:216|260:260,1,150
156,112,277963,1,0,0:0:0:0:
44,176,278245,2,0,P|92:224|184:240,1,150
356,300,279090,2,0,P|288:316|248:304,2,99.9999999999999
448,208,279935,1,0,0:0:0:0:
376,100,280216,1,0,0:0:0:0:
376,100,280498,1,0,0:0:0:0:
148,208,280921,6,0,P|156:260|260:280,1,150,4|0,2:0|0:0,0:0:0:0:
352,256,281625,1,0,0:0:0:0:
336,108,282047,2,0,P|240:96|192:152,1,150,4|0,2:0|0:0,0:0:0:0:
148,212,282752,1,0,0:0:0:0:
268,260,283174,2,0,P|308:220|300:132,1,150,4|0,2:0|0:0,0:0:0:0:
220,72,283878,1,0,0:0:0:0:
148,212,284301,6,0,P|100:264|100:312,3,99.9999999999999
196,308,285428,2,0,P|248:292|276:204,1,150
220,124,286132,2,0,P|276:84|328:96,1,99.9999999999999
380,152,286695,6,0,P|388:220|348:316,2,150
296,96,287822,2,0,B|200:92|136:72|136:72|88:120,2,200
172,252,289512,2,0,P|236:280|320:248,1,150,0|4,0:0|0:0,0:0:0:0:
432,172,290357,2,0,P|356:136|304:144,1,99.9999999999999
260,192,290921,1,0,0:0:0:0:
164,164,291202,2,0,P|216:96|340:64,2,200
128,256,292611,2,0,P|200:288|320:268,1,200
192,112,293738,1,0,0:0:0:0:
128,256,294160,6,0,P|196:256|268:236,1,99.9999999999999,0|4,0:0|2:0,0:0:0:0:
372,216,294864,2,0,P|284:244|216:248,1,150
164,152,295569,2,0,P|216:104|300:128,1,150
396,216,296273,2,0,P|428:288|344:312,1,150
268,224,297118,2,0,P|300:176|284:120,1,99.9999999999999
196,128,297681,6,0,L|172:228,2,99.9999999999999
260,52,298526,1,0,0:0:0:0:
348,104,298808,1,0,0:0:0:0:
396,192,299090,2,0,P|336:224|192:196,1,200
120,84,300076,2,0,P|64:156|88:216,1,150
160,264,300780,2,0,P|232:288|304:252,1,150,0|4,0:0|0:0,0:0:0:0:
408,156,301625,2,0,P|312:140|280:144,1,99.9999999999999
212,132,302188,6,0,L|156:100,2,50
160,220,302752,1,0,0:0:0:0:
244,272,303033,2,0,P|308:296|356:276,2,99.9999999999999
160,220,303878,1,0,0:0:0:0:
112,132,304160,2,0,P|196:120|244:128,1,99.9999999999999
288,188,304723,2,0,B|324:244|324:244|364:252|436:192,1,150
404,116,305428,2,0,L|508:176,1,99.9999999999999
188,124,306977,6,0,L|96:184,1,99.9999999999999
76,276,307540,2,0,P|184:280|244:224,1,150,0|4,0:0|2:0,0:0:0:0:
256,192,308104,12,0,312470,0:0:0:0:
