osu file format v12

[General]
AudioFilename: Asriel - Seiren.mp3
AudioLeadIn: 0
PreviewTime: 10076
Countdown: 0
SampleSet: Normal
StackLeniency: 0.7
Mode: 0
LetterboxInBreaks: 1

[Editor]
Bookmarks: 10498,35127,70408,105690,109371,142943,175408,199915,211676,245831,281112,316183,317102
DistanceSpacing: 0.8
BeatDivisor: 4
GridSize: 4

[Metadata]
Title:Seiren
TitleUnicode:Seiren
Artist:Asriel
ArtistUnicode:Asriel
Creator:Pizza Kun
Version:Battle
Source:Oratorium
Tags:fight Album Oratorium
BeatmapID:249419
BeatmapSetID:87103

[Difficulty]
HPDrainRate:6
CircleSize:4
OverallDifficulty:6
ApproachRate:8
SliderMultiplier:1.6
SliderTickRate:1

[Events]
//Background and Video events
0,0,"BG.jpg",0,0
//Break Periods
2,105346,118332
2,200135,212698
2,258578,272417
2,308155,316360
//Storyboard Layer 0 (Background)
//Storyboard Layer 1 (Fail)
//Storyboard Layer 2 (Pass)
//Storyboard Layer 3 (Foreground)
//Storyboard Sound Samples
//Background Colour Transformations
3,100,0,0,0

[TimingPoints]
491,281.69014084507,4,1,0,80,1,0
10491,-100,4,1,0,80,0,0
24153,-100,4,1,0,45,0,0
24716,-100,4,1,0,65,0,0
25280,-100,4,1,0,70,0,0
25843,-100,4,1,0,80,0,0
27392,-200,4,1,0,80,0,0
28097,-100,4,1,0,80,0,0
28660,-133.333333333333,4,2,0,80,0,0
46688,-133.333333333333,4,3,0,80,0,0
63731,-133.333333333333,4,1,0,45,0,0
64012,-133.333333333333,4,1,0,50,0,0
64153,-133.333333333333,4,1,0,55,0,0
64294,-133.333333333333,4,1,0,65,0,0
64435,-133.333333333333,4,1,0,70,0,0
64576,-100,4,1,0,80,0,0
69224,-133.333333333333,4,1,0,80,0,0
70069,-100,4,1,0,80,0,0
73590,-100,4,1,0,80,0,1
83871,-133.333333333333,4,1,0,80,0,1
84716,-100,4,1,0,80,0,1
85562,-133.333333333333,4,1,0,80,0,1
86970,-100,4,1,0,80,0,1
109646,-100,4,1,0,80,0,0
119083,-100,4,3,0,45,0,0
119646,-100,4,3,0,50,0,0
119928,-100,4,3,0,55,0,0
120209,-100,4,3,0,60,0,0
120491,-100,4,3,0,70,0,0
120773,-100,4,3,0,80,0,0
122040,-200,4,3,0,80,0,0
123308,-133.333333333333,4,2,0,80,0,0
141336,-133.333333333333,4,3,0,80,0,0
158238,-100,4,1,0,80,0,0
166829,-133.333333333333,4,1,0,80,0,0
167252,-100,4,1,0,80,0,0
213449,-133.333333333333,4,3,0,80,0,0
215702,-100,4,2,0,80,0,0
217111,-100,4,1,0,80,0,0
217815,-100,4,1,0,80,0,1
254012,-100,4,3,0,80,0,1
258378,-100,4,1,0,80,0,0
287533,-133.333333333333,4,1,0,80,0,0
289505,-100,4,1,0,70,0,0
327252,-100,4,1,0,60,0,0
328378,-100,4,1,0,50,0,0
329505,-100,4,1,0,30,0,0
330632,-100,4,1,0,20,0,0
331759,-100,4,1,0,10,0,0
332885,-100,4,1,0,5,0,0

[Colours]
Combo1 : 0,196,0
Combo2 : 3,74,154
Combo3 : 55,185,255
Combo4 : 165,243,1

[HitObjects]
256,192,10068,1,0,0:0:0:0:
256,192,10208,1,0,0:0:0:0:
260,352,10490,6,0,P|356:340|380:288,1,160
384,208,10913,2,0,L|384:124,2,80
316,252,11335,2,0,L|228:252,2,80
384,208,11758,2,0,P|444:156|392:84,1,160
256,72,12321,2,0,L|168:72,2,80
336,76,12744,6,0,P|348:128|264:176,1,160,4|0,2:0|0:0,0:0:0:0:
192,152,13166,2,0,L|104:112,2,80
268,176,13589,2,0,B|256:228|256:228|232:260,1,80
184,308,13870,2,0,P|88:264|88:192,1,160
80,140,14293,1,0,0:0:0:0:
112,68,14434,2,0,P|196:52|240:104,1,160
268,176,14856,1,0,0:0:0:0:
216,236,14997,6,0,P|264:296|364:272,1,160,4|0,2:0|0:0,0:0:0:0:
412,256,15420,2,0,L|476:316,2,80
412,96,15983,2,0,L|344:48,2,80
412,256,16547,2,0,L|316:216,1,80
242,273,16828,2,0,L|316:304,2,80
168,244,17251,6,0,P|120:208|100:112,1,160,4|0,2:0|0:0,0:0:0:0:
156,56,17673,2,0,L|212:124,1,80
280,80,17955,2,0,L|220:12,2,80
328,144,18378,2,0,L|256:216,2,80
396,104,18800,2,0,P|444:120|444:164,1,80
420,220,19082,2,0,P|384:260|352:260,1,80
280,264,19364,2,0,P|232:284|188:260,1,80
128,288,19645,6,0,P|72:240|84:152,1,160,4|0,2:0|0:0,0:0:0:0:
148,196,20068,2,0,B|184:136|176:96|176:96|232:84,1,160,4|0,2:0|0:0,0:0:0:0:
252,160,20490,2,0,B|316:168|356:116|356:116|384:172|456:184,1,240,4|0,2:0|0:0,0:0:0:0:
460,264,21054,2,0,L|488:344,2,80
392,308,21476,2,0,L|368:224,2,80
312,324,21899,38,0,P|244:308|208:200,1,160,4|0,2:0|0:0,0:0:0:0:
284,240,22321,2,0,P|304:184|228:112,1,160,4|0,2:0|0:0,0:0:0:0:
220,192,22744,2,0,B|188:240|212:288|212:288|136:304,1,160,4|0,2:0|0:0,0:0:0:0:
80,276,23166,1,0,0:0:0:0:
44,204,23307,2,0,P|40:156|72:124,1,80
124,88,23589,2,0,P|152:48|200:52,1,80
232,108,23871,2,0,P|268:132|312:120,1,80
372,104,24152,6,0,L|416:176,3,80
352,212,24716,2,0,L|310:143,3,80
252,188,25279,2,0,L|293:256,3,80
180,256,25842,2,0,L|129:318,3,80
116,204,26406,2,0,L|72:132,2,80
180,256,26829,2,0,L|152:340,2,80
188,184,27251,1,0,0:0:0:0:
188,112,27392,2,0,P|216:72|368:64,1,200
356,56,28237,1,0,0:0:0:0:
308,164,28659,5,4,0:0:0:0:
136,212,29223,2,0,P|152:272|224:296,1,120.000004577637,4|0,3:0|1:0,0:0:0:0:
308,164,29786,2,0,P|376:204|376:248,1,120.000004577637,0|0,0:0|1:0,0:0:0:0:
308,332,30349,2,0,P|268:352|204:312,1,120.000004577637,0|0,0:0|1:0,0:0:0:0:
160,192,30913,2,0,B|88:192|88:192|32:172,1,120.000004577637,0|0,0:0|1:0,0:0:0:0:
112,76,31476,2,0,B|184:76|212:92|212:92|224:124,1,120.000004577637,0|0,0:0|1:0,0:0:0:0:
236,168,31899,2,0,P|260:200|360:136,1,180.000006866455,0|0,0:0|1:0,0:0:0:0:
348,28,32603,1,0,0:0:0:0:
236,168,32884,1,0,1:0:0:0:
52,172,33166,6,0,P|56:216|124:272,1,120.000004577637,4|0,0:0|1:0,0:0:0:0:
236,168,33730,2,0,P|316:144|360:168,1,120.000004577637,0|0,0:0|1:0,0:0:0:0:
444,220,34293,2,0,P|440:288|280:296,1,240.000009155274
236,168,35420,6,0,L|156:168,2,60.0000022888184,4|0|0,0:0|0:0|0:0,0:0:0:0:
296,168,35842,2,0,P|324:180|256:264,1,180.000006866455,0|0,0:0|1:0,0:0:0:0:
160,232,36546,1,0,0:0:0:0:
156,112,36828,1,0,1:0:0:0:
296,168,37110,2,0,L|368:168,2,60.0000022888184,0|0|0,0:0|0:0|1:0,0:0:0:0:
240,188,37532,1,0,0:0:0:0:
236,248,37673,6,0,P|304:264|336:212,1,120.000004577637,4|0,0:0|1:0,0:0:0:0:
384,124,38237,2,0,P|432:84|480:136,2,120.000004577637,0|0|0,0:0|1:0|0:0,0:0:0:0:
236,248,39082,1,0,1:0:0:0:
124,124,39363,2,0,P|88:128|52:156,2,60.0000022888184,0|0|0,0:0|0:0|1:0,0:0:0:0:
184,128,39786,1,0,0:0:0:0:
232,164,39927,2,0,P|252:200|184:244,1,120.000004577637,4|0,0:0|1:0,0:0:0:0:
124,124,40490,2,0,P|144:88|232:80,1,120.000004577637,0|0,0:0|1:0,0:0:0:0:
324,108,40913,2,0,P|300:148|232:164,1,120.000004577637
232,164,41335,1,0,1:0:0:0:
168,280,41617,2,0,P|228:296|280:260,1,120.000004577637,0|0,0:0|1:0,0:0:0:0:
324,108,42180,6,0,P|248:132|232:168,1,120.000004577637,4|0,0:0|1:0,0:0:0:0:
308,184,42603,2,0,P|264:232|200:232,1,120.000004577637,4|0,0:0|1:0,0:0:0:0:
212,236,43025,1,0,1:0:0:0:
144,96,43307,2,0,P|104:136|136:188,1,120.000004577637,0|0,0:0|1:0,0:0:0:0:
204,264,43870,2,0,L|264:236,2,60.0000022888184,0|0|0,0:0|0:0|1:0,0:0:0:0:
144,296,44293,1,0,0:0:0:0:
88,328,44434,2,0,P|56:324|72:244,1,120.000004577637,0|0,0:0|1:0,0:0:0:0:
276,68,44997,6,0,P|324:44|520:84,2,240.000009155274
112,176,46687,6,0,P|108:232|172:236,1,120.000004577637,4|0,0:0|0:0,0:0:0:0:
224,156,47251,2,0,P|288:160|280:224,1,120.000004577637,4|0,0:0|0:0,0:0:0:0:
240,276,47814,2,0,P|172:284|176:224,1,120.000004577637,4|0,0:0|0:0,0:0:0:0:
220,156,48377,1,4,0:0:0:0:
156,68,48659,1,4,0:0:0:0:
76,136,48941,6,0,P|60:192|104:224,1,120.000004577637,4|0,0:0|0:0,0:0:0:0:
212,244,49504,2,0,P|240:272|192:324,1,120.000004577637,4|0,0:0|0:0,0:0:0:0:
124,244,50068,2,0,P|52:242|40:278,1,120.000004577637,4|8,0:0|0:0,0:0:0:0:
140,328,50631,1,8,0:0:0:0:
212,244,50913,1,0,0:0:0:0:
288,168,51194,6,0,P|348:156|376:204,1,120.000004577637,4|0,2:0|0:0,0:0:0:0:
364,252,51617,2,0,P|384:296|460:288,1,120.000004577637
480,256,52039,2,0,P|496:144|392:96,1,240.000009155274
288,112,52884,1,4,0:0:0:0:
208,184,53166,1,4,0:0:0:0:
172,288,53448,6,0,P|188:344|248:324,1,120.000004577637,4|0,0:0|0:0,0:0:0:0:
272,232,54011,2,0,P|324:204|388:252,1,120.000004577637,4|0,0:0|0:0,0:0:0:0:
380,336,54575,2,0,P|436:364|492:332,1,120.000004577637,4|0,0:0|0:0,0:0:0:0:
508,236,55138,1,4,0:0:0:0:
436,156,55420,1,4,0:0:0:0:
344,104,55701,6,0,P|304:152|344:192,1,120.000004577637,4|0,0:0|0:0,0:0:0:0:
408,248,56265,2,0,P|428:284|380:336,1,120.000004577637,4|0,0:0|0:0,0:0:0:0:
328,344,56687,1,0,0:0:0:0:
276,332,56828,2,0,P|216:320|208:252,1,120.000004577637
204,160,57392,1,0,0:0:0:0:
116,100,57673,1,0,0:0:0:0:
44,184,57955,5,0,0:0:0:0:
132,248,58237,1,0,0:0:0:0:
224,304,58518,2,0,P|292:296|320:248,1,120.000004577637
312,148,59082,1,0,0:0:0:0:
204,160,59363,2,0,P|172:208|232:308,2,180.000006866455,0|0|4,1:0|1:0|2:0,0:0:0:0:
364,124,60631,1,4,2:0:0:0:
396,284,61053,2,0,P|296:332|236:224,1,240.000009155274,4|0,2:0|0:0,0:0:0:0:
256,136,61899,1,4,0:0:0:0:
364,124,62180,1,4,0:0:0:0:
456,196,62462,6,4,P|476:272|396:284,2,180.000006866455,4|4|4,2:0|2:0|2:0,0:0:0:0:
256,136,63870,1,0,0:0:0:0:
228,240,64152,1,0,0:0:0:0:
336,236,64434,1,0,0:0:0:0:
312,336,64716,6,0,P|264:352|152:328,1,160
88,320,65138,2,0,P|100:272|200:256,1,160
196,253,65561,1,0,0:0:0:0:
336,236,65842,2,0,P|440:240|380:328,2,240
160,332,66969,6,0,B|108:332|108:332|72:308,2,80
228,304,67392,2,0,P|272:288|328:184,1,160
327,194,67814,1,0,0:0:0:0:
184,192,68096,1,0,0:0:0:0:
327,194,68377,1,0,0:0:0:0:
184,192,68659,1,0,0:0:0:0:
327,194,68941,1,0,0:0:0:0:
276,100,69223,6,0,P|332:84|432:104,1,160,4|0,0:2|0:0,0:0:0:0:
327,194,69645,2,0,P|384:212|448:184,1,120.000004577637,4|0,0:2|0:0,0:0:0:0:
504,20,70349,1,0,0:0:0:0:
276,100,70631,1,0,0:0:0:0:
152,172,70913,2,0,L|144:216,6,40
152,100,71476,6,0,B|128:64|128:64|80:64,2,80
248,264,72039,1,0,0:0:0:0:
248,264,72180,2,0,B|288:336|288:336|388:328,2,160
228,120,73026,2,0,L|308:120,1,80
308,120,73307,1,0,0:0:0:0:
320,264,73589,6,0,P|260:360|132:336,1,240,4|0,2:0|0:0,0:0:0:0:
104,204,74293,2,0,B|80:172|80:172|32:168,2,80
136,268,74716,2,0,P|208:296|276:240,1,160
220,200,75138,2,0,P|292:180|344:244,1,160
324,308,75561,1,0,0:0:0:0:
292,372,75702,2,0,L|216:328,1,80
76,172,76124,5,0,0:0:0:0:
76,172,76265,2,0,P|56:132|140:104,1,160
256,192,76828,1,0,0:0:0:0:
256,192,76969,2,0,L|340:192,2,80
184,192,77392,2,0,L|236:120,1,80
488,56,77955,1,0,0:0:0:0:
496,128,78096,6,0,P|480:196|400:240,1,160,4|0,2:0|0:0,0:0:0:0:
406,239,78518,1,0,0:0:0:0:
268,284,78800,2,0,P|208:296|144:228,1,160
144,230,79223,1,4,2:0:0:0:
184,56,79505,1,0,0:0:0:0:
184,56,79645,2,0,P|244:36|328:76,1,160
400,184,80209,1,0,0:0:0:0:
400,184,80349,2,0,B|448:252|380:340,1,160,4|0,2:0|0:0,0:0:0:0:
386,331,80772,1,0,0:0:0:0:
232,328,81053,1,0,0:0:0:0:
132,224,81335,6,0,L|216:224,1,80
104,128,81758,1,0,0:0:0:0:
276,88,82040,2,0,P|328:108|312:208,1,160
200,272,82603,2,0,P|208:336|304:328,1,160,4|0,2:0|0:0,0:0:0:0:
290,343,83025,1,0,0:0:0:0:
120,100,83871,6,0,B|180:100|204:64|204:64|228:100|284:100,2,180.000006866455
12,192,84997,2,0,P|8:264|92:296,1,160
212,240,85561,2,0,L|352:152,1,160
376,52,86124,2,0,P|424:52|432:132,1,120.000004577637
428,220,86687,6,0,P|388:248|308:228,1,120.000004577637
352,172,87110,2,0,P|272:172|236:248,1,160,4|0,2:0|0:0,0:0:0:0:
236,236,87532,1,0,0:0:0:0:
96,256,87814,2,0,P|68:200|128:128,1,160
121,129,88237,1,0,0:0:0:0:
256,192,88377,12,0,90913,2:0:0:0:
208,84,91194,6,0,L|136:136,2,80
272,48,91617,2,0,P|336:40|344:136,1,160
359,118,92039,1,0,0:0:0:0:
216,280,92462,2,0,L|300:280,1,80
356,240,92744,2,0,P|256:188|148:248,1,240
52,348,93448,2,0,P|-8:328|8:240,1,160
64,280,93870,2,0,P|100:256|104:144,1,160,4|0,0:2|0:0,0:0:0:0:
107,148,94293,1,0,0:0:0:0:
384,64,94856,6,0,L|304:64,2,80
388,208,95420,2,0,L|304:208,2,80
232,204,95983,1,0,0:0:0:0:
140,100,96265,2,0,P|220:72|300:104,1,160,4|0,2:0|0:0,0:0:0:0:
384,204,96828,2,0,P|300:224|232:204,1,160
156,144,97251,6,0,P|224:124|308:144,1,160,4|0,2:0|0:0,0:0:0:0:
312,144,97673,1,0,0:0:0:0:
484,56,97955,2,0,P|432:28|316:56,1,160
336,40,98377,1,0,0:0:0:0:
256,240,98659,2,0,L|244:324,2,80
100,60,99363,6,0,L|24:88,2,80
240,20,99927,2,0,P|296:20|292:104,1,160
176,192,100490,1,0,0:0:0:0:
276,296,100772,2,0,P|256:340|152:324,1,160,4|0,2:0|0:0,0:0:0:0:
84,208,101335,2,0,B|60:168|60:168|20:168,2,80
188,284,101899,2,0,P|172:224|80:212,1,160
96,136,102321,2,0,P|140:108|256:136,1,160
304,164,102744,6,0,L|260:240,1,80
72,192,104152,2,0,P|84:240|184:256,1,160,0|0,0:0|0:0,0:0:0:0:
304,164,104716,2,0,P|380:180|384:256,1,160
386,251,105138,1,4,2:0:0:0:
256,192,119082,12,4,123307,0:0:0:0:
392,256,123870,6,0,B|344:284|276:248|276:248,1,120.000004577637
168,156,124434,2,0,P|220:172|288:160,1,120.000004577637
344,80,124997,2,0,B|348:32|432:84|468:40,1,120.000004577637,0|0,0:0|1:0,0:0:0:0:
484,156,125561,2,0,P|424:180|372:164,2,120.000004577637,0|0|0,0:0|1:0|0:0,0:0:0:0:
444,256,126406,1,0,1:0:0:0:
444,256,126547,2,0,P|452:328|416:376,1,120.000004577637
428,364,126969,1,0,1:0:0:0:
348,288,127251,1,0,0:0:0:0:
248,324,127532,1,0,1:0:0:0:
248,324,127673,6,0,B|188:352|136:300|136:300,1,120.000004577637,4|0,0:0|0:0,0:0:0:0:
140,300,128096,1,0,1:0:0:0:
60,196,128378,2,0,P|112:172|184:192,1,120.000004577637,0|0,0:0|1:0,0:0:0:0:
140,300,128941,2,0,P|188:316|252:292,1,120.000004577637
304,160,129504,2,0,P|356:212|352:276,1,120.000004577637,0|0,0:0|1:0,0:0:0:0:
252,348,130068,6,0,L|128:348,1,120.000004577637,4|0,0:0|1:0,0:0:0:0:
64,276,130490,2,0,L|192:276,1,120.000004577637,4|0,0:0|1:0,0:0:0:0:
172,200,130913,2,0,P|128:172|172:128,1,120.000004577637,4|0,0:0|0:0,0:0:0:0:
272,64,131476,1,0,1:0:0:0:
380,116,131758,1,0,0:0:0:0:
476,64,132039,2,0,L|512:12,2,60.0000022888184,0|0|4,1:0|0:0|0:2,0:0:0:0:
380,116,132603,6,0,L|352:172,2,60.0000022888184,0|0|0,1:0|0:0|0:0,0:0:0:0:
476,164,133166,2,0,B|448:200|500:256|448:296,1,120.000004577637,0|0,1:0|0:0,0:0:0:0:
364,324,133730,1,0,1:0:0:0:
320,228,134011,2,0,P|288:256|272:288,2,60.0000022888184,0|0|0,0:0|0:0|1:0,0:0:0:0:
416,192,134575,2,0,P|416:148|344:124,1,120.000004577637,0|0,0:0|1:0,0:0:0:0:
248,152,135138,2,0,L|196:108,2,60.0000022888184,0|0|0,1:0|0:0|0:0,0:0:0:0:
256,204,135561,2,0,P|248:240|176:256,1,120.000004577637,0|0,1:0|0:0,0:0:0:0:
175,255,135983,1,0,1:0:0:0:
152,148,136265,6,0,P|96:156|64:212,1,120.000004577637,0|0,1:0|0:0,0:0:0:0:
132,212,136687,2,0,L|60:116,1,120.000004577637,4|0,0:0|0:0,0:0:0:0:
59,116,137110,1,0,1:0:0:0:
148,56,137392,2,0,L|108:0,2,60.0000022888184,0|0|0,0:0|0:0|1:0,0:0:0:0:
256,192,137814,12,0,139645,0:0:0:0:
256,192,140208,5,0,0:0:0:0:
256,192,140772,1,0,0:0:0:0:
456,276,141335,6,0,B|432:312|432:312|356:312,1,120.000004577637,4|0,0:0|0:0,0:0:0:0:
300,256,141899,2,0,B|364:256|364:256|400:208,1,120.000004577637,4|0,0:0|0:0,0:0:0:0:
468,208,142321,2,0,P|416:144|336:176,1,180.000006866455
300,312,143025,1,4,0:0:0:0:
136,316,143307,1,4,0:0:0:0:
300,312,143589,6,0,B|300:248|300:248|244:216,1,120.000004577637,4|0,0:0|0:0,0:0:0:0:
180,248,144152,2,0,B|248:248|248:248|288:192,1,120.000004577637,4|0,0:0|0:0,0:0:0:0:
252,76,144716,2,0,L|128:76,1,120.000004577637,4|0,0:0|0:0,0:0:0:0:
76,156,145279,1,8,0:0:0:0:
196,160,145561,2,0,B|248:160|248:160|308:160|308:232,2,150.000005722046
72,312,146687,2,0,B|104:252|240:376|312:308,1,240.000009155274
404,240,147532,1,0,0:0:0:0:
272,240,147814,1,0,0:0:0:0:
348,100,148096,6,0,P|392:80|456:108,1,120.000004577637,4|0,0:0|0:0,0:0:0:0:
348,208,148659,2,0,P|392:228|456:200,1,120.000004577637,4|0,0:0|0:0,0:0:0:0:
464,64,149223,2,0,P|424:48|352:88,1,120.000004577637,4|0,0:0|0:0,0:0:0:0:
284,188,149786,1,4,0:0:0:0:
216,300,150068,1,4,0:0:0:0:
92,348,150349,6,0,B|32:348|32:348|8:276,1,120.000004577637,4|0,0:0|0:0,0:0:0:0:
24,136,150913,2,0,B|72:168|72:168|88:228,1,120.000004577637,4|0,0:0|0:0,0:0:0:0:
196,244,151476,2,0,B|180:172|180:172|192:124,1,120.000004577637,4|0,0:0|0:0,0:0:0:0:
256,28,152039,1,4,0:0:0:0:
256,160,152321,1,4,0:0:0:0:
256,292,152603,6,0,B|316:292|316:292|368:256,1,120.000004577637,4|0,0:0|0:0,0:0:0:0:
500,256,153166,2,0,L|404:340,1,120.000004577637,4|0,0:0|0:0,0:0:0:0:
336,376,153589,1,0,0:0:0:0:
336,376,153730,1,4,0:0:0:0:
256,232,154011,2,0,L|256:44,2,180.000006866455,0|0|4,0:0|0:0|0:2,0:0:0:0:
256,232,155279,1,4,0:2:0:0:
256,232,155701,2,0,P|164:296|76:224,1,240.000009155274,4|8,0:2|0:0,0:0:0:0:
88,96,156546,1,8,0:0:0:0:
204,32,156828,1,4,0:0:0:0:
316,104,157110,6,0,P|368:144|468:100,2,180.000006866455,0|0|4,0:0|0:0|0:0,0:0:0:0:
28,304,158518,1,0,0:0:0:0:
176,204,158800,1,0,0:0:0:0:
320,308,159082,1,0,0:0:0:0:
480,240,159363,6,0,P|472:184|380:156,1,160,4|0,2:0|0:0,0:0:0:0:
364,240,159786,2,0,P|316:228|300:120,1,160
292,131,160208,1,0,0:0:0:0:
120,100,160490,2,0,P|56:172|128:280,2,240
228,212,161617,2,0,P|216:268|120:276,1,160
125,280,162039,1,0,0:0:0:0:
120,100,162321,1,0,0:0:0:0:
120,100,162462,2,0,P|192:80|280:100,1,160
452,100,163025,5,0,0:0:0:0:
272,96,163307,1,0,0:0:0:0:
452,100,163589,1,0,0:0:0:0:
304,196,163870,2,0,B|360:216|372:260|372:260|436:240,1,160,4|0,0:2|0:0,0:0:0:0:
408,156,164293,2,0,B|356:116|304:108|304:108|280:64,1,160,4|0,0:2|0:0,0:0:0:0:
282,69,164715,1,0,0:0:0:0:
282,69,164856,1,0,0:0:0:0:
44,180,165279,1,0,0:0:0:0:
188,176,165561,6,0,L|212:220,6,40
200,104,166124,2,0,L|112:72,1,80
200,16,166406,2,0,L|276:48,1,80
292,116,166688,1,0,0:0:0:0:
296,188,166829,2,0,P|312:244|376:272,1,120.000004577637
452,60,167392,1,0,0:0:0:0:
292,116,167673,2,0,L|204:116,2,80
452,192,168237,6,0,P|432:252|344:284,1,160,4|0,0:2|0:0,0:0:0:0:
346,284,168659,1,0,0:0:0:0:
172,280,168941,2,0,P|220:216|304:208,1,160
260,284,169363,2,0,P|220:248|196:144,1,160
276,116,169786,2,0,P|228:72|136:92,1,160
60,244,170349,1,0,0:0:0:0:
60,244,170490,2,0,P|108:268|212:248,1,160
209,249,170913,5,0,0:0:0:0:
384,248,171194,1,0,0:0:0:0:
460,88,171476,2,0,L|368:88,1,80
236,88,171899,1,0,0:0:0:0:
236,88,172181,1,0,0:0:0:0:
384,248,172603,1,0,0:0:0:0:
280,320,172744,6,0,L|280:160,1,160,4|0,2:0|0:0,0:0:0:0:
280,160,173166,1,0,0:0:0:0:
116,96,173448,2,0,L|116:264,1,160
116,256,173870,1,4,0:2:0:0:
280,160,174152,1,0,0:0:0:0:
280,160,174293,2,0,L|464:160,1,160
420,336,174856,1,0,0:0:0:0:
420,336,174997,2,0,L|256:336,1,160,4|0,0:2|0:0,0:0:0:0:
260,336,175420,1,0,0:0:0:0:
260,336,175701,5,0,0:0:0:0:
84,336,175983,2,0,L|188:336,1,80
236,232,176406,1,0,0:0:0:0:
84,140,176688,1,0,0:0:0:0:
216,84,176969,1,0,0:0:0:0:
260,248,177251,6,0,P|328:292|380:248,1,160,4|0,0:2|0:0,0:0:0:0:
380,247,177673,1,0,0:0:0:0:
260,80,177955,2,0,L|320:24,2,80
88,96,178518,2,0,P|76:156|136:232,1,160
160,148,178941,2,0,B|220:184|212:248|212:248|260:256,1,160
244,344,179363,2,0,P|308:328|344:240,1,160
420,88,179927,2,0,B|376:128|456:168|408:256,1,160
244,344,180490,1,0,0:0:0:0:
88,260,180772,2,0,B|64:220|76:172|76:172|48:104,1,160
220,60,181335,6,0,B|244:120|244:120|308:168|308:224,1,160
228,240,181758,2,0,P|320:280|380:232,1,160,4|0,0:2|0:0,0:0:0:0:
365,254,182180,1,0,0:0:0:0:
440,96,182462,2,0,B|376:48|332:156|272:104,1,160
256,192,183025,12,0,185561,0:0:0:0:
256,136,185983,6,0,L|256:56,1,80
344,40,186265,2,0,B|344:164|344:164|344:208|328:216,1,160,4|0,0:2|0:0,0:0:0:0:
339,199,186687,1,0,0:0:0:0:
104,320,187110,2,0,L|200:320,1,80
64,240,187392,2,0,L|-20:240,1,80
104,148,187673,2,0,L|184:148,2,80
16,148,188096,2,0,P|24:104|128:56,1,160
104,148,188518,6,0,P|124:192|228:204,1,160,4|0,0:2|0:0,0:0:0:0:
225,205,188941,1,0,0:0:0:0:
480,48,189504,2,0,L|480:132,1,80
396,104,189786,2,0,L|396:24,1,80
312,52,190068,2,0,L|312:132,1,80
372,196,190349,2,0,P|340:216|288:220,1,80
256,300,190631,2,0,P|304:336|340:336,1,80
412,344,190913,6,0,P|472:328|460:236,1,160,4|0,0:2|0:0,0:0:0:0:
296,204,191476,2,0,B|240:168|184:228|136:192,1,160
164,108,191899,2,0,P|84:124|52:192,1,160,4|0,2:0|0:0,0:0:0:0:
52,189,192321,1,0,0:0:0:0:
168,324,192603,2,0,P|224:296|312:332,1,160
309,329,193025,1,0,0:0:0:0:
420,192,193307,2,0,L|504:192,2,80
180,80,194011,6,0,L|92:80,1,80
32,24,194293,2,0,P|8:84|56:160,1,160
180,80,194856,2,0,P|204:120|168:220,1,160
4,280,195420,2,0,P|44:340|128:336,1,160
180,292,195842,1,0,0:0:0:0:
232,244,195983,2,0,P|276:224|364:276,1,160
436,152,196547,2,0,L|264:152,1,160
276,80,196969,2,0,L|436:80,1,160
436,80,197392,1,0,0:0:0:0:
436,80,197532,1,0,0:0:0:0:
256,200,197955,5,0,0:0:0:0:
256,200,198237,1,0,0:0:0:0:
256,200,198518,1,0,0:0:0:0:
112,192,198800,2,0,B|120:252|144:272|144:272|76:308,1,160
32,168,199363,2,0,B|48:124|48:88|48:88|132:88,1,160
256,200,199927,1,4,2:2:0:0:
256,192,213448,5,4,0:0:0:0:
364,192,213730,2,0,L|364:312,1,120.000004577637
256,192,214293,2,0,L|256:312,1,120.000004577637
148,196,214857,2,0,L|148:328,1,120.000004577637
256,192,215420,1,0,0:0:0:0:
256,48,215702,1,4,0:0:0:0:
388,104,215983,1,0,0:0:0:0:
388,104,216124,2,0,B|336:160|436:160|376:256,2,160,4|4|4,0:0|0:0|0:0,0:0:0:0:
60,192,217392,2,0,L|24:216,2,40
60,192,217674,1,0,0:0:0:0:
124,160,217814,6,0,P|172:136|256:192,1,160,4|0,0:2|0:0,0:0:0:0:
254,187,218237,1,0,0:0:0:0:
244,260,218378,2,0,L|316:304,2,80
176,288,218800,2,0,P|144:248|188:160,1,160
252,132,219223,1,0,0:0:0:0:
320,156,219364,2,0,P|352:216|440:212,1,160
484,160,219786,1,0,0:0:0:0:
412,148,219927,1,0,0:0:0:0:
364,96,220068,2,0,P|392:48|480:96,1,160
476,77,220490,1,0,0:0:0:0:
384,264,220772,5,0,0:0:0:0:
124,272,221054,1,0,0:0:0:0:
256,96,221336,2,0,L|256:260,1,160
256,256,221899,2,0,L|256:340,1,80
256,336,222181,1,0,0:0:0:0:
256,256,222321,6,0,L|424:256,1,160
392,188,222744,2,0,L|300:188,1,80
324,116,223026,2,0,L|244:116,1,80
248,44,223307,2,0,L|168:44,1,80
96,44,223589,1,0,0:0:0:0:
256,192,223871,1,0,0:0:0:0:
396,312,224152,6,0,L|464:364,2,80
336,272,224575,2,0,B|296:248|264:276|264:276|168:256,1,160,4|0,0:2|0:0,0:0:0:0:
116,232,224998,1,0,0:0:0:0:
60,188,225138,2,0,B|40:152|88:124|88:124|72:80|72:80|128:52,1,160,4|0,0:2|0:0,0:0:0:0:
168,36,225561,1,0,0:0:0:0:
192,104,225702,2,0,P|236:140|328:100,1,160,4|0,0:2|0:0,0:0:0:0:
364,44,226124,1,0,0:0:0:0:
436,28,226265,2,0,P|460:96|372:240,1,240,4|0,0:2|0:0,0:0:0:0:
72,108,226969,6,0,B|44:152|84:196|84:196|40:232|40:232|96:304,2,240,4|4|4,0:2|0:2|0:2,0:0:0:0:
204,52,228096,6,0,L|204:124|204:144,1,80
204,204,228378,2,0,L|204:296,1,80
272,260,228660,2,0,L|272:352,1,80
340,312,228941,2,0,L|340:392,1,80
448,312,229223,6,0,B|404:248|452:228|452:228|388:192|388:192|432:132,2,240,4|4|4,0:2|0:2|0:2,0:0:0:0:
260,112,230490,2,0,L|208:176,1,80
348,220,230913,1,0,0:0:0:0:
212,176,231195,1,0,0:0:0:0:
208,324,231476,6,0,P|164:324|72:244,1,160
308,300,232040,2,0,P|352:300|444:220,1,160
188,224,232603,2,0,P|144:224|52:144,1,160
320,180,233167,2,0,P|364:180|456:100,1,160
256,36,233730,1,0,0:0:0:0:
256,300,234152,1,0,0:0:0:0:
256,36,234575,2,0,L|256:120,1,80
256,300,234998,6,0,L|256:384,2,80
256,228,235420,2,0,B|256:168|256:168|256:100|188:88,1,160
176,168,235843,2,0,L|340:168,1,160,4|0,0:2|0:0,0:0:0:0:
336,168,236265,1,0,0:0:0:0:
480,168,236547,1,0,0:0:0:0:
336,168,236829,1,0,0:0:0:0:
176,168,237110,1,0,0:0:0:0:
176,168,237251,2,0,P|140:224|196:288,1,160
244,220,237674,2,0,P|276:248|232:356,1,160
208,284,238096,6,0,L|368:284,1,160,4|0,2:0|0:0,0:0:0:0:
368,284,238519,1,0,0:0:0:0:
256,100,238941,2,0,L|96:100,1,160
96,100,239364,1,0,0:0:0:0:
260,284,239786,2,0,L|424:284,1,160
420,284,240209,1,0,0:0:0:0:
472,236,240350,6,0,P|436:192|336:168,1,160,4|0,0:2|0:0,0:0:0:0:
272,188,240772,1,0,0:0:0:0:
292,120,240913,2,0,P|348:104|384:196,1,160
356,244,241336,1,0,0:0:0:0:
304,292,241476,2,0,P|240:324|152:296,1,160
104,252,241899,1,0,0:0:0:0:
168,216,242040,2,0,P|176:160|92:112,1,160
28,136,242462,1,0,0:0:0:0:
96,112,242603,6,0,L|248:64,1,160,4|0,0:2|0:0,0:0:0:0:
316,40,243026,1,0,0:0:0:0:
320,112,243167,2,0,B|320:196|320:196|356:160|400:208,1,160
360,260,243589,1,0,0:0:0:0:
296,288,243730,2,0,P|348:336|420:292,1,160
456,236,244152,1,0,0:0:0:0:
484,168,244293,1,0,0:0:0:0:
40,112,244857,6,0,L|200:112,1,160,4|0,0:2|0:0,0:0:0:0:
272,108,245279,1,0,0:0:0:0:
268,180,245420,2,0,P|232:216|188:216,2,80
332,148,245843,1,0,0:0:0:0:
356,216,245983,2,0,P|328:268|224:304,1,160
164,300,246406,1,0,0:0:0:0:
100,268,246547,2,0,L|32:316,2,80
92,196,246969,1,0,0:0:0:0:
88,124,247110,6,0,B|88:76|88:76|88:44|140:32|140:32|176:72,1,160,4|0,0:2|0:0,0:0:0:0:
212,116,247533,1,0,0:0:0:0:
244,180,247674,2,0,L|324:200,2,80
188,224,248096,1,0,0:0:0:0:
116,212,248237,2,0,P|88:172|168:112,1,160
220,140,248660,1,0,0:0:0:0:
248,204,248800,1,0,0:0:0:0:
320,216,248941,2,0,L|296:292,2,80
372,168,249364,6,0,P|424:148|480:220,1,160,4|0,0:2|0:0,0:0:0:0:
479,220,249786,1,0,0:0:0:0:
252,344,250068,2,0,P|184:336|168:248,1,160
216,204,250490,2,0,P|232:160|140:112,1,160,4|0,0:2|0:0,0:0:0:0:
151,106,250913,1,0,0:0:0:0:
380,332,251195,2,0,B|340:296|356:228|356:228|408:216,1,160
452,272,251617,2,0,P|476:224|420:144,1,160,4|0,2:0|0:0,0:0:0:0:
421,144,252040,1,0,0:0:0:0:
421,144,252181,1,0,0:0:0:0:
352,124,252321,2,0,L|304:196,2,80
304,68,252744,6,0,P|124:68|144:260,1,400
128,248,253730,1,0,0:0:0:0:
336,192,254012,6,0,L|428:192,2,80,4|0|0,0:0|0:0|0:0,0:0:0:0:
204,192,254434,2,0,L|116:192,2,80,4|0|0,0:0|0:0|0:0,0:0:0:0:
272,264,254857,2,0,L|272:344,2,80,4|0|0,0:0|0:0|0:0,0:0:0:0:
272,128,255279,2,0,L|272:48,2,80,4|0|0,0:3|0:0|0:0,0:0:0:0:
272,200,255702,1,4,0:0:0:0:
272,200,255983,1,4,0:0:0:0:
128,216,256265,2,0,L|128:296,2,80,4|0|0,0:2|0:0|0:0,0:0:0:0:
60,188,256688,2,0,P|96:148|192:180,1,160,4|0,0:2|0:0,0:0:0:0:
296,268,257251,2,0,P|344:308|420:260,1,160,4|0,0:2|0:0,0:0:0:0:
424,120,257814,2,0,L|424:32,2,80
420,264,258378,1,4,2:0:0:0:
256,192,273167,5,0,0:0:0:0:
256,192,273730,2,0,P|304:176|340:200,1,80
376,240,274012,2,0,P|404:272|392:312,1,80
336,344,274293,2,0,P|284:344|256:252,1,160
152,152,274857,2,0,P|180:200|128:284,1,160
68,316,275279,2,0,P|40:264|88:180,1,160
220,128,275843,2,0,L|212:48,2,80
284,160,276265,1,0,0:0:0:0:
352,184,276406,6,0,P|444:168|444:80,1,160,4|0,0:2|0:0,0:0:0:0:
458,113,276829,1,0,0:0:0:0:
352,184,277110,2,0,B|288:144|288:232|200:192,1,160
216,120,277533,2,0,P|156:136|140:232,1,160
135,223,277955,1,0,0:0:0:0:
256,304,278237,1,0,0:0:0:0:
400,316,278519,1,0,0:0:0:0:
400,316,278660,6,0,P|468:296|480:212,1,160,4|0,0:2|0:0,0:0:0:0:
481,216,279082,1,0,0:0:0:0:
348,164,279364,1,0,0:0:0:0:
436,52,279645,1,0,0:0:0:0:
436,52,279786,2,0,P|348:40|276:56,2,160
208,288,280772,1,0,0:0:0:0:
208,288,280913,6,0,P|116:264|100:204,1,160,4|0,0:2|0:0,0:0:0:0:
99,209,281336,1,0,0:0:0:0:
220,132,281617,2,0,P|264:172|360:156,1,160
320,96,282040,2,0,P|392:88|432:164,1,160,4|0,0:2|0:0,0:0:0:0:
432,155,282462,1,0,0:0:0:0:
260,340,282744,1,0,0:0:0:0:
88,268,283026,1,0,0:0:0:0:
88,268,283167,6,0,B|32:212|136:208|136:208|140:160,1,160,4|0,0:2|0:0,0:0:0:0:
139,165,283589,1,0,0:0:0:0:
196,36,283871,1,0,0:0:0:0:
308,128,284152,1,0,0:0:0:0:
308,128,284293,2,0,L|192:240,1,160
332,284,284857,2,0,L|448:168,1,160
388,36,285420,6,0,P|328:72|312:156,1,160,4|0,0:2|0:0,0:0:0:0:
311,155,285843,1,0,0:0:0:0:
256,288,286688,2,0,B|196:328|148:260|92:320,1,160
96,232,287110,2,0,B|141:182|189:250|249:210,1,160
246,211,287533,1,0,0:0:0:0:
180,128,287814,2,0,P|108:56|36:144,2,240.000009155274
224,228,289223,1,0,0:0:0:0:
336,316,289505,2,0,P|404:336|464:272,1,160
392,264,289927,6,0,L|332:112,1,160,4|0,0:2|0:0,0:0:0:0:
333,115,290350,1,0,0:0:0:0:
188,116,290631,2,0,L|100:252,1,160
101,250,291054,1,0,0:0:0:0:
256,192,291195,12,0,294434,0:0:0:0:
392,96,294857,6,0,P|428:148|392:232,1,160
332,192,295279,2,0,B|304:220|340:316|340:316|300:336,1,160
96,324,295983,2,0,L|96:160,1,160
212,80,296547,1,0,0:0:0:0:
212,80,296688,2,0,P|216:128|328:120,1,160,4|0,0:2|0:0,0:0:0:0:
310,145,297110,1,0,0:0:0:0:
452,112,297392,2,0,L|392:44,2,80
476,252,297955,6,0,L|296:252,1,160
192,328,298519,2,0,L|352:328,1,160
260,220,299082,2,0,B|260:140|260:140|260:108|304:76,1,160
424,156,299645,2,0,P|392:204|336:144,1,160
388,96,300068,2,0,L|360:264,1,160,4|0,0:2|0:0,0:0:0:0:
361,253,300490,1,0,0:0:0:0:
228,312,300772,2,0,B|172:280|272:240|212:160,1,160
216,166,301195,1,4,0:2:0:0:
84,112,301476,6,0,L|84:204,2,80
380,104,302181,2,0,L|472:104,2,80
236,100,302744,1,0,0:0:0:0:
332,208,303026,1,0,0:0:0:0:
224,300,303307,1,0,0:0:0:0:
88,248,303589,6,0,P|108:208|204:232,1,160
224,300,304012,1,0,0:0:0:0:
284,340,304152,2,0,P|336:356|368:344,2,80
332,284,304575,1,0,0:0:0:0:
384,232,304716,2,0,P|392:160|312:136,1,160
316,204,305138,2,0,P|376:168|376:80,1,160
378,84,305561,1,0,0:0:0:0:
378,84,305702,1,4,0:2:0:0:
164,80,306124,5,4,3:0:0:0:
256,272,306406,1,4,3:0:0:0:
256,128,306688,1,4,3:0:0:0:
256,272,306969,2,0,P|200:296|112:256,1,160
256,272,307533,2,0,P|316:288|408:264,1,160
408,263,307955,1,4,0:2:0:0:
132,88,317110,6,0,L|132:192,1,80
204,88,317392,2,0,L|204:188,1,80
276,84,317674,6,0,L|276:188,1,80
348,84,317956,2,0,L|348:184,1,80
348,244,318237,6,0,L|348:164,1,80
276,244,318519,2,0,L|276:164,1,80
204,248,318801,6,0,L|204:168,1,80
132,248,319083,2,0,L|132:168,1,80
404,188,319505,1,0,0:0:0:0:
348,144,319645,2,0,L|288:216,1,80
252,160,319927,2,0,L|192:232,1,80
152,176,320209,2,0,L|92:248,1,80
80,152,320490,2,0,L|131:90,1,80
172,140,320772,2,0,L|223:78,1,80
260,132,321054,2,0,L|311:70,1,80
344,128,321336,2,0,L|395:66,1,80
136,200,321758,5,0,0:0:0:0:
136,200,321899,2,0,L|40:200,1,80
212,160,322181,2,0,L|292:160,1,80
136,120,322462,2,0,L|40:120,1,80
212,80,322744,2,0,L|292:80,1,80
136,40,323026,2,0,L|40:40,1,80
212,0,323308,2,0,L|292:0,1,80
360,84,323589,2,0,L|280:84,1,80
256,192,324012,5,0,0:0:0:0:
204,140,324152,2,0,L|144:84,1,80,4|0,0:2|0:0,0:0:0:0:
180,192,324434,2,0,L|97:191,1,80,4|0,0:2|0:0,0:0:0:0:
201,241,324716,2,0,L|142:298,1,80,4|0,0:2|0:0,0:0:0:0:
256,264,324998,2,0,L|255:346,1,80,4|0,0:2|0:0,0:0:0:0:
308,243,325279,2,0,L|368:300,1,80,4|0,0:2|0:0,0:0:0:0:
331,191,325561,2,0,L|414:192,1,80,4|0,0:2|0:0,0:0:0:0:
310,142,325843,2,0,L|369:85,1,80
256,192,326124,1,4,0:2:0:0:
256,192,326265,12,0,332885,0:0:0:0:
