osu file format v9

[General]
AudioFilename: Kegare Naki Yume.mp3
AudioLeadIn: 0
PreviewTime: 62857
Countdown: 0
SampleSet: Normal
StackLeniency: 0.7
Mode: 0
LetterboxInBreaks: 1

[Editor]
DistanceSpacing: 1
BeatDivisor: 4
GridSize: 8

[Metadata]
Title:Kegare Naki Yume
Artist:Asriel
Creator:KanaRin
Version:Yume
Source:11eyes
Tags:Clare lkp

[Difficulty]
HPDrainRate:8
CircleSize:4
OverallDifficulty:8
ApproachRate:9
SliderMultiplier:1.8
SliderTickRate:0.5

[Events]
//Background and Video events
0,0,"bga.jpg"
//Break Periods
2,98160,108660
2,177801,178577
2,190543,198375
//Storyboard Layer 0 (Background)
//Storyboard Layer 1 (Fail)
//Storyboard Layer 2 (Pass)
//Storyboard Layer 3 (Foreground)
//Storyboard Sound Samples
//Background Colour Transformations
3,100,163,162,255

[TimingPoints]
9575,269.058295964126,4,1,1,70,1,0
26929,269.058295964126,4,1,1,70,1,0
29081,-100,4,1,1,70,0,0
29552,-100,4,2,1,70,0,0
45695,-100,4,1,1,70,0,0
63523,-100,4,1,1,70,0,1
97960,-100,4,1,1,70,0,0
109193,-100,4,2,1,70,0,0
125337,-100,4,1,1,70,0,0
143162,-100,4,1,1,70,0,1
177601,269.058295964126,3,1,1,70,1,0
178370,269.058295964126,3,2,1,70,1,0
179177,-200,3,2,1,70,0,0
190500,269.058295964126,4,2,1,70,1,0
207114,-100,4,1,1,55,0,0
207921,-100,4,1,1,70,0,0
227091,-100,4,1,1,70,0,1
235634,-200,4,1,1,70,0,1
244109,-100,4,1,1,70,0,1
262473,-100,4,1,1,70,0,0

[Colours]
Combo1 : 255,255,0
Combo2 : 255,0,0
Combo3 : 255,255,255

[HitObjects]
32,64,9574,2,0,L|32:256,1,180,4|0
128,344,9978,2,0,L|128:160,1,180,8|0
152,88,10382,1,8
232,80,10516,1,0
272,152,10651,2,0,L|272:264|336:304,1,180,0|0
408,160,11054,2,0,L|408:56|344:16,1,180,8|8
344,224,11458,2,0,L|344:272|392:304,1,90
224,208,11727,6,0,L|224:128|128:64,1,180,4|8
80,216,12131,2,0,L|80:296|176:352,1,180,0|8
152,168,12534,2,0,L|152:136|104:104,1,90,0|8
224,288,12803,2,0,L|296:288|328:256|408:256,1,180,4|0
512,312,13207,2,0,L|440:312|408:344|328:344,1,180,8|8
344,184,13610,2,0,L|440:184,1,90,8|0
344,64,13879,6,0,B|224:64|224:176,1,180,4|0
344,184,14283,2,0,B|344:288|200:288,1,180,8|0
96,208,14687,2,0,B|64:160|112:104,1,90,8|0
200,24,14956,2,0,B|288:-24|400:40,1,180
256,96,15359,2,0,B|160:144|80:88,1,180,8|0
344,96,15763,2,0,B|376:136|336:192,1,90,8|0
304,256,16032,6,0,L|256:304|136:304,1,180,4|0
208,208,16435,2,0,L|256:160|376:160,1,180,8|8
416,288,16839,2,0,L|416:336|368:368,1,90,0|8
264,216,17108,6,0,L|192:216|160:104,1,180
32,240,17512,2,0,L|104:240|136:352,1,180,8|8
448,192,18050,1,8
400,96,18184,6,0,L|344:136|344:264,1,180,4|0
208,344,18588,2,0,L|264:304|264:176,1,180,8|8
168,96,18992,2,0,L|136:128|136:184,1,90,0|8
264,256,19261,2,0,L|328:256|376:216|440:216,1,180,4|8
296,168,19664,2,0,L|248:104|112:104,1,180,0|8
48,256,20068,1,0
400,336,20337,6,0,B|480:256|384:160,1,180,4|0
280,136,20740,1,8
200,240,20875,2,0,B|296:240,1,90,0|8
176,144,21144,2,0,B|80:144,1,90,0|8
248,48,21413,6,0,B|320:-16|328:152|440:8,2,180,4|0|0
176,192,22086,2,0,L|64:192|24:136,1,180,8|0
120,264,22489,2,0,L|224:264|288:344,1,180,12|0
112,352,22893,6,0,L|56:352|24:312,1,90,0|8
120,264,23162,2,0,L|144:224|208:224,2,90,0|0|8
216,328,23566,2,0,L|280:328|320:288|392:288,1,180,8|0
464,344,23969,1,8
504,240,24104,2,0,L|504:192|464:160,1,90,0|8
288,128,24373,2,0,L|288:176|328:208,1,90,0|8
504,240,24642,1,4
248,192,24911,6,0,L|248:272|344:336,2,180
32,216,25718,6,0,B|-8:256|32:304,1,90
120,256,25987,2,0,B|160:216|120:168,1,90
32,136,26256,2,0,B|0:176|40:224,1,90
128,176,26525,2,0,B|168:136|128:96,2,90
256,192,26929,8,0,29081
88,104,29619,6,0,B|176:48|264:104,2,180,2|0|2
24,208,30426,2,0,B|-8:248|24:296,1,90
152,344,30695,2,0,B|248:384|328:344,2,180,2|0|2
408,112,31502,2,0,B|472:192|408:280,2,180,0|2|0
184,176,32310,2,0,B|144:208|96:176,1,90,2|0
184,72,32579,2,0,B|232:48|272:72,1,90
304,192,32848,2,0,B|384:272|288:360,1,180,2|0
104,176,33386,6,0,B|32:88|112:8,1,180,2|0
408,208,33924,2,0,B|480:296|400:376,2,180,2|0|2
248,280,34731,2,0,B|152:280,1,90
232,368,35000,2,0,B|336:368,1,90,2|0
416,280,35269,2,0,B|480:200|400:104,1,180,0|2
136,168,35807,6,0,B|104:208|136:256,2,90,0|0|2
208,200,36211,1,0
288,192,36346,2,0,B|320:144|272:96,1,90
208,112,36615,2,0,B|16:112,1,180,2|0
304,272,37153,2,0,B|496:272,1,180,2|0
160,344,37691,5,2
40,144,37960,1,0
256,48,38229,2,0,B|296:-16|400:144|456:-24,2,180,2|0|2
408,280,39036,2,0,B|368:312|320:272,1,90
344,168,39305,2,0,B|424:104|512:176,2,180,2|0|2
248,312,40112,5,0
144,336,40247,1,0
72,256,40381,2,0,B|72:64,1,180,2|0
432,80,40920,2,0,B|336:80|256:128,1,180,2|0
88,80,41458,2,0,B|184:80|264:128,1,180,2|0
432,352,41996,5,2
432,352,42130,1,0
432,352,42265,1,0
80,280,42534,5,2
432,208,42803,1,0
80,120,43072,2,0,B|168:64|248:120,1,180,2|0
432,208,43476,2,0,B|344:256|248:208,1,180,2|0
112,264,43879,2,0,B|80:304|112:352,2,90,0|0|2
312,328,44417,6,2,B|512:328,2,180,0|2|0
112,120,45224,2,0,B|80:80|112:32,1,90,2|0
200,112,45494,2,0,B|224:160|200:208,1,90,2|2
72,216,45763,2,0,B|24:216,8,45
232,256,46570,5,0
320,224,46704,1,0
400,288,46839,2,0,L|464:240|464:128,1,180,8|0
352,192,47242,2,0,L|288:240|288:352,1,180,8|0
216,192,47646,2,0,L|304:128,1,90,8|0
208,96,47915,2,0,L|128:152,2,90,0|0|8
216,192,48319,2,0,L|288:256|288:352,1,180
120,288,48722,2,0,L|48:224|48:128,2,180,8|0|8
344,32,49529,6,0,L|344:96|384:136|384:208,1,180,0|8
336,336,49933,2,0,L|336:272|296:232|296:160,1,180,0|8
208,104,50337,2,0,L|208:200,1,90,0|8
208,288,50606,2,0,B|120:336|32:280,2,180,4|0|8
280,200,51278,2,0,B|360:280|272:368,1,180,8|8
96,168,51816,6,0,L|48:168|16:136,1,90
96,80,52085,2,0,L|128:48|184:48,1,90,8|8
184,144,52355,2,0,L|216:168|216:224,2,90,0|0|8
136,248,52758,6,4,L|136:352|224:376,1,180
376,136,53296,2,4,L|376:32|288:8,1,180
432,304,53834,5,8
296,232,53969,1,0
432,160,54103,1,8
296,88,54238,1,0
432,16,54372,2,0,B|480:16,8,45,8|0|0|0|8|0|8|0|0
104,104,55180,6,0,L|152:104|208:48,1,90,4|0
248,152,55449,2,0,L|200:200|200:328,1,180,8|0
328,224,55852,2,0,L|376:176|376:48,1,180,8|0
480,176,56256,2,0,L|480:272,1,90,8|0
328,376,56525,2,0,L|328:288,2,90,0|0|8
192,280,56928,2,0,L|128:280|96:240|32:240,1,180
160,184,57332,6,0,L|248:184,2,90,8|0|0
368,88,57736,2,0,L|272:88,1,90,0|8
136,88,58005,1,0
48,184,58139,2,0,L|48:312|104:328,1,180,0|8
192,216,58543,2,0,L|192:88|136:72,1,180,0|8
104,240,58946,2,0,L|104:296|144:312,1,90,0|8
344,312,59215,6,0,L|224:312,2,90,0|0|8
128,216,59619,2,0,L|240:216,2,90,0|8|8
40,120,60023,1,0
136,24,60157,2,0,B|200:24|200:24|256:-24|320:40,1,180
408,112,60561,2,0,B|408:216,1,90,8|0
312,248,60830,2,0,B|312:136,1,90,0|8
408,216,61099,1,8
408,320,61233,6,0,B|328:384|216:296,1,180
152,232,61637,2,0,B|112:192|144:128,1,90,8|0
208,48,61906,2,0,B|240:8|320:40,2,90,8|0|0
208,48,62310,1,4
256,192,62444,8,0,63251
64,176,63520,6,0,L|64:120|80:80,1,90,4|0
216,192,63789,1,8
216,192,63924,2,0,L|216:304|176:376,2,180,0|8|0
320,112,64597,2,0,B|344:72|344:72|408:72,1,90,8|0
400,208,64866,2,0,B|368:240|368:240|304:240,1,90
192,280,65135,2,0,B|192:215|192:215|232:176|232:176|231:104,2,180,8|0|0
320,328,65807,6,0,B|288:360|288:360|232:360,1,90,8|0
320,248,66076,2,0,B|392:248|392:248|464:352,2,180,0|8|0
256,128,66749,2,0,B|208:128|208:128|168:176,2,90,8|0|0
376,72,67153,2,0,B|424:72|424:72|456:32,2,90,8|0|8
240,72,67556,1,0
472,48,67825,6,0,B|424:128|480:224,1,180,4|0
360,168,68229,2,0,B|408:256|360:344,1,180,12|0
272,352,68633,2,0,B|224:376|184:344,1,90,8|0
120,280,68902,2,0,B|56:200|112:96,1,180,4|8
392,104,69440,2,0,B|456:184|400:288,1,180,4|8
104,112,69978,6,0,B|112:176|168:200|168:200|224:136,1,180,4|0
120,272,70381,2,0,B|112:336|56:360|56:360|0:296,1,180,8|0
200,328,70785,2,0,B|240:368|288:368,1,90,8|0
464,320,71054,2,0,B|424:352|368:320,2,90,4|0|8
448,216,71458,1,0
368,120,71592,2,0,B|416:96|456:120,2,90,0|0|8
272,56,71996,1,0
168,96,72130,6,0,L|120:128|120:256,1,180,4|8
344,312,72668,2,0,L|392:280|392:152,1,180,0|8
160,248,73207,6,0,L|96:248|72:288|-8:288,1,180,0|0
144,336,73610,2,0,L|208:336|232:296|312:296,1,180,8|0
200,168,74014,1,8
200,168,74148,1,0
184,64,74283,6,0,L|240:64|288:200,1,180,0|8
512,368,74821,2,0,L|456:368|408:232,1,180,0|8
88,184,75359,6,0,L|160:184|208:320,2,180,0|8|0
32,256,76032,1,8
72,336,76166,1,0
160,360,76301,2,0,L|224:360|264:328|336:328,1,180,4|8
184,280,76704,2,0,L|144:256|128:208,1,90,0|8
312,208,76973,2,0,L|424:208|472:280,1,180,0|8
128,120,77511,5,0
424,328,77781,1,8
64,352,78050,1,0
368,160,78319,1,8
24,56,78588,6,0,L|112:56,1,90
272,152,78857,2,0,L|176:152,1,90,8|0
24,192,79126,2,0,L|24:280|104:328,1,180,0|8
392,312,79664,6,0,B|432:280|408:224,2,90,0|0|8
312,272,80068,1,0
224,264,80202,2,0,B|192:304|224:352,2,90,0|8|0
176,192,80606,1,0
184,104,80740,6,0,L|368:104,1,180,12|0
408,336,81278,2,0,B|352:336|352:336|296:400|232:320,1,180,8|0
136,280,81682,2,0,B|192:280|192:280|248:216|312:296,1,180,8|0
184,352,82085,2,0,B|144:384|88:344,1,90,8|0
40,224,82355,2,0,B|-16:136|48:40,1,180,0|8
472,160,82893,6,0,B|528:248|464:344,1,180,0|8
200,136,83431,2,0,C|112:192|48:160,1,180,0|8
160,272,83834,2,0,C|248:216|312:248,1,180
448,344,84238,2,0,B|448:240,1,90,8|0
336,64,84507,6,0,B|256:144|176:64,1,180,0|8
72,328,85045,6,0,B|120:272|160:328|160:328|240:328,1,180,4|8
360,248,85449,2,0,B|312:304|272:248|272:248|192:248,1,180,0|8
96,160,85852,5,0
96,160,85987,1,8
200,48,86121,6,0,B|280:120|368:48,1,180,4|8
464,176,86525,2,0,B|384:104|296:176,1,180,0|8
216,264,86929,5,0
216,264,87063,1,8
368,352,87198,6,0,L|432:352|456:288|504:288,1,180,4|4
288,288,87601,2,0,L|224:288|200:352|152:352,1,180,0|8
40,192,88005,2,0,L|104:128,1,90,4|8
160,240,88274,2,0,L|88:312,1,90,0|8
224,144,88543,6,0,L|408:144,2,180,0|8|0
512,304,89350,2,0,L|328:304,1,180,0|8
64,208,89888,6,0,B|16:176|32:120,2,90,0|0|8
128,120,90292,1,0
184,24,90426,2,0,B|232:56|216:112,2,90,0|0|8
424,208,90964,1,0
80,304,91233,1,8
432,360,91502,6,0,L|336:360|296:272,1,180,0|8
112,272,91906,2,0,L|208:272|248:360,1,180
376,288,92310,2,0,L|408:272|408:208,1,90,8|0
272,136,92579,6,0,L|216:136|176:0,1,180,0|8
24,248,93117,2,0,L|80:248|120:384,2,180,0|8|4
416,96,93924,5,0
416,96,94059,1,0
416,96,94193,2,0,L|416:168|448:208|448:288,1,180,8|0
80,352,94731,6,0,L|80:280|48:240|48:160,1,180
112,96,95135,1,0
192,168,95269,2,0,L|384:168,1,180,8|0
256,352,95807,6,0,L|72:352,1,180,8|0
408,240,96346,2,0,L|472:192|472:72,1,180,8|0
344,144,96749,2,0,L|288:192|288:312,1,180,8|8
160,280,97153,2,0,L|200:256|200:192,1,90
128,80,97422,2,0,L|88:104|88:168,2,90,8|0|0
200,176,97825,1,0
200,176,97960,1,4
312,24,109260,6,0,B|416:30|454:127,2,180,2|0|2
64,152,110068,2,0,B|56:208|104:232,1,90
232,328,110337,2,0,B|335:330|396:264,2,180,2|0|2
109,94,111144,6,0,B|162:7|266:37,2,180,0|2|0
432,248,111951,2,0,B|408:288|344:288,1,90,2|0
176,288,112220,2,0,B|200:248|264:248,1,90
272,72,112489,2,0,B|376:48|420:152,1,180,2|0
40,176,113027,5,2
40,176,113296,1,0
392,120,113565,2,0,B|464:208|384:288,2,180,2|0|2
40,64,114372,2,0,B|128:120,1,90
40,304,114642,2,0,B|128:248,1,90,2|0
296,288,114911,2,0,B|360:208|280:112,1,180,0|2
384,336,115449,6,0,B|472:336,2,90,0|0|2
296,336,115852,1,0
208,328,115987,2,0,B|176:280|224:232,1,90
80,128,116256,2,0,B|152:64|272:56,1,180,2|0
464,224,116794,2,0,B|392:288|272:296,1,180,2|0
32,56,117332,5,2
392,56,117601,1,0
208,368,117870,2,0,B|272:296|144:264|240:184,2,180,2|0|2
144,64,118677,5,0
144,64,118812,1,0
144,64,118946,2,0,B|224:0|312:72,2,180,2|0|2
72,256,119754,5,0
72,256,119888,1,0
72,256,120023,2,0,B|72:64,1,180,2|0
432,88,120561,2,0,B|432:272,1,180,2|0
72,256,121099,1,2
432,88,121368,1,0
72,88,121637,5,2
72,88,121772,1,0
72,88,121906,1,0
352,320,122175,5,2
72,88,122444,1,0
408,216,122713,2,0,B|399:319|306:350,1,180,2|0
296,264,123117,2,0,B|213:320|113:283,1,180,2|0
184,224,123520,2,0,B|120:224|88:168,2,90,2|0|0
472,48,124059,6,0,B|272:48,2,180,0|2|0
128,64,124866,5,2
272,128,125000,1,0
128,192,125135,1,2
272,256,125269,1,2
128,328,125404,2,0,B|72:328,8,45
464,40,126211,5,0
384,152,126346,1,0
304,40,126480,2,0,L|240:88|240:200,1,180,8|0
320,296,126884,2,0,L|384:248|384:136,1,180,8|0
240,256,127287,2,0,B|144:256,1,90,8|0
136,168,127556,2,0,L|56:224,2,90,0|0|8
216,120,127960,2,0,B|288:56|400:80,1,180
368,256,128363,2,0,B|296:320|184:296,2,180,8|0|8
160,88,129171,6,0,L|112:39|-15:36,1,180,0|8
40,216,129574,2,0,L|87:264|215:267,1,180
336,280,129978,2,0,B|344:336|424:336|424:336,1,90,8|0
440,200,130247,2,0,B|486:107|424:32,2,180,4|0|8
312,152,130920,2,0,B|229:96|129:133,1,180,8|0
336,336,131458,6,0,B|248:336,1,90
360,264,131727,2,0,B|272:264,1,90,8|8
384,192,131996,2,0,B|288:192,2,90,0|0|8
232,136,132399,6,0,L|169:62|73:61,1,180,4|0
112,264,132937,2,0,L|174:337|270:338,1,180,4|0
152,88,133476,6,0,L|56:88,1,90,8|0
248,184,133745,2,0,L|352:184,1,90,8|0
152,280,134014,2,0,L|72:280,8,45,8|0|0|0|8|0|8|0|0
432,56,134821,6,0,L|384:56|328:112,1,90
432,216,135090,2,0,L|384:264|256:264,1,180,8|0
128,208,135494,2,0,L|175:160|303:159,1,180,8|0
176,56,135897,2,0,L|79:56,1,90,8|0
264,88,136166,2,0,L|351:88,2,90,0|0|8
88,168,136570,2,0,B|280:168|280:168,1,180
176,344,136973,6,0,L|264:344,1,90,0|8
360,344,137242,1,0
352,256,137377,2,0,L|256:256,1,90,8|0
112,256,137646,5,0
40,144,137781,2,0,L|176:145|179:209,1,180,8|0
256,80,138184,2,0,L|119:78|116:14,1,180,8|0
256,152,138588,2,0,L|256:208|296:224,1,90,8|0
192,328,138857,6,0,L|312:328,2,90,0|0|8
312,248,139260,2,0,L|200:248,2,90,0|0|8
432,248,139664,1,0
352,136,139798,2,0,B|288:80|288:80|288:80|168:80,1,180,0|0
56,88,140202,2,0,B|56:192,1,90,8|0
168,256,140471,2,0,B|168:144,1,90,8|0
280,88,140740,1,8
400,24,140875,6,0,B|488:88|448:224,1,180,0|8
408,312,141278,2,0,B|376:352|288:336,1,90
192,344,141547,2,0,B|96:344,3,90,8|0|8|0
256,192,142085,8,0,142893
88,96,143162,6,0,B|184:96,2,90,4|0|8
304,160,143565,2,0,B|264:224|264:224|136:224,2,180,0|8|0
376,248,144238,2,0,B|400:208|400:208|464:208,1,90,8|0
456,344,144507,2,0,B|424:376|424:376|360:376,1,90,0|8
216,376,144776,2,0,B|152:376|152:376|112:336|112:336|40:336,2,180,0|8|0
168,256,145449,6,0,B|200:224|200:224|256:224,1,90,8|0
288,312,145718,2,0,B|360:312|360:312|432:208,2,180,8|0|8
200,216,146390,2,0,B|152:216|152:216|112:264,2,90,0|8|8
288,312,146794,2,0,B|336:312|336:312|368:272,1,90
472,32,147198,1,8
200,40,147467,6,0,B|160:120|160:120|216:216,1,180,4|8
304,320,147870,2,0,B|344:240|344:240|288:144,1,180,4|8
205,198,148274,2,0,B|109:198,1,90,0|8
216,352,148543,2,0,B|408:352,1,180,4|8
296,32,149081,2,0,B|104:32,1,180,0|8
40,104,149485,1,0
72,200,149619,6,0,B|72:272|72:272|184:312,1,180,4|0
320,328,150023,2,0,B|320:256|320:256|208:216,1,180,4|8
96,312,150426,2,0,B|96:352|96:352|152:376,1,90,0|8
232,368,150695,5,0
280,296,150830,1,8
328,216,150964,1,8
368,136,151099,1,8
400,48,151233,6,0,B|312:48,1,90,0|8
144,136,151502,2,0,B|256:136,1,90,0|8
416,312,151772,6,0,B|416:208|416:208|344:152,1,180,4|8
96,72,152310,2,0,B|96:176|96:176|168:232,1,180,0|8
416,104,152848,6,0,B|360:48|272:96|280:168,1,180,4|8
256,256,153251,2,0,B|312:312|400:264|392:192,1,180
232,80,153655,2,0,B|184:112|232:184,1,90,8|0
304,336,153924,6,0,B|448:360|416:208,1,180,0|8
208,48,154462,2,0,B|64:24|96:176,1,180,0|8
104,336,155000,6,0,B|184:248|208:440|280:312,2,180,0|8|0
40,208,155673,2,0,B|8:144|72:96,1,90,0|8
216,56,155942,6,0,B|296:0|408:72,1,180,4|0
448,184,156346,2,0,B|480:240|432:288,1,90
312,320,156615,2,0,B|224:392|136:312,2,180,0|8|0
40,80,157422,5,8
360,240,157691,1,0
8,328,157960,1,8
304,120,158229,5,0
368,184,158363,1,0
368,272,158498,1,8
304,336,158633,1,0
232,232,158767,2,0,B|48:232,1,180,0|8
160,344,159305,5,0
96,280,159440,1,0
96,192,159574,1,8
160,128,159709,1,0
232,232,159843,2,0,B|416:232,1,180,0|8
464,72,160381,6,0,B|272:72,1,180,4|0
48,296,160920,6,0,B|120:232|216:304,1,180,8|0
48,296,161323,2,0,B|-32:208|64:128,1,180,8|0
184,88,161727,2,0,B|232:56|304:112,1,90,8|0
384,208,161996,2,0,B|464:296|376:368,1,180,0|8
48,176,162534,5,0
400,96,162803,1,8
128,328,163072,6,0,B|48:328|48:328|8:216,1,180,0|8
104,112,163476,2,0,B|184:112|184:112|224:224,1,180
320,128,163879,2,0,B|280:128|280:128|256:64,1,90,8|0
296,208,164148,2,0,B|400:208|400:208|432:288,1,180,0|8
48,224,164686,6,0,B|112:152|40:40,1,180,4|8
160,184,165090,2,0,B|96:264|160:352,1,180,4|8
304,360,165494,2,0,B|360:384|416:352,1,90,0|8
464,256,165763,2,0,B|512:208|488:144|488:144|424:120,1,180,4|8
360,72,166166,2,0,B|312:120|336:184|336:184|400:208,1,180,4|8
392,320,166570,2,0,B|336:360|288:296,1,90,0|8
208,224,166839,6,0,B|144:176|144:176|144:64,1,180,4|8
48,208,167242,2,0,B|112:256|112:256|112:368,1,180
192,200,167646,2,0,B|160:176|160:176|160:120,1,90,12|0
272,24,167915,2,0,B|296:56|296:56|296:104,1,90,8|0
192,200,168184,6,0,B|192:288|192:288|288:328,2,180,0|8|0
416,72,168991,6,0,B|448:112|416:168,1,90
312,128,169260,2,0,B|280:168|320:216,1,90,8|0
408,272,169529,2,0,B|400:376|256:352,1,180,0|8
304,272,169933,2,0,B|208:200|296:112,1,180
352,192,170337,2,0,B|408:200|408:296,1,90,8|0
272,344,170606,2,0,B|184:400|96:336,1,180,0|8
240,64,171144,6,0,B|304:64|304:64|344:104|344:104|416:104,1,180,0|8
264,136,171547,2,0,B|200:136|200:136|160:176|160:176|88:176,1,180
240,208,171951,2,0,B|360:208,1,90,8|0
472,296,172220,6,0,B|416:352|416:352|304:352,1,180,0|8
40,88,172758,2,0,B|96:32|96:32|208:32,1,180,0|8
472,296,173296,6,0,B|472:112,1,180,4|0
392,168,173700,1,0
392,264,173834,2,0,B|328:264|328:264|296:208|296:208|216:208,1,180,8|0
40,88,174372,6,0,B|40:272,1,180,4|0
120,216,174776,1,0
120,120,174911,2,0,B|184:120|184:120|216:176|216:176|296:176,1,180
464,48,175449,6,0,B|368:48|368:48|328:136,1,180,4|8
48,336,175987,2,0,B|144:336|144:336|184:248,1,180,0|8
360,256,176390,2,0,B|264:256|264:256|224:344,1,180,0|8
144,280,176794,2,0,B|184:192,1,90
136,88,177063,2,0,B|96:168,2,90,8|0|0
216,32,177467,1,0
280,104,177601,1,4
128,104,179177,6,0,B|80:128|96:192,2,90,2|0|2
192,168,179984,2,0,B|288:168,1,90,0|2
384,152,180522,1,0
384,152,180791,2,0,B|432:248|336:328,1,180,2|2
280,264,181598,2,2,B|280:80,1,180
200,40,182405,6,0,B|200:136,1,90
200,176,182809,1,0
200,224,182943,1,2
200,312,183213,2,0,B|144:312|112:256,2,90,0|2|0
288,312,184020,2,0,B|488:312,1,180,2|2
468,312,184827,1,2
384,152,185365,5,0
384,152,185634,2,0,B|280:152,1,90,2|0
248,152,186038,1,0
200,152,186172,1,2
112,152,186441,6,0,B|112:88|152:72,1,90,0|2
240,72,186979,2,0,B|336:72,1,90,0|2
368,200,187652,5,0
368,224,187787,1,2
368,248,187921,1,0
368,272,188056,1,0
248,296,188325,5,2
160,296,188594,1,0
72,296,188863,1,4
256,192,189132,12,4,190343
128,248,198975,6,0,B|192:160|120:72,1,180,4|2
40,248,199378,2,0,B|232:248,1,180,0|0
336,176,199782,1,2
224,104,199917,1,0
104,168,200051,2,0,B|104:360,1,180,2|0
208,264,200455,2,0,B|416:264,1,180,2|0
496,344,200858,1,0
496,208,200993,1,2
392,136,201127,6,0,B|312:80|216:120,1,180,4|0
336,56,201531,2,0,B|392:144|320:232,1,180,2|0
224,304,201934,2,0,B|184:336|128:296,1,90,2|0
80,184,202204,6,0,B|0:112|96:16,1,180,2|0
120,112,202607,2,0,B|208:200|104:272,1,180,2|0
216,352,203011,1,0
344,304,203145,1,2
384,176,203280,1,0
272,96,203414,6,0,B|200:40,1,90,0|2
184,160,203683,2,0,B|80:120,1,90,0|0
96,248,203952,2,0,B|-8:240,1,90,0|2
160,328,204221,2,0,B|80:384,1,90,0|0
320,192,204491,6,0,B|352:152|304:96,1,90,0|2
192,192,204760,2,0,B|160:232|200:288,1,90,0|0
416,192,205029,2,0,B|440:152|400:88,1,90,0|2
96,192,205298,2,0,B|72:232|112:296,1,90,0|2
208,112,205567,6,0,B|144:48,1,90
304,112,205836,2,0,B|368:48,1,90,2|0
168,192,206105,2,0,B|80:192,1,90,2|0
344,192,206374,2,0,B|432:192,1,90,0|2
208,272,206643,2,0,B|144:336,1,90,2|0
304,272,206912,2,0,B|368:336,1,90,2|2
256,192,207181,5,0
256,192,207248,1,0
256,192,207316,1,0
256,192,207383,1,0
256,192,207450,1,0
256,192,207517,1,0
256,192,207585,1,0
256,192,207652,1,0
256,192,207719,1,4
40,80,207988,5,0
72,168,208123,1,0
120,240,208257,2,0,L|168:304|280:304,1,180,8|0
328,232,208661,2,0,L|280:168|167:168,1,180,8|0
216,88,209065,2,0,B|120:88,1,90,8|0
32,96,209334,2,0,L|32:8,2,90,0|0|8
32,184,209737,2,0,B|109:241|224:216,1,180
280,176,210141,2,0,B|208:112|96:136,2,180,8|0|8
56,200,210948,6,0,L|55:268|142:360,1,180,0|8
192,248,211352,2,0,L|192:180|104:88,1,180
8,64,211755,2,0,B|16:8|96:8|96:8,1,90,8|0
192,16,212024,2,0,B|384:16,2,180,4|0|8
184,136,212697,2,0,B|344:240|344:240,1,180,8|0
80,200,213235,6,0,B|144:272,1,90,0|8
184,136,213504,2,0,B|216:224,1,90,0|8
312,128,213773,2,0,B|304:224,2,90,8|0|0
184,104,214177,6,4,L|112:144|108:263,1,180
328,280,214715,2,4,L|400:239|403:121,1,180
112,56,215253,6,4,L|40:96|36:215,1,180
400,328,215791,2,4,L|472:287|475:169,1,180
80,56,216598,6,0,L|128:56|184:112,1,90,4|0
96,152,216867,2,0,L|144:200|272:200,1,180,8|0
248,112,217271,2,0,L|295:64|423:63,1,180,8|0
416,152,217674,2,0,L|319:152,1,90,8|0
296,240,217943,2,0,L|184:240,2,90,0|0|8
384,240,218347,2,0,B|384:40|384:40,1,180
296,40,218751,6,0,L|192:40,2,90,8|0|0
280,128,219154,2,0,L|384:128,1,90,8|0
464,128,219423,1,0
320,232,219558,6,0,L|384:296|504:296,1,180,8|0
376,144,219961,2,0,L|312:80|192:80,1,180,8|0
136,80,220365,2,0,L|32:80|32:80,1,90,8|0
56,168,220634,6,0,B|120:256,2,90,0|0|8
192,192,221038,2,0,B|240:272,2,90,0|0|0
328,208,221441,1,8
432,128,221576,6,0,B|368:88|368:88|232:88,1,180,8|0
136,128,221979,2,0,B|136:232,1,90,8|0
248,296,222248,2,0,B|248:184,1,90,8|8
248,72,222517,1,0
368,128,222652,6,0,B|464:168|432:288,1,180
312,336,223056,2,0,B|261:346|224:296,1,90,8|0
192,176,223325,2,0,B|242:165|272:216,1,90,8|0
144,256,223594,2,0,B|80:256|72:184,1,90,8|4
256,192,223863,8,0,226822
264,192,227091,5,0
184,240,227226,1,0
96,240,227360,2,0,B|72:208|24:184,2,90,8|0|0
136,160,227764,2,0,B|152:112|200:88,1,90,8|0
280,88,228033,2,0,B|384:136|488:136,1,180,8|8
328,272,228437,6,0,B|208:288,1,90,0|0
184,216,228706,2,0,B|72:208,1,90,8|0
72,120,228975,2,0,B|-48:80,2,90,8|0|0
248,80,229513,1,8
312,144,229647,1,8
328,56,229782,1,0
400,112,229917,1,0
384,200,230051,2,0,B|424:216|480:216,2,90,8|8|0
296,328,230589,5,8
120,280,230858,1,0
16,136,231127,1,8
16,136,231396,1,4
192,144,231665,1,8
192,144,231800,1,0
360,88,232069,5,0
376,176,232204,1,8
360,264,232338,1,0
304,336,232473,1,0
56,80,232742,1,8
392,208,233011,1,0
32,216,233280,1,8
360,64,233549,1,0
216,232,233818,6,0,B|304:248|384:336,1,180,8|0
288,160,234356,2,0,B|200:144|120:56,1,180,8|4
112,344,235163,5,0
176,280,235298,1,8
128,208,235432,1,0
176,128,235567,1,8
112,64,235701,2,0,B|8:64,1,90,4|8
240,64,236239,6,0,B|288:56|344:72,1,90,0|8
328,160,236778,2,0,B|368:184|432:184,2,90,0|8|0
248,208,237585,1,8
160,184,237854,2,0,B|136:144|136:80,1,90,0|8
224,104,238392,2,0,B|256:64|304:48,1,90,0|8
328,136,238930,2,0,B|384:208|480:248,1,180,0|4
136,160,240006,6,0,B|183:182|232:160,1,90
288,224,240544,1,8
344,296,240813,6,0,B|392:320|440:312,2,90,0|0|8
224,120,241621,5,0
64,264,241890,1,0
152,64,242159,1,8
152,280,242428,1,0
232,328,242697,5,0
264,304,243235,1,4
296,280,243773,1,4
112,88,244311,6,0,B|56:168|72:288,1,180
144,312,244715,1,8
232,304,244849,2,0,B|320:272|416:272,1,180,0|8
472,216,245253,2,0,B|464:120|376:48,1,180,0|0
304,72,245656,5,8
128,96,245926,1,0
56,264,246195,1,8
232,248,246464,1,0
320,272,246598,1,0
392,328,246733,1,8
392,328,247002,1,0
496,184,247271,1,8
496,184,247405,1,0
352,80,247674,5,0
352,80,247809,2,0,B|319:114|256:96,1,90,8|0
184,80,248078,2,0,B|132:88|96:152,1,90
64,208,248347,2,0,B|80:248|72:304,1,90,8|0
160,296,248616,6,0,B|352:360,1,180,4|8
336,264,249020,1,4
256,216,249154,2,0,B|336:184|384:64,1,180,0|8
296,40,249558,1,8
248,112,249692,2,0,B|152:88|104:-8,1,180,4|8
384,80,250230,6,0,B|368:184,1,90
440,232,250500,2,0,B|456:120,1,90,8|0
368,184,250769,2,0,B|352:288,1,90,4|0
272,232,251038,2,0,B|96:296,1,180,8|8
48,224,251441,1,4
136,88,251710,5,8
224,88,251845,2,0,B|320:88|320:88,1,90,4|0
272,168,252114,2,0,B|80:168,1,180,8|4
248,256,252652,2,0,B|328:256|328:256|376:232|376:232|456:232,1,180,8|4
432,144,253056,5,0
432,144,253190,1,8
272,72,253459,2,0,B|182:72,1,90,0|8
344,144,253863,2,0,B|368:240|312:336,1,180
248,264,254266,5,8
72,224,254535,1,0
72,224,254670,2,0,B|96:264|160:272,2,90,8|8|0
152,192,255073,2,0,B|344:192,1,180,0|8
424,192,255477,1,0
288,80,255746,1,0
288,80,255881,2,0,B|244:80|204:112,1,90,8|0
280,168,256150,5,0
104,136,256419,1,8
264,224,256688,1,0
112,320,256957,1,8
200,160,257226,1,0
24,160,257495,1,8
24,248,257630,1,0
24,248,257764,1,0
192,320,258033,1,8
368,320,258302,5,0
280,160,258571,1,8
280,160,258706,1,0
240,80,258840,1,0
144,232,259109,2,0,B|56:232,1,90,8|0
104,304,259378,2,0,B|216:304,1,90,0|8
360,144,259917,6,0,B|408:184,2,45,8|0|0
360,144,260186,2,0,B|432:128,2,45,8|0|0
360,144,260455,2,0,B|344:216,4,45,8|0|0|0|0
256,192,261531,12,4,262473
