osu file format v9

[General]
AudioFilename: Renai Koujou committee.mp3
AudioLeadIn: 1000
PreviewTime: 60971
Countdown: 0
SampleSet: Soft
StackLeniency: 0.7
Mode: 0
LetterboxInBreaks: 1

[Editor]
Bookmarks: 19170,34737,61818
DistanceSpacing: 1.2
BeatDivisor: 4
GridSize: 8

[Metadata]
Title:Renai Koujou committee (TV Size)
Artist:Aso Natsuko
Creator:Suzully
Version:Normal
Source:Baka to Test to Shoukanjuu
Tags:Maeyamada Kenichi Kitsuneko kanpakyin

[Difficulty]
HPDrainRate:3
CircleSize:3
OverallDifficulty:3
ApproachRate:5
SliderMultiplier:0.6
SliderTickRate:1

[Events]
//Background and Video events
0,0,"baka.jpg"
Video,900,"baka.avi"
//Break Periods
//Storyboard Layer 0 (Background)
//Storyboard Layer 1 (Fail)
//Storyboard Layer 2 (Pass)
//Storyboard Layer 3 (Foreground)
//Storyboard Sound Samples
//Background Colour Transformations
3,100,163,162,255

[TimingPoints]
1008,324.324324324324,4,2,0,75,1,0
61818,-100,4,2,0,75,0,1
84683,-100,4,2,0,75,0,0
87521,-100,4,1,0,75,0,0

[HitObjects]
80,80,1008,1,2
224,80,1656,1,2
336,80,2143,2,0,B|336:232,1,150,2|0
336,304,3278,1,8
336,304,3602,6,0,B|216:304,2,120,4|0|0
448,304,5386,2,0,B|448:216,1,90,2|0
448,144,6197,2,0,B|376:144|344:80,1,120,2|0
240,88,7332,2,0,B|176:88,2,60,2|0|0
352,88,8467,5,4
352,88,8629,2,0,B|352:184,1,90,2|0
352,248,9440,1,8
352,352,9926,2,0,B|312:352|312:328|264:328,1,90,2|0
192,328,10737,1,8
104,264,11224,6,0,B|144:264|144:240|192:240,1,90,2|0
264,240,12035,1,8
344,168,12521,2,0,B|416:168,1,60,2|0
440,104,13170,2,0,B|368:104,1,60,2|0
256,192,13818,12,2,16575
256,192,17710,6,0,B|256:96,1,90,4|0
256,102,18521,1,4
112,96,19170,6,0,B|72:96|56:64,2,60,2|0|0
112,208,20305,2,0,B|112:272,2,60,2|0|0
112,208,21116,1,8
256,216,21764,5,2
328,216,22089,1,0
400,216,22413,1,2
400,112,22899,2,0,B|464:112,2,60,2|0|2
288,112,24035,6,0,B|224:112,1,60,8|4
80,112,25007,1,2
152,192,25494,2,0,B|152:256,2,60,2|0|0
256,336,26953,5,4
328,216,27602,1,2
440,216,28089,2,0,B|440:280,2,60,2|0|0
328,72,29548,5,4
224,176,30197,1,0
224,176,30683,2,0,B|224:248,3,60,2|0|2|0
224,344,32143,5,8
112,248,32791,1,8
224,160,33440,2,0,B|224:88,2,60,2|0|4
360,208,34737,6,0,B|360:280|288:296,1,120,4|8
184,296,35872,2,0,B|184:232,2,60,2|0|8
184,112,37332,6,0,B|248:112|296:64,1,120,2|8
368,64,38305,1,0
368,64,38467,2,0,B|368:160,1,90,2|8
368,224,39278,2,0,B|320:272,1,60,2|8
272,312,39926,6,0,B|184:224,1,120,2|8
184,80,41224,2,0,B|272:168,1,120,2|8
368,264,42521,5,2
472,168,43170,1,2
368,72,43818,2,0,B|304:72,3,60,2|0|4|0
232,72,45116,6,0,B|160:72|136:144,1,120,2|0
224,248,46413,2,0,B|296:248|320:176,1,120,2|0
316,185,47386,1,4
256,192,47710,12,0,49980
160,304,50305,6,0,B|232:304,3,60,2|0|2|0
224,232,51602,2,0,B|296:232,3,60,2|0|2|0
360,232,52899,5,8
480,160,53548,1,2
360,88,54197,1,8
240,160,54845,1,2
360,232,55494,6,8,B|360:304,2,60,2|0|8
216,232,56791,2,0,B|216:160,2,60,2|0|8
256,192,58089,12,4,60521
256,192,61007,6,0,B|256:128,1,60
256,132,61494,1,8
304,80,61818,6,0,B|376:152,1,90,2|0
416,192,62629,1,2
448,296,63116,2,0,B|352:296,1,90,2|0
288,296,63926,1,4
288,296,64251,1,4
216,296,64575,6,0,B|216:232|152:200,1,120,2|0
88,112,65710,2,0,B|112:88|152:88,1,60,2|0
216,80,66359,2,0,B|248:80|280:96,1,60,2|0
336,120,67007,6,0,B|384:192|472:192,1,150,4|0
328,256,68467,2,0,B|200:256,1,120,2|0
64,256,69764,1,2
64,256,70251,2,0,B|64:184,2,60,2|0|2
136,336,71386,5,10
208,336,71710,1,10
280,336,72035,1,10
352,336,72359,6,0,B|352:272|408:232,1,120,4|0
488,168,73494,2,0,B|448:120,2,60,2|0|0
312,120,74953,6,0,B|192:120,1,120,4|0
80,120,76089,2,0,B|80:160|48:176,2,60,2|0|0
192,120,77224,5,0
192,120,77386,2,0,B|192:216,1,90,4|0
192,280,78197,1,2
192,280,78359,1,2
248,328,78683,6,0,B|304:328|328:280,1,90,4|0
360,224,79494,1,2
360,224,79656,1,2
392,160,79980,6,0,B|320:100,1,90,4|0
264,56,80791,1,2
264,56,80953,1,2
192,56,81278,5,4
184,128,81602,2,0,B|184:168|168:160|168:192,1,60,2|0
160,256,82251,1,2
256,192,82575,12,0,84683
128,120,85332,6,0,B|192:120,1,60,0|2
256,120,85980,1,0
256,120,86143,1,2
328,120,86467,2,0,B|328:160|344:184,1,60,0|2
368,248,87116,1,0
368,248,87278,2,0,B|312:288,1,60,4|4
