osu file format v9

[General]
AudioFilename: Renai Koujou committee.mp3
AudioLeadIn: 1000
PreviewTime: 60971
Countdown: 0
SampleSet: Normal
StackLeniency: 0.7
Mode: 0
LetterboxInBreaks: 1

[Editor]
Bookmarks: 19170,34737,61818
DistanceSpacing: 1.2
BeatDivisor: 4
GridSize: 8

[Metadata]
Title:Renai Koujou committee (TV Size)
Artist:Aso Natsuko
Creator:Suzully
Version:Easy
Source:Baka to Test to Shoukanjuu
Tags:Maeyamada Kenichi Kitsuneko kanpakyin

[Difficulty]
HPDrainRate:2
CircleSize:3
OverallDifficulty:2
ApproachRate:3
SliderMultiplier:0.5
SliderTickRate:1

[Events]
//Background and Video events
0,0,"baka.jpg"
Video,900,"baka.avi"
//Break Periods
//Storyboard Layer 0 (Background)
//Storyboard Layer 1 (Fail)
//Storyboard Layer 2 (Pass)
//Storyboard Layer 3 (Foreground)
//Storyboard Sound Samples
//Background Colour Transformations
3,100,163,162,255

[TimingPoints]
1008,324.324324324324,4,2,0,75,1,0
61818,-100,4,2,0,75,0,1
84683,-100,4,2,0,75,0,0
87521,-100,4,1,0,75,0,0

[HitObjects]
96,112,1008,2,0,B|200:112,1,100,2|2
288,112,2143,2,0,B|288:160|312:200,2,87.5,4|0|8
288,56,3602,6,0,B|392:56,1,100,2|0
448,160,4899,2,0,B|344:160,1,100,2|0
224,160,6197,5,2
104,160,6845,1,2
104,160,7332,2,0,B|104:216,2,50
104,312,8791,6,0,B|160:312|160:288|208:288,1,100,4|0
304,344,10089,2,0,B|360:344|360:320|408:320,1,100,2|0
456,216,11386,6,0,B|456:160,2,50,4|0|0
336,216,12683,1,8
216,216,13332,1,8
256,192,13980,12,0,16575
256,192,17710,6,0,B|256:128,2,62.5,4|0|8
256,312,19170,2,0,B|304:312|352:288,1,100,2|0
440,264,20305,2,0,B|440:336,2,62.5,2|0|8
440,144,21764,5,0
440,144,22413,1,0
440,56,22899,2,0,B|312:56,1,125,2|0
192,56,24359,5,4
256,160,25007,2,0,B|360:160,2,100,0|0|8
136,160,26953,5,4
80,264,27602,2,0,B|16:344,2,100,0|0|8
200,264,29548,5,4
312,232,30197,2,0,B|408:280,2,100,0|0|8
320,112,32143,5,4
200,112,32791,1,4
80,112,33440,2,0,B|80:64,2,50,2|2|4
80,232,34737,5,4
168,320,35386,2,0,B|272:320,2,100,2|0|8
208,208,37332,2,0,B|208:152|256:112,1,100,2|8
344,48,38629,2,0,B|344:96|392:136,1,100,0|8
456,232,39926,6,0,B|456:336,2,100,2|8|0
456,112,41872,1,8
456,112,42521,2,0,B|408:136|360:112,1,100,2|8
248,56,43818,2,0,B|200:32|152:56,1,100,2|8
72,144,45116,5,2
160,232,45764,1,0
248,144,46413,1,2
336,232,47062,2,0,B|392:232,1,50,0|4
256,192,47710,12,0,49980
112,128,50953,5,0
112,248,51602,2,0,B|144:296|200:304,1,100
312,304,52899,2,0,B|400:248,1,100,2|8
400,128,54197,2,0,B|312:184,1,100,0|8
216,240,55494,5,2
56,64,56791,1,2
256,192,58089,12,4,60521
344,176,61818,6,0,B|360:248|432:264,1,125,4|8
472,152,63278,2,0,B|456:96|408:80,1,100,2|4
288,80,64575,5,2
288,200,65224,1,2
288,200,65710,2,0,B|288:304,2,100,8|0|8
88,136,68143,5,0
88,192,68467,2,0,B|88:296,2,100,8|0|8
176,192,70251,2,0,B|280:192,1,100,2|0
368,192,71386,2,0,B|424:192,2,50,8|8|8
304,192,72359,6,0,B|304:248|256:288,1,100,4|0
152,328,73656,2,0,B|96:240,1,100,2|0
48,136,74953,2,0,B|88:96|144:88,1,100,2|0
248,48,76251,2,0,B|296:144,1,100,2|0
336,248,77548,6,0,B|288:264|232:248,1,100,2|8
176,144,78845,2,0,B|224:128|280:144,1,100,2|8
392,160,80143,2,0,B|392:264,1,100,2|8
256,192,81278,12,0,84683
256,192,85332,6,0,B|208:208|152:192,1,100,2|0
96,88,86629,1,2
216,88,87278,2,0,B|264:88,1,50,4|4
