osu file format v7

[General]
AudioFilename: [KTXP][Baka_to_Test_to_Shoukanjuu][01][GB][RV10]_part_avi2.mp3
AudioLeadIn: 1985
PreviewTime: 60716
Countdown: 0
SampleSet: Normal
StackLeniency: 0.7
Mode: 0
LetterboxInBreaks: 1

[Editor]
DistanceSpacing: 1
BeatDivisor: 4
GridSize: 8

[Metadata]
Title:Perfect-area complete! (TV Size)
Artist:Aso Natsuko
Creator:aesopl19193
Version:Normal
Source:Baka to Test to Shoukanjuu
Tags:climbb65588

[Difficulty]
HPDrainRate:3
CircleSize:3
OverallDifficulty:3
SliderMultiplier:1.2
SliderTickRate:1

[Events]
//Background and Video events
Video,0,"123.flv"
0,0,"1263224035240.jpg"
//Break Periods
//Storyboard Layer 0 (Background)
//Storyboard Layer 1 (Fail)
//Storyboard Layer 2 (Pass)
//Storyboard Layer 3 (Foreground)
//Storyboard Sound Samples
//Background Colour Transformations
3,100,163,162,255

[TimingPoints]
375,327.868852459016,4,2,0,100,1,0
10716,-100,4,1,0,81,0,0
26454,-100,4,1,0,66,0,0
60521,-100,4,1,0,81,0,1
85620,-100,4,1,0,0,0,1
87260,-100,4,1,0,0,0,0

[Colours]
Combo1 : 176,137,79
Combo2 : 254,118,254
Combo3 : 198,156,254
Combo4 : 208,198,4

[HitObjects]
176,160,5620,5,2
176,160,6276,1,2
176,160,6932,1,2
176,160,7588,1,0
176,256,7915,2,0,B|248:256,1,60,2|0
336,256,8407,2,0,B|336:192,1,60,2|0
256,192,8653,12,0,10211
304,144,10866,6,0,B|384:144|384:144|384:144,2,65,4|0|0
304,240,11522,2,0,B|304:312,2,60,4|0|0
208,240,12178,6,0,B|136:240,4,60,4|0|0|0|0
208,144,13161,1,2
208,48,13489,6,0,B|128:48,2,60,4|0|0
304,48,14145,2,0,B|368:48,2,60,4|0|0
304,144,14801,6,0,B|304:216,4,60,4|0|0|0|6
120,88,16112,6,0,B|392:88,1,240,2|0
408,272,17424,6,0,B|160:272,1,240,2|0
120,88,18735,6,0,B|376:88,1,240,2|0
408,272,20047,6,0,B|152:272,1,240,2|0
160,80,21358,5,4
160,272,22014,1,0
352,272,22670,1,4
352,80,23325,1,0
256,248,23981,5,0
256,152,24309,1,0
256,56,24637,1,0
352,56,24965,1,8
400,56,25129,1,0
88,88,26604,6,0,B|152:40|200:88|200:88,1,120,2|0
280,144,27260,1,0
104,224,27915,5,2
184,272,28243,1,0
280,296,28571,2,0,B|352:296,2,60,0|0|8
280,208,29227,6,0,B|328:144|272:88,1,120,2|0
208,32,29883,1,2
16,40,30538,5,0
16,136,30866,1,2
16,232,31194,1,0
16,328,31522,1,8
112,328,31850,5,2
208,328,32178,2,0,B|208:200,1,120,0|2
400,216,33161,6,0,B|400:96|400:88,1,120,2|0
304,96,33817,1,0
112,96,34473,6,0,B|40:96|40:176,1,120,2|0
40,272,35129,2,0,B|40:344|120:344,1,120,2|0
216,344,35784,6,0,B|296:344|296:272,2,120,2|0|2
288,168,37096,6,0,B|288:88|208:88,1,120,0|2
120,88,37752,2,0,B|48:96|48:176|48:176,1,120,0|2
48,264,38407,2,0,B|48:344|128:344,1,120,0|2
216,344,39063,1,0
264,160,39719,5,0
264,160,40047,1,2
168,160,40374,1,0
168,160,40702,1,2
72,160,41030,1,0
72,160,41358,1,0
72,160,41686,1,2
264,152,42342,6,0,B|264:72|344:72,1,120,0|2
432,72,42997,2,0,B|504:80|504:160|504:160,1,120,0|2
504,248,43653,2,0,B|504:328|424:328,1,120,0|2
336,328,44309,1,0
144,328,44965,5,0
80,256,45293,1,0
144,184,45620,1,0
80,112,45948,1,0
208,40,46440,2,0,B|272:40,3,60,2|0|0|4
352,216,47588,6,0,B|352:288|272:288,1,120,2|0
176,288,48243,2,0,B|96:288|96:216,3,120
96,120,49555,1,0
192,120,49883,1,8
288,120,50211,6,0,B|288:48|368:48,1,120
368,144,50866,2,0,B|368:216|288:216,3,120
192,216,52178,1,0
192,312,52506,1,8
288,312,52834,6,0,B|288:248|288:184,1,120
288,96,53489,2,0,B|208:96|152:96,3,120
168,192,54801,1,0
72,176,55129,1,0
136,96,55456,6,0,B|256:48|384:104|384:104,1,240
376,192,56440,1,8
376,288,56768,6,0,B|256:336|128:280|128:280,1,240
136,192,57752,1,8
256,192,58079,12,0,60047
384,304,60702,6,0,B|384:176,1,120,0|2
384,88,61358,2,0,B|248:88,1,120,0|8
168,88,62014,2,0,B|168:216,1,120,0|2
264,208,62670,2,0,B|264:336,1,120,0|8
168,328,63325,6,0,B|40:328,1,120,0|2
48,232,63981,2,0,B|48:104,1,120,0|8
48,16,64637,2,0,B|176:16,3,120,0|2|0|2
176,112,65948,5,0
272,112,66276,1,2
368,112,66604,2,0,B|368:240,1,120,0|8
272,232,67260,1,0
176,232,67588,1,2
80,232,67915,2,0,B|80:360,1,120,0|8
176,352,68571,5,0
272,352,68899,1,2
272,256,69227,1,0
368,256,69555,1,8
256,192,69719,12,8,70866
152,112,71194,5,0
248,112,71522,2,0,B|376:112,1,120,2|0
464,112,72178,1,8
464,208,72506,6,0,B|336:208,1,120,0|2
248,208,73161,1,0
152,208,73489,1,8
56,208,73817,6,0,B|56:336,1,120,0|2
152,328,74473,2,0,B|280:328,1,120,0|8
272,232,75129,2,0,B|400:232|400:232|392:232,3,120,4|6|4|12
392,232,76440,6,0,B|392:304|312:304,1,120,0|2
216,304,77096,2,0,B|144:304|144:224,1,120,0|2
144,128,77752,2,0,B|16:128,2,120,0|0|8
128,32,78735,5,0
224,32,79063,2,0,B|352:32,1,120,2|0
256,192,79719,12,0,81358
120,232,81686,6,0,B|120:304|200:304,1,120,2|0
296,304,82342,2,0,B|368:304|368:224,1,120,2|0
368,128,82997,2,0,B|432:128,3,60
424,32,83817,6,0,B|352:32|304:88,1,120,2|0
312,168,84473,2,0,B|296:232|208:240,1,120,2|0
128,224,85129,2,0,B|64:240|32:312,1,120,2|0
256,192,85620,12,0,86932
