osu file format v7

[General]
AudioFilename: [KTXP][Baka_to_Test_to_Shoukanjuu][01][GB][RV10]_part_avi2.mp3
AudioLeadIn: 1985
PreviewTime: 60716
Countdown: 0
SampleSet: Soft
StackLeniency: 0.7
Mode: 0
LetterboxInBreaks: 1

[Editor]
DistanceSpacing: 0.800000011920929
BeatDivisor: 4
GridSize: 8

[Metadata]
Title:Perfect-area complete! (TV Size)
Artist:Aso Natsuko
Creator:aesopl19193
Version:Insane
Source:Baka to Test to Shoukanjuu
Tags:climbb65588

[Difficulty]
HPDrainRate:5
CircleSize:4
OverallDifficulty:7
SliderMultiplier:1.4
SliderTickRate:1

[Events]
//Background and Video events
0,0,"1263224035240.jpg"
Video,0,"123.flv"
//Break Periods
//Storyboard Layer 0 (Background)
//Storyboard Layer 1 (Fail)
//Storyboard Layer 2 (Pass)
//Storyboard Layer 3 (Foreground)
Sprite,Foreground,Centre,"warning.png",320,240 M,0,73995,74159,606,83,324,65 F,0,73995,74159,1,0.948 F,0,74159,74323,0.948 M,0,74159,74460,324,65,319,78 F,0,74323,74487,0.948 M,0,74460,74733,319,78,323,88 F,0,74487,74651,0.948,0.944 F,0,74651,74815,0.944,0.948 M,0,74733,74979,323,88,321,47 F,0,74815,74979,0.948 M,0,74979,75143,321,47,331,436 F,0,74979,75143,0.948 M,0,75143,75307,331,436 F,0,75143,75307,0.948 F,0,75307,75388,0.948 M,0,75307,75470,331,436,339,415 F,0,75388,75470,0.948,1 F,0,75470,75552,1,0.948 M,0,75470,75634,339,415,320,438 F,0,75552,75634,0.948 F,0,75634,75716,0.948 M,0,75634,75798,320,438,309,408 F,0,75716,75798,0.948 M,0,75798,75962,309,408,166,403 F,0,75798,75962,0.948 M,0,75962,76044,166,403,25,403 F,0,75962,76044,0.948
//Storyboard Sound Samples
//Background Colour Transformations
3,100,163,162,255

[TimingPoints]
375,327.868852459016,4,2,0,100,1,0
9405,-100,4,1,0,80,0,0
47506,-100,4,2,0,100,0,0
55388,-100,4,1,0,50,0,0
55716,-100,4,1,0,59,0,0
56044,-100,4,1,0,69,0,0
60538,-100,4,1,0,80,0,1
74883,-50,4,1,0,81,0,1
76030,-100,4,1,0,81,0,1
80307,-100,4,1,0,38,0,1
80634,-100,4,1,0,49,0,1
80962,-100,4,1,0,59,0,1
81290,-100,4,1,0,70,0,1
81618,-100,4,1,0,80,0,1
85620,-100,4,1,0,0,0,1
87260,-100,4,1,0,70,0,0

[Colours]
Combo1 : 176,137,79
Combo2 : 254,118,254
Combo3 : 198,156,254
Combo4 : 208,198,4

[HitObjects]
80,64,375,1,2
440,328,1686,1,2
440,56,2997,5,2
304,160,3489,1,2
168,256,3981,1,2
80,320,4309,1,2
264,184,4965,1,2
352,120,5293,1,0
448,56,5620,5,2
448,280,6276,1,0
256,168,6932,1,0
64,48,7588,1,2
64,160,7915,1,0
64,160,8079,1,0
64,272,8407,1,0
64,272,8571,1,0
256,192,8653,12,4,9555
448,96,10866,5,0
464,152,11030,1,0
456,208,11194,1,0
384,296,11522,1,0
328,312,11686,1,0
272,320,11850,1,0
160,312,12178,6,0,B|120:320|96:280,1,70
64,240,12506,2,0,B|32:200|48:144,1,70
56,120,12834,1,0
128,32,13161,1,0
408,32,13489,5,0
408,32,13653,1,0
408,32,13817,1,0
248,144,14145,1,0
248,144,14309,1,0
248,144,14473,1,0
408,256,14801,5,0
408,256,14965,1,0
408,256,15129,2,0,B|480:256,2,70
296,256,15784,1,2
256,360,16112,6,0,B|160:368|112:312,1,140,0|8
56,232,16768,1,0
56,232,16932,1,0
56,232,17096,1,8
56,120,17424,5,0
128,32,17752,1,8
128,144,18079,1,0
96,192,18243,1,0
128,240,18407,1,8
208,320,18735,5,0
320,320,19063,1,8
368,296,19227,1,0
400,248,19391,1,0
408,192,19555,1,0
392,136,19719,1,8
368,88,19883,5,4
160,56,20211,1,4
56,240,20538,1,4
232,352,20866,1,4
288,192,21194,5,2
288,192,21276,1,0
288,192,21358,1,0
288,248,21522,1,0
344,248,21686,1,0
400,248,21850,2,0,B|432:176|392:112,1,140
336,112,22342,5,0
280,112,22506,2,0,B|240:192|280:256,1,140
312,288,22997,1,0
336,336,23161,2,0,B|256:336|192:336,1,140
136,336,23653,5,0
80,336,23817,2,0,B|80:256|80:280|80:216|80:192|80:192,1,140
104,144,24309,2,0,B|176:8|352:64|352:64,1,280
400,88,25129,1,8
256,192,25293,12,0,26276
128,64,26604,5,0
80,168,26932,1,2
176,232,27260,1,0
128,336,27588,1,8
240,336,27915,1,0
296,336,28079,1,0
352,336,28243,1,2
464,336,28571,1,0
464,224,28899,1,8
352,224,29227,5,0
304,256,29391,1,0
256,288,29555,2,0,B|176:336|112:272,1,140,2|0
80,256,30047,1,0
32,224,30211,1,8
40,112,30538,1,0
40,112,30866,1,2
152,112,31194,1,0
264,112,31522,1,8
320,112,31686,1,0
432,112,32014,5,0
376,112,32178,1,2
376,224,32506,1,0
320,224,32670,1,0
264,224,32834,1,8
152,224,33161,1,0
152,224,33489,1,2
152,336,33817,1,0
208,336,33981,1,0
264,336,34145,1,0
320,336,34309,1,0
264,280,34637,5,0
264,224,34801,1,2
264,168,34965,1,0
264,112,35129,1,0
376,112,35456,1,0
376,168,35620,1,0
376,224,35784,1,0
264,224,36112,1,0
208,224,36276,1,0
152,224,36440,2,0,B|152:152|152:152|152:160,2,70,0|8|8
320,72,37096,6,0,B|368:72|384:104|384:104,1,70,2|0
408,152,37424,2,0,B|440:184|408:224,1,70,2|0
400,272,37752,2,0,B|384:312|336:304,1,70,2|0
288,312,38079,2,0,B|248:328|240:368,2,70,2|0|2
288,256,38571,2,0,B|304:224|344:208,2,70,0|2|0
232,256,39063,1,0
176,256,39227,1,0
176,312,39391,1,0
120,312,39555,1,0
80,272,39719,6,0,B|40:248|64:192,1,70,2|0
64,152,40047,2,0,B|104:104|144:128,1,70,2|0
176,112,40374,2,0,B|232:104|216:56,2,70,2|0|2
192,168,40866,1,0
240,192,41030,1,2
352,192,41358,1,0
352,192,41522,1,0
352,192,41686,1,0
352,192,41850,1,0
352,192,42014,1,0
408,192,42178,5,0
408,192,42260,1,0
408,192,42342,1,0
408,80,42670,1,2
296,80,42997,1,2
256,120,43161,1,0
176,200,43489,1,0
216,160,43653,1,2
296,240,43981,1,2
376,320,44309,1,2
416,360,44473,1,0
336,280,44801,1,0
296,320,44965,5,2
256,352,45129,2,0,B|136:240,1,140
112,224,45620,1,2
32,144,45948,1,2
72,112,46112,1,0
168,48,46440,1,2
208,88,46604,1,2
248,128,46768,1,2
288,168,46932,1,6
136,328,47260,5,0
224,256,47588,6,2,B|216:344|312:336,1,140,2|2
392,256,48243,2,2,B|384:168|288:184,2,140
392,312,49063,1,0
336,312,49227,2,2,B|256:312,2,70
336,256,49719,1,0
336,200,49883,1,8
200,96,50211,6,2,B|208:184|112:176,1,140
32,96,50866,2,2,B|40:8|136:24,2,140
32,152,51686,1,0
88,152,51850,2,2,B|168:152,2,70
88,208,52342,1,0
88,264,52506,1,8
296,248,52834,6,2,B|352:192|408:136,1,140,2|2
504,152,53489,2,2,B|440:216|400:256,2,140
464,112,54309,1,0
424,72,54473,2,2,B|424:0,2,70
368,72,54965,2,0,B|368:112,2,35
312,72,55293,1,0
256,72,55456,5,0
144,72,55784,1,0
64,144,56112,1,0
64,256,56440,1,0
96,296,56604,1,0
144,328,56768,6,0,B|216:328,1,70,2|0
272,328,57096,1,0
328,328,57260,1,0
376,296,57424,2,0,B|376:208,1,70,2|0
376,168,57752,1,0
376,112,57915,1,0
320,104,58079,6,0,B|280:80|224:112,1,70,2|0
200,104,58407,2,0,B|144:112|136:168|136:168,1,70
104,184,58735,2,0,B|88:232|120:256,1,70
120,304,59063,1,0
144,296,59145,1,0
168,288,59227,6,0,B|208:216|288:232,1,140
312,232,59637,1,0
336,232,59719,1,0
360,224,59801,1,0
384,208,59883,2,0,B|416:168|408:120|408:120,1,70,0|0
400,88,60211,1,0
368,48,60374,1,0
312,32,60538,5,4
136,48,61030,1,2
88,88,61194,2,0,B|48:136|88:176|88:176|80:176,1,70
88,208,61522,1,0
120,256,61686,1,8
160,288,61850,6,0,B|112:352,2,70
208,312,62342,1,2
264,320,62506,1,0
320,328,62670,2,0,B|368:328|392:288,1,70
416,256,62997,1,8
440,208,63161,6,0,B|456:152|432:128,1,70,4|0
424,88,63489,2,0,B|464:64,2,35,0|0|2
376,56,63817,1,0
328,32,63981,2,0,B|248:32,2,70,0|0|8
328,88,64473,5,4
128,88,64801,1,4
128,288,65129,1,4
328,288,65456,1,4
328,88,65784,5,4
272,88,65948,2,0,B|192:88,1,70
144,88,66276,2,0,B|144:168,1,70,2|0
88,160,66604,6,0,B|16:160,2,70,0|0|8
88,216,67096,1,0
88,272,67260,1,0
88,328,67424,1,0
144,328,67588,2,0,B|224:328,1,70,2|0
272,328,67915,5,0
328,328,68079,2,0,B|328:248,1,70,0|8
328,200,68407,1,0
328,144,68571,2,0,B|416:144,2,70,0|0|2
272,144,69063,6,0,B|184:144|184:144|184:152,2,70
272,200,69555,1,8
256,312,69719,5,6
136,120,70047,1,6
360,120,70374,1,6
360,120,70538,1,0
360,120,70702,2,0,B|360:48,1,70
304,48,71030,6,0,B|160:48,1,140,0|0
160,104,71522,1,2
160,160,71686,1,0
160,216,71850,2,0,B|240:216,2,70,0|0|8
160,272,72342,2,0,B|88:272,2,70
216,272,72834,1,2
272,272,72997,6,0,B|272:344,2,70
328,272,73489,2,0,B|408:272,1,70,8|0
400,216,73817,1,0
400,160,73981,1,0
400,104,74145,2,0,B|248:104,2,140,2|0|8
232,48,74965,6,0,B|48:80|80:248,1,280,4|0
288,320,75620,2,0,B|464:304|440:120,1,280,4|0
440,72,76112,5,0
440,72,76276,1,0
384,72,76440,2,0,B|384:168|280:168,1,140,2|8
184,168,77096,2,0,B|96:168|96:264,1,140,2|8
184,320,77752,1,2
240,320,77915,1,0
296,320,78079,1,0
352,320,78243,1,2
464,320,78571,5,0
464,264,78735,1,0
464,208,78899,2,0,B|464:88|320:88,1,210,0|2
208,88,79719,2,0,B|136:88|136:88|128:88,1,70
80,88,80047,1,0
24,88,80211,1,0
24,144,80374,5,0
32,200,80538,1,0
56,248,80702,1,0
88,296,80866,1,0
136,328,81030,1,0
192,352,81194,1,0
248,360,81358,1,0
304,360,81522,1,0
360,360,81686,5,2
440,280,82014,1,0
360,200,82342,1,0
440,120,82670,1,2
360,88,82997,6,0,B|384:56|408:24,1,70
304,88,83325,2,0,B|256:152|256:152,1,70
232,192,83653,1,8
232,248,83817,6,0,B|224:288|184:296,1,70,6|0
128,296,84145,1,0
80,272,84309,1,8
48,224,84473,2,0,B|56:184|88:168,1,70,6|0
144,152,84801,1,0
200,168,84965,1,8
208,224,85129,2,0,B|256:224|280:224,1,70,6|4
336,224,85456,1,4
256,192,85620,12,0,86932
