osu file format v12

[General]
AudioFilename: Perfect-area complete!.mp3
AudioLeadIn: 2000
PreviewTime: 60397
Countdown: 0
SampleSet: Soft
StackLeniency: 0.7
Mode: 0
LetterboxInBreaks: 0

[Editor]
DistanceSpacing: 1
BeatDivisor: 4
GridSize: 4

[Metadata]
Title:Perfect-area complete! (TV Size)
TitleUnicode:Perfect-area complete! (TV Size)
Artist:Aso Natsuko
ArtistUnicode:麻生夏子
Creator:Kawayi Rika
Version:Rika
Source:Baka to Test to Shoukanjuu
Tags:opening No_Gu alacat バカとテストと召喚獣
BeatmapID:256696
BeatmapSetID:95624

[Difficulty]
HPDrainRate:7
CircleSize:4
OverallDifficulty:8
ApproachRate:9
SliderMultiplier:1.78
SliderTickRate:1

[Events]
//Background and Video events
0,0,"BG.jpg",0,0
Video,293,"Perfect-area complete!.avi"
//Break Periods
//Storyboard Layer 0 (Background)
//Storyboard Layer 1 (Fail)
//Storyboard Layer 2 (Pass)
//Storyboard Layer 3 (Foreground)
//Storyboard Sound Samples
//Background Colour Transformations
3,100,163,162,255

[TimingPoints]
316,327.868852459016,4,2,1,70,1,0
316,-133.333333333333,4,2,1,70,0,0
397,-133.333333333333,4,2,1,50,0,0
9496,-100,4,2,1,60,0,0
9578,-100,4,2,1,50,0,0
10479,-100,4,2,1,40,0,0
10807,-100,4,2,1,55,0,0
13430,-100,4,2,1,60,0,0
14906,-100,4,2,1,50,0,0
14988,-100,4,2,1,60,0,0
16053,-100,4,2,2,75,0,0
20643,-100,4,2,2,35,0,0
20971,-100,4,2,2,75,0,0
22447,-100,4,2,2,40,0,0
22693,-100,4,2,2,75,0,0
23922,-100,4,2,2,40,0,0
24906,-100,4,2,2,50,0,0
25397,-100,4,2,2,55,0,0
26545,-100,4,2,2,50,0,0
26627,-100,4,2,2,65,0,0
31135,-100,4,2,2,55,0,0
31791,-100,4,2,2,50,0,0
31873,-100,4,2,2,65,0,0
37037,-100,4,2,2,50,0,0
37119,-100,4,2,2,65,0,0
42283,-100,4,2,2,55,0,0
42365,-100,4,2,2,70,0,0
46381,-100,4,2,2,40,0,0
46545,-100,4,2,2,50,0,0
46709,-100,4,2,2,60,0,0
46873,-100,4,2,2,70,0,0
48020,-100,4,2,2,35,0,0
48266,-100,4,2,2,70,0,0
49332,-100,4,2,2,35,0,0
49578,-100,4,2,2,70,0,0
50152,-100,4,2,2,60,0,0
50234,-100,4,2,2,70,0,0
50643,-100,4,2,2,35,0,0
50889,-100,4,2,2,70,0,0
52775,-100,4,2,2,60,0,0
52856,-100,4,2,2,70,0,0
54496,-100,4,2,2,40,0,0
54742,-100,4,2,2,40,0,0
55397,-100,4,2,2,50,0,0
55479,-100,4,2,2,60,0,0
58020,-100,4,2,2,55,0,0
58348,-100,4,2,2,65,0,0
58676,-100,4,2,2,75,0,0
59004,-100,4,2,2,85,0,0
59496,-100,4,2,2,40,0,0
59988,-100,4,2,2,60,0,0
60479,-100,4,2,2,80,0,1
65397,-100,4,2,2,60,0,1
65479,-100,4,2,2,80,0,1
65889,-100,4,2,2,60,0,1
65971,-100,4,2,2,80,0,1
70971,-100,4,2,2,70,0,1
71053,-100,4,2,2,80,0,1
76381,-100,4,2,2,70,0,0
80315,-100,4,2,2,55,0,0
80643,-100,4,2,2,65,0,0
80971,-100,4,2,2,75,0,0
81299,-100,4,2,2,85,0,0
81627,-100,4,2,2,60,0,0
81709,-100,4,2,2,70,0,0
84906,-100,4,2,2,35,0,0
85234,-100,4,2,2,45,0,0
85561,-100,4,2,2,65,0,0
85643,-100,4,2,2,5,0,0

[Colours]
Combo1 : 255,38,38
Combo2 : 248,237,31
Combo3 : 50,216,245
Combo4 : 250,82,245
SliderBorder : 255,255,255

[HitObjects]
323,31,316,2,0,P|288:32|260:44,1,66.7500025463105,4|0,0:0|0:0,0:0:0:0:
310,112,643,2,0,P|342:124|378:125,1,66.7500025463105
416,56,971,1,0,0:0:0:0:
374,126,1135,1,0,0:0:0:0:
380,204,1299,1,0,0:0:0:0:
436,260,1463,1,0,0:0:0:0:
364,356,1627,6,0,P|328:348|296:328,1,66.7500025463105,4|0,0:0|0:0,0:0:0:0:
232,368,1955,2,0,P|200:352|173:323,1,66.7500025463105
104,356,2283,2,0,P|76:332|59:297,1,66.7500025463105
28,232,2611,1,0,0:0:0:0:
40,152,2775,1,0,0:0:0:0:
116,60,2938,6,0,P|176:40|248:48,1,133.500005092621,4|0,0:0|0:0,0:0:0:0:
312,92,3430,2,0,P|380:98|440:78,1,133.500005092621,4|0,0:0|0:0,0:0:0:0:
480,148,3922,2,0,P|508:207|500:275,1,133.500005092621,4|4,0:0|0:0,0:0:0:0:
440,324,4414,1,0,0:0:0:0:
364,356,4578,2,0,P|328:344|292:344,1,66.7500025463105
156,348,4906,2,0,P|192:360|220:360,2,66.7500025463105,4|0|4,0:0|0:0|0:0,0:0:0:0:
60,276,5397,5,0,0:0:0:0:
60,276,5479,1,0,0:0:0:0:
60,276,5561,2,0,P|32:212|44:144,1,133.500005092621,4|0,0:0|0:0,0:0:0:0:
128,28,6053,1,0,0:0:0:0:
192,76,6217,2,0,P|256:92|324:80,1,133.500005092621
476,56,6709,1,0,0:0:0:0:
456,132,6873,6,0,P|432:160|419:188,1,66.7500025463105,4|0,0:0|0:0,0:0:0:0:
448,264,7201,2,0,P|440:300|416:332,1,66.7500025463105
344,344,7529,2,0,B|308:344|308:344|248:360|248:360|212:360,1,133.500005092621
132,360,8020,1,0,0:0:0:0:
40,292,8184,5,4,0:0:0:0:
20,212,8348,1,0,0:0:0:0:
36,132,8512,1,0,0:0:0:0:
100,84,8676,1,0,0:0:0:0:
180,76,8840,1,0,0:0:0:0:
248,120,9004,1,0,0:0:0:0:
292,188,9168,1,0,0:0:0:0:
368,216,9332,1,0,0:0:0:0:
440,180,9496,1,4,3:0:0:0:
484,112,9660,6,0,P|437:193|455:275,1,178,2|0,0:0|0:0,0:0:0:0:
356,348,10152,2,0,P|292:364|228:344,1,133.5,2|0,0:0|0:0,0:0:0:0:
172,300,10479,2,0,L|172:256,2,44.5,8|8|8,0:0|0:0|0:0,0:0:0:0:
56,352,10807,5,8,0:0:0:0:
12,236,10971,1,8,0:0:0:0:
48,116,11135,2,0,P|80:92|128:80,1,89,8|0,0:0|0:0,0:0:0:0:
252,60,11463,1,8,0:0:0:0:
368,108,11627,1,8,0:0:0:0:
440,208,11791,2,0,P|408:232|360:244,1,89,8|0,0:0|0:0,0:0:0:0:
176,136,12119,6,0,P|220:148|256:176,1,89,8|0,0:0|0:0,0:0:0:0:
364,340,12447,2,0,P|320:328|284:300,1,89,8|0,0:0|0:0,0:0:0:0:
200,248,12775,2,0,L|216:292,2,44.5,8|0|0,0:0|0:0|0:0,0:0:0:0:
108,332,13102,1,8,0:0:0:0:
8,256,13266,1,8,0:0:0:0:
8,128,13430,5,8,0:0:0:0:
108,52,13594,1,8,0:0:0:0:
200,136,13758,2,0,L|216:92,2,44.5,8|0|0,0:0|0:0|0:0,0:0:0:0:
292,192,14086,1,8,0:0:0:0:
400,192,14250,1,0,0:0:0:0:
400,192,14414,2,0,L|492:192,1,89,8|0,0:0|0:0,0:0:0:0:
468,104,14742,5,8,0:0:0:0:
468,280,14906,1,8,0:0:0:0:
372,92,15070,1,8,0:0:0:0:
372,92,15152,1,0,0:0:0:0:
372,92,15234,1,8,0:0:0:0:
372,292,15397,1,8,0:0:0:0:
292,192,15561,1,8,0:0:0:0:
292,192,15643,1,0,0:0:0:0:
292,192,15725,1,8,0:0:0:0:
184,276,15889,6,0,P|104:308|16:284,1,178,8|0,0:0|0:0,0:0:0:0:
32,196,16381,2,0,L|52:92,1,89,8|0,0:0|0:0,0:0:0:0:
244,24,16709,2,0,L|228:112,1,89,0|0,0:0|0:0,0:0:0:0:
140,116,17037,1,8,0:0:0:0:
228,112,17201,6,0,P|313:89|393:121,1,178,0|0,0:0|0:0,0:0:0:0:
452,192,17693,2,0,P|468:236|464:284,1,89,8|0,0:0|0:0,0:0:0:0:
308,352,18020,2,0,P|292:308|296:260,2,89,0|0|8,0:0|0:0|0:0,0:0:0:0:
294,267,18512,2,0,P|209:290|129:258,1,178,0|0,0:0|0:0,0:0:0:0:
72,188,19004,6,0,P|44:156|-8:140,2,89,8|0|0,0:0|0:0|0:0,0:0:0:0:
44,272,19496,1,0,0:0:0:0:
72,188,19660,1,8,0:0:0:0:
132,120,19824,2,0,P|217:97|297:129,1,178,0|0,0:0|0:0,0:0:0:0:
456,56,20315,1,8,0:0:0:0:
456,56,20479,2,0,P|424:92|412:132,1,89,0|0,0:0|1:0,0:0:0:0:
428,152,20725,1,0,1:0:0:0:
444,172,20807,1,0,1:0:0:0:
460,192,20889,1,0,1:0:0:0:
476,212,20971,2,0,P|464:250|432:286,1,89,8|0,0:0|0:0,0:0:0:0:
328,352,21299,6,0,P|284:344|244:320,1,89
184,256,21627,1,8,0:0:0:0:
46,354,21791,2,0,P|90:346|128:324,1,89
184,256,22119,2,0,P|180:212|152:172,1,89,0|8,0:0|0:0,0:0:0:0:
104,100,22447,5,0,1:0:0:0:
104,100,22529,1,0,1:0:0:0:
104,100,22611,2,0,P|152:60|220:48,1,133.5,0|0,1:0|0:0,0:0:0:0:
260,64,22938,2,0,P|304:60|344:40,1,89,8|0,0:0|0:0,0:0:0:0:
428,72,23266,2,0,P|468:84|504:124,2,89,0|0|8,0:0|0:0|0:0,0:0:0:0:
420,160,23758,1,0,0:0:0:0:
368,292,23922,5,0,1:0:0:0:
340,316,24004,1,0,1:0:0:0:
304,324,24086,1,0,1:0:0:0:
268,316,24168,1,0,1:0:0:0:
240,288,24250,1,0,1:0:0:0:
216,264,24332,1,0,1:0:0:0:
184,248,24414,1,0,1:0:0:0:
148,240,24496,1,0,1:0:0:0:
112,248,24578,1,0,1:0:0:0:
82,268,24660,1,0,1:0:0:0:
68,300,24742,1,0,1:0:0:0:
72,336,24824,1,0,1:0:0:0:
139,313,24906,5,2,0:0:0:0:
52,200,25070,1,0,0:0:0:0:
176,56,25397,5,2,0:0:0:0:
308,132,25561,1,2,0:0:0:0:
380,8,25725,1,2,0:0:0:0:
236,8,25889,2,0,B|268:68|244:92|216:120|244:180,1,178,2|0,0:0|0:0,0:0:0:0:
452,272,26545,6,0,P|488:296|508:340,2,89,4|0|8,3:0|0:0|0:0,0:0:0:0:
420,356,27037,1,0,0:0:0:0:
332,348,27201,2,0,L|236:332,1,89
24,216,27529,2,0,L|111:230,1,89,8|0,0:0|0:0,0:0:0:0:
108,336,27856,6,0,P|164:304|196:244,1,133.5
196,216,28184,2,0,P|172:180|168:132,1,89,8|0,0:0|0:0,0:0:0:0:
220,64,28512,1,0,0:0:0:0:
304,32,28676,1,0,0:0:0:0:
392,52,28840,2,0,P|416:88|420:136,1,89,8|0,0:0|0:0,0:0:0:0:
352,236,29168,5,0,0:0:0:0:
432,276,29332,1,0,0:0:0:0:
356,324,29496,2,0,P|288:348|220:336,1,133.5,8|0,0:0|0:0,0:0:0:0:
204,328,29824,2,0,P|164:308|116:304,1,89
56,364,30152,2,0,P|36:324|36:280,1,89,8|0,0:0|0:0,0:0:0:0:
60,160,30479,5,0,0:0:0:0:
120,92,30643,1,0,0:0:0:0:
120,92,30725,1,0,0:0:0:0:
120,92,30807,2,0,L|208:92,1,89,8|0,0:0|0:0,0:0:0:0:
352,48,31135,1,8,0:0:0:0:
268,160,31299,1,8,0:0:0:0:
268,24,31463,1,8,0:0:0:0:
352,136,31627,1,8,0:0:0:0:
448,216,31791,6,0,P|416:248|400:292,1,89,4|0,3:0|0:0,0:0:0:0:
408,312,32037,1,0,0:0:0:0:
416,336,32119,2,0,L|328:348,1,89,8|0,0:0|0:0,0:0:0:0:
156,332,32447,2,0,P|136:292|138:248,2,89,0|0|8,0:0|0:0|0:0,0:0:0:0:
240,356,32938,1,0,0:0:0:0:
156,332,33102,6,0,P|112:348|68:344,1,89
72,168,33430,2,0,P|116:152|160:156,2,89,8|0|0,0:0|0:0|0:0,0:0:0:0:
60,256,33922,1,0,0:0:0:0:
60,256,34004,1,0,0:0:0:0:
60,256,34086,1,8,0:0:0:0:
80,80,34250,1,0,0:0:0:0:
204,32,34414,6,0,P|268:32|328:72,1,133.5
344,88,34742,2,0,P|380:112|432:120,1,89,8|0,0:0|0:0,0:0:0:0:
484,52,35070,1,0,0:0:0:0:
424,120,35234,1,0,0:0:0:0:
452,204,35397,2,0,P|484:236|496:284,1,89,8|0,0:0|0:0,0:0:0:0:
396,352,35725,5,8,0:0:0:0:
328,296,35889,1,0,0:0:0:0:
212,328,36053,1,8,0:0:0:0:
124,352,36217,1,0,0:0:0:0:
124,352,36299,1,0,0:0:0:0:
124,352,36381,1,8,0:0:0:0:
76,236,36545,1,8,0:0:0:0:
44,152,36709,1,8,0:0:0:0:
132,164,36873,1,8,0:0:0:0:
224,52,37037,6,0,P|288:48|348:80,1,133.5,4|0,3:0|0:0,0:0:0:0:
368,96,37365,2,0,P|404:120|456:124,1,89,8|0,0:0|0:0,0:0:0:0:
436,36,37693,1,0,0:0:0:0:
449,125,37856,1,0,0:0:0:0:
449,125,37938,1,0,0:0:0:0:
449,125,38020,2,0,L|477:221,1,89,8|0,0:0|0:0,0:0:0:0:
396,256,38348,5,0,0:0:0:0:
428,340,38512,1,0,0:0:0:0:
340,324,38676,2,0,L|248:336,1,89,8|0,0:0|0:0,0:0:0:0:
224,248,39004,2,0,L|140:276,1,89
52,275,39332,2,0,P|64:320|92:352,1,89,8|0,0:0|0:0,0:0:0:0:
224,248,39660,6,0,P|212:180|168:136,1,133.5
144,124,39988,2,0,P|116:92|104:48,1,89,8|0,0:0|0:0,0:0:0:0:
192,48,40315,1,0,0:0:0:0:
224,248,40479,1,0,0:0:0:0:
374,101,40643,2,0,P|336:124|292:128,1,89,8|0,0:0|0:0,0:0:0:0:
408,28,40971,6,0,L|500:60,1,89,8|0,0:0|0:0,0:0:0:0:
488,208,41299,2,0,L|403:178,2,89,8|0|8,0:0|0:0|0:0,0:0:0:0:
484,332,41791,1,8,0:0:0:0:
484,332,41955,1,8,0:0:0:0:
364,360,42119,1,8,0:0:0:0:
364,360,42283,1,4,3:0:0:0:
224,332,42447,6,0,P|180:316|153:284,2,89,0|8|0,0:0|0:0|0:0,0:0:0:0:
16,300,42938,2,0,P|36:264|76:240,1,89
152,196,43266,1,8,0:0:0:0:
88,48,43430,1,0,0:0:0:0:
16,96,43594,6,0,P|72:132|136:120,1,133.5
156,100,43922,2,0,L|244:76,1,89,8|0,0:0|0:0,0:0:0:0:
300,144,44250,2,0,L|396:162,1,89
484,36,44578,1,8,0:0:0:0:
460,120,44742,5,0,0:0:0:0:
460,120,44824,1,0,0:0:0:0:
460,120,44906,2,0,P|472:168|460:208,1,89
405,357,45234,2,0,P|393:309|404:272,2,89,8|0|0,0:0|0:0|0:0,0:0:0:0:
484,316,45725,1,0,0:0:0:0:
404,272,45889,1,8,0:0:0:0:
272,320,46053,6,0,P|192:352|104:336,1,178,0|8,0:0|0:0,0:0:0:0:
40,272,46545,1,8,0:0:0:0:
40,184,46709,1,8,0:0:0:0:
80,104,46873,2,0,P|160:72|248:88,1,178,8|0,0:0|0:0,0:0:0:0:
488,24,47529,6,0,P|432:56|400:124,1,133.5,4|0,3:0|0:0,0:0:0:0:
416,140,47856,2,0,L|468:224,1,89,8|0,0:0|1:0,0:0:0:0:
476,240,48102,1,0,1:0:0:0:
492,264,48184,2,0,P|457:298|421:314,1,89,0|0,1:0|0:0,0:0:0:0:
336,292,48512,1,8,0:0:0:0:
228,232,48676,2,0,P|144:204|56:220,1,178
92,340,49168,2,0,P|132:356|176:352,2,89,8|0|0,0:0|1:0|1:0,0:0:0:0:
92,44,49824,1,2,0:0:0:0:
256,104,50152,6,0,P|340:132|428:116,1,178,4|8,3:0|0:0,0:0:0:0:
488,52,50643,1,0,1:0:0:0:
488,52,50725,1,0,1:0:0:0:
488,52,50807,2,0,P|452:84|422:123,1,89,0|0,1:0|0:0,0:0:0:0:
468,196,51135,1,8,0:0:0:0:
428,276,51299,2,0,P|402:307|366:339,1,89
280,360,51627,1,0,0:0:0:0:
200,320,51791,2,0,P|156:320|112:328,1,89,8|8,0:0|0:0,0:0:0:0:
24,348,52119,1,0,0:0:0:0:
24,36,52447,1,2,0:0:0:0:
256,96,52775,6,0,P|324:96|372:56,1,133.5,4|0,3:0|0:0,0:0:0:0:
392,36,53102,2,0,P|436:40|476:60,1,89,8|0,0:0|0:0,0:0:0:0:
432,212,53430,2,0,P|388:208|348:188,2,89,0|0|8,0:0|0:0|0:0,0:0:0:0:
484,140,53922,6,0,P|436:204|424:300,1,178
312,356,54414,2,0,L|356:336,2,44.5,8|0|0,0:0|1:0|1:0,0:0:0:0:
188,372,54742,1,0,1:0:0:0:
152,364,54824,1,0,1:0:0:0:
124,344,54906,1,0,1:0:0:0:
100,316,54988,1,0,1:0:0:0:
92,280,55070,1,0,1:0:0:0:
92,244,55152,1,0,1:0:0:0:
108,212,55234,1,0,1:0:0:0:
136,188,55315,1,0,1:0:0:0:
172,180,55397,6,0,P|180:136|168:92,1,89,4|0,0:0|0:0,0:0:0:0:
8,48,55725,2,0,P|0:92|12:136,1,89,8|0,0:0|0:0,0:0:0:0:
169,94,56053,2,0,L|305:74,1,133.5
336,72,56381,2,0,P|347:114|339:158,1,89,8|0,0:0|0:0,0:0:0:0:
272,264,56709,5,0,0:0:0:0:
464,360,57037,1,8,0:0:0:0:
464,148,57365,1,8,0:0:0:0:
464,148,57529,1,8,0:0:0:0:
388,196,57693,1,8,0:0:0:0:
388,196,57856,1,8,0:0:0:0:
452,256,58020,6,0,P|416:280|368:280,1,89,8|0,0:0|0:0,0:0:0:0:
208,344,58348,2,0,P|177:311|168:269,1,89,8|0,0:0|0:0,0:0:0:0:
348,121,58676,2,0,P|379:153|388:196,1,89,8|0,0:0|0:0,0:0:0:0:
103,208,59004,2,0,P|139:184|184:184,1,89,8|0,0:0|0:0,0:0:0:0:
288,40,59496,5,0,0:0:0:0:
200,28,59660,1,0,0:0:0:0:
116,60,59824,1,0,0:0:0:0:
64,132,59988,5,8,0:0:0:0:
76,220,60152,1,8,0:0:0:0:
140,280,60315,1,8,0:0:0:0:
256,324,60479,6,0,P|296:340|344:332,2,89,4|0|0,0:0|0:0|0:0,0:0:0:0:
480,253,60971,2,0,P|440:237|396:244,1,89,8|0,0:0|0:0,0:0:0:0:
428,328,61299,1,0,0:0:0:0:
480,253,61463,2,0,L|504:161,1,89,0|8,0:0|0:0,0:0:0:0:
492,76,61791,2,0,P|428:56|364:64,1,133.5
340,76,62119,2,0,P|300:92|252:88,1,89,0|8,0:0|0:0,0:0:0:0:
144,32,62447,5,0,0:0:0:0:
64,72,62611,1,0,0:0:0:0:
48,160,62775,1,0,0:0:0:0:
100,232,62938,2,0,P|60:252|28:292,1,89,8|0,0:0|0:0,0:0:0:0:
100,232,63266,2,0,P|160:296|248:316,1,178,0|8,0:0|0:0,0:0:0:0:
336,324,63758,1,0,0:0:0:0:
412,276,63922,2,0,P|444:248|496:236,2,89,0|0|8,0:0|0:0|0:0,0:0:0:0:
484,328,64414,1,0,0:0:0:0:
489,236,64578,6,0,L|457:136,1,89
436,64,64906,1,8,0:0:0:0:
340,40,65070,2,0,P|248:28|164:48,1,178,0|8,0:0|0:0,0:0:0:0:
76,88,65561,1,8,0:0:0:0:
132,168,65725,2,0,P|152:208|152:260,1,89,8|4,0:0|0:0,0:0:0:0:
101,383,66053,2,0,P|81:343|80:300,2,89,0|8|0,0:0|0:0|0:0,0:0:0:0:
188,364,66545,5,0,0:0:0:0:
272,340,66709,2,0,L|364:312,1,89,0|8,0:0|0:0,0:0:0:0:
476,276,67037,2,0,P|476:188|416:124,1,178
248,76,67529,1,8,0:0:0:0:
336,92,67693,2,0,P|316:132|280:160,1,89
192,148,68020,2,0,P|157:175|137:215,1,89,0|8,0:0|0:0,0:0:0:0:
92,332,68348,6,0,B|156:340|156:340|192:392|260:376,1,178
232,292,68840,2,0,P|236:248|264:216,2,89,8|0|0,0:0|0:0|0:0,0:0:0:0:
320,312,69332,2,0,P|364:316|404:336,1,89,0|8,0:0|0:0,0:0:0:0:
480,236,69660,6,0,P|508:180|500:112,1,133.5
480,92,69988,2,0,L|412:16,1,89,0|8,0:0|0:0,0:0:0:0:
332,32,70315,2,0,P|288:24|244:32,1,89,0|8,0:0|0:0,0:0:0:0:
220,120,70643,1,8,0:0:0:0:
140,156,70807,1,8,0:0:0:0:
64,112,70971,1,4,0:0:0:0:
140,156,71135,6,0,P|92:208|84:268,1,133.5
88,296,71463,2,0,P|112:332|152:352,1,89,8|0,0:0|0:0,0:0:0:0:
240,336,71791,2,0,P|280:320|328:320,1,89
412,348,72119,1,8,0:0:0:0:
496,256,72283,2,0,P|516:176|476:88,1,178
412,32,72775,1,8,0:0:0:0:
324,48,72938,6,0,L|232:64,1,89
92,96,73266,1,0,0:0:0:0:
92,96,73348,1,0,0:0:0:0:
92,96,73430,1,8,0:0:0:0:
176,136,73594,2,0,P|124:184|56:184,1,133.5
60,212,73922,2,0,L|40:312,1,89,0|8,0:0|0:0,0:0:0:0:
116,352,74250,1,0,0:0:0:0:
276,272,74414,2,0,L|293:184,2,89,0|0|8,0:0|0:0|0:0,0:0:0:0:
200,320,74906,6,0,P|256:356|328:348,1,133.5
344,336,75234,2,0,P|376:312|424:308,1,89,0|8,0:0|0:0,0:0:0:0:
492,364,75561,1,0,0:0:0:0:
504,276,75725,1,8,0:0:0:0:
436,220,75889,1,8,0:0:0:0:
436,220,75971,1,0,0:0:0:0:
436,220,76053,2,0,L|412:124,1,89,8|8,0:0|0:0,0:0:0:0:
476,24,76381,6,0,B|428:24|428:24|388:40,1,89,4|0,0:0|0:0,0:0:0:0:
300,44,76709,2,0,B|261:59|261:59|213:59,1,89,8|0,0:0|0:0,0:0:0:0:
128,28,77037,2,0,B|76:52|76:52|72:100|32:120,1,133.5
44,144,77365,2,0,L|64:240,1,89,8|8,0:0|0:0,0:0:0:0:
16,368,77693,5,0,0:0:0:0:
88,320,77856,1,0,0:0:0:0:
176,312,78020,1,8,0:0:0:0:
260,336,78184,2,0,P|344:344|420:292,1,178
496,336,78676,1,8,0:0:0:0:
468,220,78840,5,8,0:0:0:0:
468,220,78922,1,0,0:0:0:0:
468,220,79004,2,0,L|448:128,1,89,8|0,0:0|0:0,0:0:0:0:
392,64,79332,2,0,L|300:60,1,89,8|0,0:0|0:0,0:0:0:0:
212,56,79660,1,8,0:0:0:0:
124,76,79824,1,0,0:0:0:0:
60,136,79988,1,8,0:0:0:0:
44,224,80152,1,8,0:0:0:0:
120,328,80315,6,0,P|156:356|200:360,1,89,8|0,0:0|0:0,0:0:0:0:
404,204,80643,2,0,P|368:176|325:171,1,89,8|0,0:0|0:0,0:0:0:0:
334,259,80971,2,0,P|288:265|256:292,1,89,8|0,0:0|0:0,0:0:0:0:
412,344,81299,2,0,P|457:338|490:311,1,89,8|8,0:0|0:0,0:0:0:0:
492,184,81627,6,0,P|480:120|440:64,1,133.5,4|0,0:0|0:0,0:0:0:0:
416,56,81955,2,0,P|372:48|328:56,1,89,8|0,0:0|0:0,0:0:0:0:
204,48,82283,1,0,0:0:0:0:
204,48,82447,1,0,0:0:0:0:
92,100,82611,1,8,0:0:0:0:
92,100,82775,1,8,0:0:0:0:
32,224,82938,2,0,P|32:268|48:312,1,89
120,360,83266,2,0,P|160:376|212:376,1,89,8|0,0:0|0:0,0:0:0:0:
288,344,83594,1,0,0:0:0:0:
392,272,83758,6,0,P|428:248|472:240,2,89,0|8|8,0:0|0:0|0:0,0:0:0:0:
296,192,84250,1,0,0:0:0:0:
392,112,84414,2,0,P|428:136|472:144,2,89,0|8|0,0:0|0:0|0:0,0:0:0:0:
296,192,84906,5,0,1:0:0:0:
260,192,84988,1,0,1:0:0:0:
224,192,85070,1,0,1:0:0:0:
188,192,85152,1,0,1:0:0:0:
152,192,85234,2,0,L|104:192,3,44.5,0|0|0|0,1:0|1:0|1:0|1:0,0:0:0:0:
72,192,85561,1,4,0:0:0:0:
256,192,85643,12,0,86873,0:0:0:0:
