osu file format v14

[General]
AudioFilename: aaa.mp3
AudioLeadIn: 0
PreviewTime: 54623
Countdown: 0
SampleSet: Soft
StackLeniency: 0.6
Mode: 3
LetterboxInBreaks: 0
SpecialStyle: 0
WidescreenStoryboard: 0

[Editor]
Bookmarks: 3031,27262,31218
DistanceSpacing: 1
BeatDivisor: 4
GridSize: 4
TimelineZoom: 1.9

[Metadata]
Title:More-more LOVERS!!(TV ver.)
TitleUnicode:More-more LOVERS!!(TV ver.)
Artist:Aso Natsuko
ArtistUnicode:麻生夏子
Creator:-[BURGERKILL]-
Version:Lv.14
Source:えむえむっ!
Tags:ending emuemu MM! isurugi mio yuno arashiko
BeatmapID:501303
BeatmapSetID:213202

[Difficulty]
HPDrainRate:8
CircleSize:4
OverallDifficulty:8
ApproachRate:5
SliderMultiplier:1.2
SliderTickRate:1

[Events]
//Background and Video events
0,0,"bg.jpg",0,0
//Break Periods
//Storyboard Layer 0 (Background)
//Storyboard Layer 1 (Fail)
//Storyboard Layer 2 (Pass)
//Storyboard Layer 3 (Foreground)
//Storyboard Sound Samples

[TimingPoints]
887,329.67032967033,4,2,1,10,1,0
54952,-100,4,2,1,10,0,1
70777,-100,4,2,1,10,0,0

[HitObjects]
192,192,557,128,0,887:0:0:0:0:
64,192,887,5,0,0:0:0:43:soft-hitwhistle.wav
320,192,887,1,0,0:0:0:0:
448,192,887,1,0,0:0:0:0:
320,192,1216,128,0,1381:0:0:0:0:
448,192,1381,128,0,1546:0:0:0:0:
64,192,1546,128,0,1711:0:0:0:0:
320,192,1711,128,0,1876:0:0:0:0:
192,192,1876,128,0,2040:0:0:0:0:
64,192,2040,128,0,2205:0:0:0:0:
192,192,2205,1,0,0:0:0:0:
448,192,2205,128,0,2370:0:0:0:70:soft-hitclap.wav
320,192,2370,128,0,2535:0:0:0:0:
192,192,2370,1,0,0:0:0:70:soft-hitclap.wav
64,192,2535,128,0,2700:0:0:0:0:
448,192,2535,1,0,0:0:0:70:soft-hitclap.wav
192,192,2700,128,0,3029:0:0:0:0:
448,192,2700,1,0,0:0:0:70:soft-hitclap.wav
448,192,3029,128,0,3194:0:0:0:0:
64,192,3194,128,0,3359:0:0:0:0:
320,192,3359,128,0,3524:0:0:0:0:
192,192,3524,128,0,3854:0:0:0:0:
448,192,3854,1,0,0:0:0:70:soft-hitclap.wav
64,192,3854,1,0,0:0:0:0:
192,192,4183,128,0,4348:0:0:0:0:
448,192,4183,1,0,0:0:0:0:
320,192,4348,128,0,4513:0:0:0:0:
64,192,4513,128,0,4678:0:0:0:0:
192,192,4513,1,0,0:0:0:70:soft-hitclap.wav
448,192,4678,128,0,4843:0:0:0:0:
192,192,4843,128,0,5007:0:0:0:0:
64,192,4843,1,0,0:0:0:70:soft-hitclap.wav
320,192,5007,128,0,5172:0:0:0:0:
448,192,5007,1,0,0:0:0:70:soft-hitclap.wav
64,192,5172,128,0,5337:0:0:0:0:
192,192,5172,1,0,0:0:0:70:soft-hitclap.wav
448,192,5337,128,0,6161:0:0:0:0:
320,192,5337,1,0,0:0:0:70:soft-hitclap.wav
192,192,5502,1,0,0:0:0:0:
64,192,5667,1,0,0:0:0:0:
192,192,5832,128,0,6161:0:0:0:0:
320,192,5832,1,0,0:0:0:0:
64,192,6161,1,0,0:0:0:50:soft-hitwhistle.wav
320,192,6161,1,0,0:0:0:0:
320,192,6326,1,0,0:0:0:0:
448,192,6491,1,0,0:0:0:43:soft-hitwhistle.wav
64,192,6491,1,0,0:0:0:0:
64,192,6656,1,0,0:0:0:0:
192,192,6738,1,0,0:0:0:0:
320,192,6821,1,0,0:0:0:0:
448,192,6821,1,0,0:0:0:43:soft-hitwhistle.wav
192,192,6985,1,0,0:0:0:0:
64,192,7150,1,0,0:0:0:0:
448,192,7150,1,0,0:0:0:43:soft-hitwhistle.wav
320,192,7315,1,0,0:0:0:0:
64,192,7480,1,0,0:0:0:0:
192,192,7480,1,0,0:0:0:43:soft-hitwhistle.wav
192,192,7645,1,0,0:0:0:0:
448,192,7810,1,0,0:0:0:43:soft-hitwhistle.wav
320,192,7810,1,0,0:0:0:0:
320,192,7974,1,0,0:0:0:0:
192,192,8057,1,0,0:0:0:0:
64,192,8139,1,0,0:0:0:0:
320,192,8139,1,0,0:0:0:43:soft-hitwhistle.wav
192,192,8304,1,0,0:0:0:0:
448,192,8469,1,0,0:0:0:43:soft-hitwhistle.wav
64,192,8469,1,0,0:0:0:0:
192,192,8551,1,0,0:0:0:0:
320,192,8634,1,0,0:0:0:0:
64,192,8799,1,0,0:0:0:0:
192,192,8799,1,0,0:0:0:43:soft-hitwhistle.wav
192,192,8963,1,0,0:0:0:0:
320,192,9128,1,0,0:0:0:0:
448,192,9128,1,0,0:0:0:43:soft-hitwhistle.wav
64,192,9293,1,0,0:0:0:0:
192,192,9376,1,0,0:0:0:0:
320,192,9458,1,0,0:0:0:0:
448,192,9458,1,0,0:0:0:43:soft-hitwhistle.wav
320,192,9623,1,0,0:0:0:0:
64,192,9788,1,0,0:0:0:43:soft-hitwhistle.wav
320,192,9788,1,0,0:0:0:0:
192,192,9952,1,0,0:0:0:0:
320,192,10035,1,0,0:0:0:0:
192,192,10117,1,0,0:0:0:0:
448,192,10117,1,0,0:0:0:43:soft-hitwhistle.wav
320,192,10200,1,0,0:0:0:0:
192,192,10282,1,0,0:0:0:0:
64,192,10365,1,0,0:0:0:0:
192,192,10447,1,0,0:0:0:0:
320,192,10447,1,0,0:0:0:43:soft-hitwhistle.wav
448,192,10529,1,0,0:0:0:0:
320,192,10612,1,0,0:0:0:0:
192,192,10694,1,0,0:0:0:0:
64,192,10777,1,0,0:0:0:43:soft-hitwhistle.wav
320,192,10777,1,0,0:0:0:0:
192,192,10859,1,0,0:0:0:0:
320,192,10941,1,0,0:0:0:0:
448,192,11024,1,0,0:0:0:0:
64,192,11106,1,0,0:0:0:0:
320,192,11106,1,0,0:0:0:43:soft-hitwhistle.wav
192,192,11189,1,0,0:0:0:0:
64,192,11271,1,0,0:0:0:0:
192,192,11354,1,0,0:0:0:0:
320,192,11436,1,0,0:0:0:43:soft-hitwhistle.wav
448,192,11436,1,0,0:0:0:43:soft-hitwhistle.wav
192,192,11601,1,0,0:0:0:0:
64,192,11766,1,0,0:0:0:0:
320,192,11766,1,0,0:0:0:43:soft-hitwhistle.wav
192,192,11930,1,0,0:0:0:0:
320,192,12095,1,0,0:0:0:0:
448,192,12095,1,0,0:0:0:43:soft-hitwhistle.wav
192,192,12095,1,0,0:0:0:0:
64,192,12260,1,0,0:0:0:0:
192,192,12425,1,0,0:0:0:0:
320,192,12425,1,0,0:0:0:43:soft-hitwhistle.wav
64,192,12425,1,0,0:0:0:0:
448,192,12590,1,0,0:0:0:0:
64,192,12755,1,0,0:0:0:0:
192,192,12755,1,0,0:0:0:0:
448,192,12755,1,0,0:0:0:43:soft-hitwhistle.wav
448,192,12919,1,0,0:0:0:0:
192,192,12919,1,0,0:0:0:0:
64,192,13084,1,0,0:0:0:0:
192,192,13084,1,0,0:0:0:0:
320,192,13084,1,0,0:0:0:43:soft-hitwhistle.wav
320,192,13249,1,0,0:0:0:0:
448,192,13249,1,0,0:0:0:0:
192,192,13414,1,0,0:0:0:0:
320,192,13414,1,0,0:0:0:0:
448,192,13414,1,0,0:0:0:43:soft-hitwhistle.wav
64,192,13579,1,0,0:0:0:0:
192,192,13579,1,0,0:0:0:0:
64,192,13744,1,0,0:0:0:0:
192,192,13744,1,0,0:0:0:0:
320,192,13744,1,0,0:0:0:43:soft-hitwhistle.wav
320,192,13908,1,0,0:0:0:0:
64,192,14073,1,0,0:0:0:0:
192,192,14073,1,0,0:0:0:43:soft-hitwhistle.wav
448,192,14073,1,0,0:0:0:0:
320,192,14403,128,0,15062:0:0:0:43:soft-hitwhistle.wav
448,192,14403,1,0,0:0:0:0:
64,192,14403,128,0,15227:0:0:0:0:
192,192,14403,1,0,0:0:0:0:
448,192,15392,1,0,0:0:0:43:soft-hitclap.wav
320,192,15474,1,0,0:0:0:43:soft-hitclap.wav
192,192,15557,1,0,0:0:0:43:soft-hitclap.wav
64,192,15639,1,0,0:0:0:43:soft-hitclap.wav
192,192,15722,1,0,0:0:0:43:soft-hitclap.wav
448,192,15804,1,0,0:0:0:43:soft-hitclap.wav
320,192,15887,1,0,0:0:0:43:soft-hitclap.wav
192,192,15969,1,0,0:0:0:43:soft-hitclap.wav
320,192,16051,1,0,0:0:0:43:soft-hitclap.wav
448,192,16134,1,0,0:0:0:43:soft-hitclap.wav
320,192,16216,1,0,0:0:0:43:soft-hitclap.wav
192,192,16299,1,0,0:0:0:43:soft-hitclap.wav
320,192,16381,1,0,0:0:0:43:soft-hitclap.wav
64,192,16381,1,0,0:0:0:0:
192,192,16463,1,0,0:0:0:43:soft-hitclap.wav
320,192,16546,1,0,0:0:0:43:soft-hitclap.wav
192,192,16628,1,0,0:0:0:43:soft-hitclap.wav
64,192,16711,1,0,0:0:0:43:soft-hitclap.wav
448,192,16711,1,0,0:0:0:0:
320,192,16876,1,0,0:0:0:0:
192,192,16876,1,0,0:0:0:0:
192,192,17040,1,0,0:0:0:0:
448,192,17040,1,0,0:0:0:43:soft-hitclap.wav
320,192,17040,1,0,0:0:0:0:
64,192,17205,1,0,0:0:0:0:
320,192,17205,1,0,0:0:0:0:
192,192,17370,1,0,0:0:0:0:
448,192,17370,1,0,0:0:0:43:soft-hitwhistle.wav
64,192,17535,1,0,0:0:0:0:
320,192,17535,1,0,0:0:0:0:
320,192,17700,1,0,0:0:0:0:
64,192,17700,1,0,0:0:0:0:
448,192,17700,1,0,0:0:0:43:soft-hitclap.wav
192,192,17865,1,0,0:0:0:0:
320,192,17865,1,0,0:0:0:0:
64,192,18029,1,0,0:0:0:0:
448,192,18029,1,0,0:0:0:43:soft-hitwhistle.wav
64,192,18194,1,0,0:0:0:0:
192,192,18194,1,0,0:0:0:0:
192,192,18359,1,0,0:0:0:0:
320,192,18359,1,0,0:0:0:0:
448,192,18359,1,0,0:0:0:43:soft-hitclap.wav
320,192,18524,1,0,0:0:0:0:
448,192,18524,1,0,0:0:0:0:
192,192,18689,1,0,0:0:0:0:
320,192,18689,1,0,0:0:0:43:soft-hitwhistle.wav
64,192,18854,1,0,0:0:0:0:
192,192,18854,1,0,0:0:0:0:
64,192,19018,1,0,0:0:0:0:
320,192,19018,1,0,0:0:0:0:
448,192,19018,1,0,0:0:0:43:soft-hitclap.wav
64,192,19183,1,0,0:0:0:0:
192,192,19183,1,0,0:0:0:0:
320,192,19348,1,0,0:0:0:0:
448,192,19348,1,0,0:0:0:43:soft-hitwhistle.wav
64,192,19513,1,0,0:0:0:0:
192,192,19513,1,0,0:0:0:0:
192,192,19678,1,0,0:0:0:43:soft-hitclap.wav
448,192,19678,1,0,0:0:0:0:
64,192,19678,1,0,0:0:0:0:
448,192,19843,1,0,0:0:0:0:
192,192,19843,1,0,0:0:0:0:
320,192,19925,1,0,0:0:0:0:
192,192,20007,1,0,0:0:0:43:soft-hitwhistle.wav
64,192,20007,1,0,0:0:0:0:
448,192,20172,1,0,0:0:0:0:
320,192,20172,1,0,0:0:0:0:
192,192,20337,1,0,0:0:0:43:soft-hitclap.wav
64,192,20337,1,0,0:0:0:0:
320,192,20337,1,0,0:0:0:0:
64,192,20502,1,0,0:0:0:0:
448,192,20502,1,0,0:0:0:0:
192,192,20584,1,0,0:0:0:0:
64,192,20667,1,0,0:0:0:0:
320,192,20667,1,0,0:0:0:43:soft-hitwhistle.wav
448,192,20749,1,0,0:0:0:0:
320,192,20832,1,0,0:0:0:0:
64,192,20832,1,0,0:0:0:0:
192,192,20914,1,0,0:0:0:0:
64,192,20996,1,0,0:0:0:0:
320,192,20996,1,0,0:0:0:43:soft-hitclap.wav
448,192,20996,1,0,0:0:0:0:
192,192,21079,1,0,0:0:0:0:
64,192,21161,1,0,0:0:0:0:
320,192,21161,1,0,0:0:0:0:
448,192,21244,1,0,0:0:0:0:
320,192,21326,1,0,0:0:0:43:soft-hitwhistle.wav
64,192,21326,1,0,0:0:0:0:
192,192,21408,1,0,0:0:0:0:
64,192,21491,1,0,0:0:0:0:
448,192,21491,1,0,0:0:0:0:
320,192,21573,1,0,0:0:0:0:
192,192,21656,1,0,0:0:0:43:soft-hitclap.wav
448,192,21656,1,0,0:0:0:0:
64,192,21656,1,0,0:0:0:0:
320,192,21738,1,0,0:0:0:0:
64,192,21821,1,0,0:0:0:0:
192,192,21821,1,0,0:0:0:0:
448,192,21903,1,0,0:0:0:0:
320,192,21985,1,0,0:0:0:0:
64,192,21985,1,0,0:0:0:0:
192,192,21985,1,0,0:0:0:0:
192,192,22150,1,0,0:0:0:0:
320,192,22150,1,0,0:0:0:0:
64,192,22315,1,0,0:0:0:0:
192,192,22315,1,0,0:0:0:43:soft-hitclap.wav
320,192,22480,1,0,0:0:0:0:
192,192,22562,1,0,0:0:0:0:
320,192,22645,1,0,0:0:0:70:soft-hitwhistle.wav
64,192,22645,1,0,0:0:0:0:
192,192,22810,1,0,0:0:0:0:
448,192,22810,1,0,0:0:0:0:
64,192,22974,1,0,0:0:0:0:
192,192,22974,1,0,0:0:0:43:soft-hitclap.wav
320,192,22974,1,0,0:0:0:0:
448,192,23139,1,0,0:0:0:0:
320,192,23139,1,0,0:0:0:0:
64,192,23139,1,0,0:0:0:0:
192,192,23304,1,0,0:0:0:0:
320,192,23304,1,0,0:0:0:0:
192,192,23469,1,0,0:0:0:0:
64,192,23469,1,0,0:0:0:0:
192,192,23634,1,0,0:0:0:0:
320,192,23634,1,0,0:0:0:0:
448,192,23634,1,0,0:0:0:70:soft-hitclap.wav
320,192,23799,1,0,0:0:0:0:
448,192,23881,1,0,0:0:0:0:
192,192,23963,1,0,0:0:0:0:
320,192,23963,1,0,0:0:0:70:soft-hitwhistle.wav
448,192,24128,1,0,0:0:0:0:
64,192,24128,1,0,0:0:0:0:
320,192,24293,1,0,0:0:0:0:
448,192,24293,1,0,0:0:0:70:soft-hitclap.wav
192,192,24293,1,0,0:0:0:0:
192,192,24458,1,0,0:0:0:0:
320,192,24458,1,0,0:0:0:0:
64,192,24623,1,0,0:0:0:43:soft-hitwhistle.wav
448,192,24623,1,0,0:0:0:0:
192,192,24788,1,0,0:0:0:0:
320,192,24788,1,0,0:0:0:0:
64,192,24952,1,0,0:0:0:0:
320,192,24952,1,0,0:0:0:43:soft-hitclap.wav
448,192,24952,1,0,0:0:0:0:
320,192,25117,1,0,0:0:0:0:
192,192,25200,1,0,0:0:0:0:
64,192,25282,1,0,0:0:0:0:
320,192,25282,1,0,0:0:0:43:soft-hitwhistle.wav
192,192,25447,1,0,0:0:0:0:
320,192,25447,1,0,0:0:0:0:
64,192,25612,1,0,0:0:0:0:
192,192,25612,1,0,0:0:0:43:soft-hitclap.wav
448,192,25612,1,0,0:0:0:0:
320,192,25777,1,0,0:0:0:0:
64,192,25777,1,0,0:0:0:0:
320,192,25941,1,0,0:0:0:43:soft-hitwhistle.wav
448,192,25941,128,0,26106:0:0:0:0:
192,192,26106,128,0,26271:0:0:0:0:
64,192,26106,1,0,0:0:0:43:soft-hitwhistle.wav
320,192,26271,128,0,26436:0:0:0:43:soft-hitwhistle.wav
448,192,26271,1,0,0:0:0:0:
64,192,26436,128,0,26766:0:0:0:43:soft-hitwhistle.wav
192,192,26436,1,0,0:0:0:0:
192,192,26766,1,0,0:0:0:0:
448,192,26930,1,0,0:0:0:43:soft-hitclap.wav
320,192,26930,1,0,0:0:0:0:
192,192,27095,1,0,0:0:0:50:soft-hitwhistle.wav
320,192,27095,1,0,0:0:0:0:
64,192,27260,1,0,0:0:0:0:
448,192,27260,1,0,0:0:0:50:soft-hitwhistle.wav
320,192,27425,128,0,27590:0:0:0:0:
64,192,27425,1,0,0:0:0:0:
192,192,27590,1,0,0:0:0:43:soft-hitclap.wav
448,192,27590,1,0,0:0:0:0:
64,192,27755,128,0,27919:0:0:0:0:
320,192,27755,1,0,0:0:0:0:
448,192,27919,1,0,0:0:0:43:soft-hitwhistle.wav
320,192,28084,128,0,28249:0:0:0:0:
192,192,28084,1,0,0:0:0:0:
64,192,28249,1,0,0:0:0:43:soft-hitclap.wav
448,192,28249,1,0,0:0:0:0:
64,192,28414,128,0,28579:0:0:0:0:
448,192,28414,1,0,0:0:0:0:
320,192,28579,1,0,0:0:0:43:soft-hitwhistle.wav
448,192,28744,128,0,28908:0:0:0:0:
192,192,28744,1,0,0:0:0:0:
64,192,28908,1,0,0:0:0:43:soft-hitclap.wav
320,192,28908,1,0,0:0:0:0:
192,192,29073,128,0,29238:0:0:0:0:
320,192,29073,1,0,0:0:0:0:
448,192,29238,1,0,0:0:0:43:soft-hitwhistle.wav
320,192,29403,128,0,29568:0:0:0:0:
64,192,29403,1,0,0:0:0:0:
192,192,29568,1,0,0:0:0:43:soft-hitclap.wav
448,192,29568,1,0,0:0:0:0:
64,192,29733,128,0,29897:0:0:0:0:
448,192,29733,1,0,0:0:0:0:
320,192,29897,1,0,0:0:0:43:soft-hitwhistle.wav
448,192,30062,128,0,30227:0:0:0:0:
192,192,30062,1,0,0:0:0:0:
64,192,30227,1,0,0:0:0:43:soft-hitclap.wav
320,192,30227,1,0,0:0:0:0:
192,192,30392,128,0,30557:0:0:0:0:
320,192,30392,1,0,0:0:0:0:
448,192,30557,1,0,0:0:0:43:soft-hitwhistle.wav
320,192,30722,128,0,30887:0:0:0:0:
64,192,30722,1,0,0:0:0:0:
192,192,30887,1,0,0:0:0:43:soft-hitclap.wav
448,192,30887,1,0,0:0:0:0:
448,192,31051,128,0,31216:0:0:0:0:
64,192,31051,1,0,0:0:0:0:
192,192,31216,1,0,0:0:0:43:soft-hitwhistle.wav
320,192,31216,1,0,0:0:0:0:
64,192,31299,1,0,0:0:0:0:
192,192,31381,1,0,0:0:0:0:
320,192,31463,1,0,0:0:0:0:
64,192,31546,1,0,0:0:0:43:soft-hitclap.wav
448,192,31546,1,0,0:0:0:0:
192,192,31628,1,0,0:0:0:0:
320,192,31711,1,0,0:0:0:0:
192,192,31793,1,0,0:0:0:0:
448,192,31876,1,0,0:0:0:45:soft-hitwhistle.wav
64,192,31876,1,0,0:0:0:0:
192,192,31958,1,0,0:0:0:0:
448,192,32040,1,0,0:0:0:0:
320,192,32123,1,0,0:0:0:0:
192,192,32205,1,0,0:0:0:45:soft-hitclap.wav
64,192,32205,1,0,0:0:0:0:
320,192,32288,1,0,0:0:0:0:
448,192,32370,1,0,0:0:0:0:
320,192,32452,1,0,0:0:0:0:
64,192,32535,1,0,0:0:0:43:soft-hitwhistle.wav
448,192,32535,1,0,0:0:0:0:
192,192,32700,128,0,32865:0:0:0:0:
320,192,32700,1,0,0:0:0:0:
64,192,32865,1,0,0:0:0:43:soft-hitclap.wav
448,192,32865,1,0,0:0:0:0:
448,192,33029,128,0,33194:0:0:0:0:
320,192,33029,1,0,0:0:0:0:
192,192,33194,1,0,0:0:0:43:soft-hitwhistle.wav
192,192,33359,128,0,33524:0:0:0:0:
320,192,33359,1,0,0:0:0:0:
448,192,33524,1,0,0:0:0:43:soft-hitclap.wav
64,192,33524,1,0,0:0:0:0:
64,192,33689,128,0,33854:0:0:0:0:
192,192,33689,1,0,0:0:0:0:
320,192,33854,1,0,0:0:0:43:soft-hitwhistle.wav
320,192,34018,128,0,34183:0:0:0:0:
192,192,34018,1,0,0:0:0:0:
64,192,34183,1,0,0:0:0:43:soft-hitclap.wav
448,192,34183,1,0,0:0:0:0:
448,192,34348,128,0,34513:0:0:0:0:
192,192,34348,1,0,0:0:0:0:
320,192,34513,1,0,0:0:0:43:soft-hitwhistle.wav
64,192,34678,128,0,34843:0:0:0:0:
192,192,34678,1,0,0:0:0:0:
448,192,34843,1,0,0:0:0:43:soft-hitclap.wav
320,192,34843,1,0,0:0:0:0:
320,192,35007,128,0,35172:0:0:0:0:
192,192,35172,128,0,35337:0:0:0:0:
448,192,35172,1,0,0:0:0:43:soft-hitwhistle.wav
64,192,35337,128,0,35667:0:0:0:0:
448,192,35502,1,0,0:0:0:43:soft-hitclap.wav
320,192,35502,1,0,0:0:0:0:
192,192,35667,128,0,35832:0:0:0:0:
320,192,35832,128,0,36161:0:0:0:43:soft-hitwhistle.wav
448,192,35832,1,0,0:0:0:0:
64,192,36161,1,0,0:0:0:43:soft-hitclap.wav
192,192,36161,128,0,36326:0:0:0:0:
448,192,36326,128,0,36656:0:0:0:0:
64,192,36491,1,0,0:0:0:43:soft-hitwhistle.wav
192,192,36656,128,0,36821:0:0:0:0:
64,192,36821,128,0,36985:0:0:0:0:
320,192,36821,1,0,0:0:0:43:soft-hitclap.wav
320,192,36985,128,0,37150:0:0:0:0:
448,192,36985,1,0,0:0:0:43:soft-hitclap.wav
64,192,37480,128,0,37810:0:0:0:0:
192,192,37810,128,0,38469:0:0:0:0:
448,192,37810,1,0,0:0:0:43:soft-hitwhistle.wav
320,192,38139,1,0,0:0:0:43:soft-hitclap.wav
64,192,38139,1,0,0:0:0:0:
448,192,38304,1,0,0:0:0:43:soft-hitwhistle.wav
320,192,38387,1,0,0:0:0:43:soft-hitwhistle.wav
448,192,38469,128,0,39128:0:0:0:0:
64,192,38469,1,0,0:0:0:43:soft-hitwhistle.wav
320,192,38634,1,0,0:0:0:0:
192,192,38799,1,0,0:0:0:0:
64,192,38799,1,0,0:0:0:43:soft-hitclap.wav
320,192,38963,1,0,0:0:0:0:
64,192,39128,128,0,39788:0:0:0:0:
192,192,39128,1,0,0:0:0:43:soft-hitwhistle.wav
320,192,39458,1,0,0:0:0:43:soft-hitclap.wav
448,192,39458,1,0,0:0:0:0:
192,192,39623,1,0,0:0:0:43:soft-hitwhistle.wav
320,192,39705,1,0,0:0:0:43:soft-hitwhistle.wav
192,192,39788,128,0,40447:0:0:0:0:
448,192,39788,1,0,0:0:0:43:soft-hitwhistle.wav
320,192,39952,1,0,0:0:0:0:
64,192,40117,1,0,0:0:0:0:
448,192,40117,1,0,0:0:0:43:soft-hitclap.wav
320,192,40282,1,0,0:0:0:0:
448,192,40282,1,0,0:0:0:0:
448,192,40447,128,0,41106:0:0:0:0:
64,192,40447,1,0,0:0:0:43:soft-hitwhistle.wav
192,192,40777,1,0,0:0:0:43:soft-hitclap.wav
320,192,40777,1,0,0:0:0:0:
64,192,40941,1,0,0:0:0:43:soft-hitwhistle.wav
192,192,41024,1,0,0:0:0:43:soft-hitwhistle.wav
64,192,41106,128,0,41766:0:0:0:0:
320,192,41106,1,0,0:0:0:43:soft-hitwhistle.wav
448,192,41271,1,0,0:0:0:0:
192,192,41436,1,0,0:0:0:43:soft-hitclap.wav
320,192,41436,1,0,0:0:0:0:
448,192,41601,1,0,0:0:0:0:
320,192,41766,128,0,42425:0:0:0:0:
192,192,41766,1,0,0:0:0:43:soft-hitwhistle.wav
64,192,41930,1,0,0:0:0:0:
448,192,42095,1,0,0:0:0:0:
192,192,42095,1,0,0:0:0:43:soft-hitclap.wav
64,192,42260,1,0,0:0:0:43:soft-hitwhistle.wav
192,192,42343,1,0,0:0:0:43:soft-hitwhistle.wav
64,192,42425,128,0,42919:0:0:0:0:
448,192,42425,1,0,0:0:0:43:soft-hitwhistle.wav
320,192,42590,1,0,0:0:0:43:soft-hitclap.wav
448,192,42590,1,0,0:0:0:0:
320,192,42755,1,0,0:0:0:43:soft-hitclap.wav
448,192,42755,1,0,0:0:0:0:
192,192,42919,128,0,43084:0:0:0:0:
320,192,43084,1,0,0:0:0:43:soft-hitwhistle.wav
448,192,43084,1,0,0:0:0:0:
320,192,43249,128,0,43414:0:0:0:0:
64,192,43414,1,0,0:0:0:43:soft-hitwhistle.wav
192,192,43414,1,0,0:0:0:0:
192,192,43579,128,0,43744:0:0:0:0:
320,192,43744,1,0,0:0:0:43:soft-hitwhistle.wav
448,192,43744,1,0,0:0:0:0:
320,192,43908,128,0,44073:0:0:0:0:
64,192,44073,1,0,0:0:0:43:soft-hitwhistle.wav
192,192,44073,1,0,0:0:0:0:
192,192,44238,128,0,44403:0:0:0:0:
64,192,44238,1,0,0:0:0:0:
320,192,44403,1,0,0:0:0:43:soft-hitwhistle.wav
448,192,44403,1,0,0:0:0:0:
320,192,44568,128,0,44733:0:0:0:0:
448,192,44568,1,0,0:0:0:0:
64,192,44733,1,0,0:0:0:43:soft-hitwhistle.wav
192,192,44733,1,0,0:0:0:0:
64,192,44897,128,0,45062:0:0:0:0:
320,192,44897,1,0,0:0:0:0:
192,192,45062,1,0,0:0:0:43:soft-hitwhistle.wav
448,192,45062,1,0,0:0:0:0:
448,192,45227,128,0,45392:0:0:0:0:
192,192,45227,1,0,0:0:0:0:
64,192,45392,1,0,0:0:0:43:soft-hitwhistle.wav
320,192,45392,1,0,0:0:0:0:
192,192,45557,128,0,45722:0:0:0:0:
448,192,45557,1,0,0:0:0:0:
64,192,45722,1,0,0:0:0:43:soft-hitwhistle.wav
320,192,45722,1,0,0:0:0:0:
448,192,45887,128,0,46051:0:0:0:0:
192,192,45887,1,0,0:0:0:0:
64,192,46051,1,0,0:0:0:43:soft-hitwhistle.wav
320,192,46051,1,0,0:0:0:0:
192,192,46216,128,0,46381:0:0:0:0:
448,192,46216,1,0,0:0:0:0:
64,192,46381,1,0,0:0:0:43:soft-hitwhistle.wav
320,192,46381,1,0,0:0:0:0:
448,192,46546,128,0,46711:0:0:0:0:
192,192,46546,1,0,0:0:0:0:
64,192,46711,1,0,0:0:0:43:soft-hitwhistle.wav
320,192,46711,1,0,0:0:0:0:
64,192,46876,128,0,47040:0:0:0:0:
448,192,46876,1,0,0:0:0:0:
320,192,47040,1,0,0:0:0:0:
192,192,47040,1,0,0:0:0:43:soft-hitwhistle.wav
448,192,47205,128,0,47370:0:0:0:0:
64,192,47205,1,0,0:0:0:0:
192,192,47370,1,0,0:0:0:43:soft-hitwhistle.wav
320,192,47370,1,0,0:0:0:0:
64,192,47535,128,0,47700:0:0:0:0:
448,192,47535,1,0,0:0:0:0:
192,192,47700,1,0,0:0:0:43:soft-hitwhistle.wav
320,192,47700,1,0,0:0:0:0:
448,192,47865,128,0,48359:0:0:0:0:
320,192,47865,1,0,0:0:0:50:soft-hitwhistle.wav
192,192,47865,1,0,0:0:0:0:
192,192,48029,1,0,0:0:0:43:soft-hitclap.wav
64,192,48029,1,0,0:0:0:0:
64,192,48194,1,0,0:0:0:0:
192,192,48194,1,0,0:0:0:0:
64,192,48359,1,0,0:0:0:43:soft-hitwhistle.wav
320,192,48359,1,0,0:0:0:0:
192,192,48524,1,0,0:0:0:0:
320,192,48524,1,0,0:0:0:0:
64,192,48689,1,0,0:0:0:0:
320,192,48689,1,0,0:0:0:43:soft-hitclap.wav
448,192,48689,1,0,0:0:0:0:
192,192,48854,1,0,0:0:0:0:
320,192,48936,1,0,0:0:0:0:
64,192,49018,1,0,0:0:0:0:
448,192,49018,1,0,0:0:0:43:soft-hitwhistle.wav
320,192,49183,1,0,0:0:0:0:
192,192,49183,1,0,0:0:0:0:
192,192,49348,1,0,0:0:0:43:soft-hitclap.wav
448,192,49348,1,0,0:0:0:0:
64,192,49348,1,0,0:0:0:0:
320,192,49513,1,0,0:0:0:0:
192,192,49513,1,0,0:0:0:0:
320,192,49678,1,0,0:0:0:43:soft-hitwhistle.wav
448,192,49678,1,0,0:0:0:0:
192,192,49843,1,0,0:0:0:0:
320,192,49843,1,0,0:0:0:0:
64,192,50007,1,0,0:0:0:0:
320,192,50007,1,0,0:0:0:43:soft-hitclap.wav
448,192,50007,1,0,0:0:0:0:
448,192,50172,1,0,0:0:0:0:
320,192,50255,1,0,0:0:0:0:
64,192,50337,1,0,0:0:0:0:
192,192,50337,1,0,0:0:0:43:soft-hitwhistle.wav
320,192,50502,1,0,0:0:0:43:soft-hitclap.wav
64,192,50502,1,0,0:0:0:0:
448,192,50502,1,0,0:0:0:0:
64,192,50667,1,0,0:0:0:0:
320,192,50667,1,0,0:0:0:43:soft-hitclap.wav
448,192,50667,1,0,0:0:0:0:
320,192,50832,1,0,0:0:0:0:
448,192,50832,1,0,0:0:0:0:
192,192,50996,1,0,0:0:0:43:soft-hitwhistle.wav
320,192,50996,1,0,0:0:0:0:
64,192,51161,1,0,0:0:0:0:
192,192,51161,1,0,0:0:0:0:
64,192,51326,1,0,0:0:0:0:
320,192,51326,1,0,0:0:0:43:soft-hitclap.wav
448,192,51326,1,0,0:0:0:0:
192,192,51491,1,0,0:0:0:0:
320,192,51491,1,0,0:0:0:0:
320,192,51656,1,0,0:0:0:43:soft-hitwhistle.wav
448,192,51656,1,0,0:0:0:0:
192,192,51821,1,0,0:0:0:0:
320,192,51821,1,0,0:0:0:0:
192,192,51985,1,0,0:0:0:43:soft-hitclap.wav
64,192,51985,1,0,0:0:0:0:
448,192,51985,1,0,0:0:0:0:
192,192,52150,1,0,0:0:0:0:
320,192,52150,1,0,0:0:0:0:
448,192,52315,1,0,0:0:0:43:soft-hitclap.wav
64,192,52315,1,0,0:0:0:0:
320,192,52397,1,0,0:0:0:43:soft-hitclap.wav
192,192,52480,1,0,0:0:0:43:soft-hitclap.wav
320,192,52562,1,0,0:0:0:43:soft-hitclap.wav
192,192,52645,1,0,0:0:0:43:soft-hitclap.wav
64,192,52645,1,0,0:0:0:0:
320,192,52727,1,0,0:0:0:43:soft-hitclap.wav
448,192,52727,1,0,0:0:0:0:
192,192,52810,1,0,0:0:0:43:soft-hitclap.wav
64,192,52892,1,0,0:0:0:43:soft-hitclap.wav
192,192,52974,1,0,0:0:0:43:soft-hitclap.wav
448,192,52974,1,0,0:0:0:0:
320,192,53057,1,0,0:0:0:43:soft-hitclap.wav
448,192,53139,1,0,0:0:0:43:soft-hitclap.wav
192,192,53139,1,0,0:0:0:0:
64,192,53222,1,0,0:0:0:43:soft-hitclap.wav
192,192,53304,1,0,0:0:0:43:soft-hitclap.wav
448,192,53304,1,0,0:0:0:0:
320,192,53387,1,0,0:0:0:43:soft-hitclap.wav
448,192,53469,1,0,0:0:0:43:soft-hitclap.wav
192,192,53469,1,0,0:0:0:0:
64,192,53469,1,0,0:0:0:0:
64,192,53799,1,0,0:0:0:0:
320,192,53799,1,0,0:0:0:43:soft-hitclap.wav
448,192,53799,1,0,0:0:0:0:
64,192,53963,1,0,0:0:0:0:
192,192,53963,1,0,0:0:0:43:soft-hitclap.wav
448,192,53963,1,0,0:0:0:0:
192,192,54128,1,0,0:0:0:43:soft-hitclap.wav
320,192,54128,1,0,0:0:0:0:
448,192,54128,1,0,0:0:0:0:
448,192,54623,128,0,54952:0:0:0:0:
64,192,54623,128,0,54952:0:0:0:0:
320,192,54623,1,0,0:0:0:0:
192,192,54952,1,0,0:0:0:43:soft-hitwhistle.wav
320,192,54952,1,0,0:0:0:0:
192,192,55117,1,0,0:0:0:0:
64,192,55282,1,0,0:0:0:0:
320,192,55282,1,0,0:0:0:43:soft-hitclap.wav
448,192,55282,1,0,0:0:0:0:
320,192,55447,1,0,0:0:0:0:
64,192,55447,1,0,0:0:0:0:
64,192,55612,1,0,0:0:0:0:
192,192,55612,1,0,0:0:0:43:soft-hitwhistle.wav
448,192,55612,1,0,0:0:0:0:
192,192,55777,1,0,0:0:0:0:
320,192,55777,1,0,0:0:0:0:
64,192,55941,1,0,0:0:0:0:
192,192,55941,1,0,0:0:0:0:
320,192,55941,1,0,0:0:0:43:soft-hitclap.wav
448,192,56106,1,0,0:0:0:0:
320,192,56106,1,0,0:0:0:0:
448,192,56271,1,0,0:0:0:0:
192,192,56271,1,0,0:0:0:43:soft-hitwhistle.wav
320,192,56271,1,0,0:0:0:0:
64,192,56436,1,0,0:0:0:0:
192,192,56436,1,0,0:0:0:0:
192,192,56601,1,0,0:0:0:43:soft-hitclap.wav
320,192,56601,1,0,0:0:0:0:
448,192,56601,1,0,0:0:0:0:
448,192,56766,1,0,0:0:0:0:
192,192,56766,1,0,0:0:0:0:
64,192,56930,1,0,0:0:0:0:
320,192,56930,1,0,0:0:0:43:soft-hitwhistle.wav
448,192,56930,1,0,0:0:0:0:
192,192,57095,1,0,0:0:0:0:
448,192,57095,1,0,0:0:0:0:
320,192,57260,1,0,0:0:0:43:soft-hitclap.wav
448,192,57260,1,0,0:0:0:0:
64,192,57260,1,0,0:0:0:0:
192,192,57425,1,0,0:0:0:0:
64,192,57425,1,0,0:0:0:0:
64,192,57590,1,0,0:0:0:43:soft-hitwhistle.wav
320,192,57590,1,0,0:0:0:0:
448,192,57590,1,0,0:0:0:0:
192,192,57755,1,0,0:0:0:0:
192,192,57919,1,0,0:0:0:43:soft-hitclap.wav
320,192,57919,1,0,0:0:0:0:
448,192,57919,1,0,0:0:0:0:
64,192,58084,1,0,0:0:0:0:
192,192,58084,1,0,0:0:0:0:
192,192,58249,1,0,0:0:0:43:soft-hitwhistle.wav
320,192,58249,1,0,0:0:0:0:
448,192,58249,1,0,0:0:0:0:
192,192,58414,1,0,0:0:0:0:
320,192,58579,1,0,0:0:0:43:soft-hitclap.wav
448,192,58579,1,0,0:0:0:0:
64,192,58579,1,0,0:0:0:0:
192,192,58744,1,0,0:0:0:0:
320,192,58744,1,0,0:0:0:0:
448,192,58908,128,0,59073:0:0:0:43:soft-hitwhistle.wav
64,192,58908,1,0,0:0:0:0:
192,192,58908,1,0,0:0:0:0:
320,192,59073,128,0,59238:0:0:0:0:
64,192,59073,1,0,0:0:0:0:
64,192,59238,128,0,59403:0:0:0:0:
192,192,59238,1,0,0:0:0:43:soft-hitclap.wav
448,192,59238,1,0,0:0:0:0:
192,192,59403,128,0,59568:0:0:0:0:
448,192,59403,1,0,0:0:0:0:
320,192,59568,1,0,0:0:0:43:soft-hitwhistle.wav
448,192,59568,128,0,59733:0:0:0:0:
64,192,59733,128,0,59897:0:0:0:0:
192,192,59733,1,0,0:0:0:0:
320,192,59733,1,0,0:0:0:0:
320,192,59897,128,0,60062:0:0:0:0:
448,192,59897,1,0,0:0:0:43:soft-hitclap.wav
192,192,60062,128,0,60227:0:0:0:0:
64,192,60062,1,0,0:0:0:0:
320,192,60227,1,0,0:0:0:43:soft-hitwhistle.wav
448,192,60227,1,0,0:0:0:0:
64,192,60392,1,0,0:0:0:0:
192,192,60557,1,0,0:0:0:43:soft-hitclap.wav
320,192,60557,1,0,0:0:0:0:
448,192,60557,1,0,0:0:0:0:
64,192,60722,1,0,0:0:0:0:
320,192,60722,1,0,0:0:0:0:
64,192,60887,1,0,0:0:0:0:
192,192,60887,1,0,0:0:0:0:
320,192,60887,1,0,0:0:0:43:soft-hitwhistle.wav
448,192,61051,1,0,0:0:0:0:
192,192,61051,1,0,0:0:0:0:
320,192,61216,1,0,0:0:0:43:soft-hitclap.wav
192,192,61216,1,0,0:0:0:0:
64,192,61216,1,0,0:0:0:0:
320,192,61381,1,0,0:0:0:0:
448,192,61381,1,0,0:0:0:0:
192,192,61546,1,0,0:0:0:0:
64,192,61546,1,0,0:0:0:0:
448,192,61546,1,0,0:0:0:43:soft-hitwhistle.wav
320,192,61711,1,0,0:0:0:0:
64,192,61711,1,0,0:0:0:0:
64,192,61876,1,0,0:0:0:0:
320,192,61876,1,0,0:0:0:0:
192,192,61876,1,0,0:0:0:43:soft-hitclap.wav
448,192,62040,1,0,0:0:0:0:
320,192,62040,1,0,0:0:0:0:
192,192,62205,1,0,0:0:0:0:
320,192,62205,1,0,0:0:0:43:soft-hitwhistle.wav
448,192,62205,1,0,0:0:0:0:
192,192,62370,1,0,0:0:0:0:
64,192,62370,1,0,0:0:0:0:
64,192,62535,128,0,62700:0:0:0:0:
320,192,62535,1,0,0:0:0:43:soft-hitclap.wav
448,192,62535,1,0,0:0:0:0:
192,192,62700,128,0,62865:0:0:0:0:
320,192,62700,1,0,0:0:0:0:
448,192,62865,128,0,63194:0:0:0:43:soft-hitwhistle.wav
64,192,62865,1,0,0:0:0:0:
192,192,63029,1,0,0:0:0:0:
320,192,63194,128,0,63524:0:0:0:43:soft-hitclap.wav
64,192,63194,1,0,0:0:0:0:
192,192,63359,1,0,0:0:0:0:
64,192,63524,128,0,63689:0:0:0:43:soft-hitwhistle.wav
448,192,63524,1,0,0:0:0:0:
320,192,63689,128,0,63854:0:0:0:0:
192,192,63689,1,0,0:0:0:0:
448,192,63854,128,0,64018:0:0:0:43:soft-hitclap.wav
64,192,63854,1,0,0:0:0:0:
192,192,64018,128,0,64183:0:0:0:0:
320,192,64018,1,0,0:0:0:0:
64,192,64183,128,0,64348:0:0:0:43:soft-hitwhistle.wav
448,192,64183,1,0,0:0:0:0:
320,192,64348,128,0,64513:0:0:0:0:
192,192,64348,1,0,0:0:0:0:
448,192,64513,128,0,64678:0:0:0:43:soft-hitclap.wav
64,192,64513,1,0,0:0:0:0:
192,192,64678,128,0,64843:0:0:0:0:
320,192,64678,1,0,0:0:0:0:
64,192,64843,1,0,0:0:0:43:soft-hitwhistle.wav
64,192,65007,1,0,0:0:0:43:soft-hitclap.wav
192,192,65007,1,0,0:0:0:0:
448,192,65007,1,0,0:0:0:0:
64,192,65172,1,0,0:0:0:43:soft-hitclap.wav
192,192,65172,1,0,0:0:0:0:
448,192,65172,1,0,0:0:0:0:
64,192,65337,1,0,0:0:0:43:soft-hitclap.wav
192,192,65337,1,0,0:0:0:0:
448,192,65337,1,0,0:0:0:0:
320,192,65502,1,0,0:0:0:43:soft-hitwhistle.wav
192,192,65502,1,0,0:0:0:0:
192,192,65667,128,0,65832:0:0:0:0:
448,192,65667,1,0,0:0:0:0:
320,192,65832,128,0,65996:0:0:0:0:
64,192,65832,1,0,0:0:0:43:soft-hitclap.wav
448,192,65996,128,0,66161:0:0:0:0:
192,192,65996,1,0,0:0:0:0:
64,192,66161,128,0,66326:0:0:0:0:
320,192,66161,1,0,0:0:0:43:soft-hitwhistle.wav
192,192,66326,128,0,66491:0:0:0:0:
448,192,66326,1,0,0:0:0:0:
320,192,66491,128,0,66656:0:0:0:0:
64,192,66491,1,0,0:0:0:43:soft-hitclap.wav
448,192,66656,128,0,66821:0:0:0:0:
192,192,66656,1,0,0:0:0:0:
320,192,66821,1,0,0:0:0:0:
64,192,66821,1,0,0:0:0:50:soft-hitwhistle.wav
320,192,66985,1,0,0:0:0:0:
192,192,66985,1,0,0:0:0:0:
320,192,67150,1,0,0:0:0:43:soft-hitclap.wav
448,192,67150,1,0,0:0:0:0:
192,192,67150,1,0,0:0:0:0:
64,192,67315,1,0,0:0:0:0:
192,192,67315,1,0,0:0:0:0:
320,192,67480,1,0,0:0:0:50:soft-hitwhistle.wav
192,192,67480,1,0,0:0:0:0:
64,192,67645,1,0,0:0:0:0:
320,192,67645,1,0,0:0:0:0:
320,192,67810,1,0,0:0:0:43:soft-hitclap.wav
448,192,67810,1,0,0:0:0:0:
192,192,67810,1,0,0:0:0:0:
64,192,67974,1,0,0:0:0:0:
448,192,67974,1,0,0:0:0:0:
448,192,68139,128,0,69128:0:0:0:43:soft-hitwhistle.wav
64,192,68139,128,0,68634:0:0:0:0:
192,192,68139,1,0,0:0:0:0:
320,192,68139,1,0,0:0:0:0:
192,192,68304,1,0,0:0:0:0:
320,192,68469,1,0,0:0:0:43:soft-hitclap.wav
192,192,68634,128,0,69128:0:0:0:0:
320,192,68634,1,0,0:0:0:0:
64,192,68799,1,0,0:0:0:43:soft-hitwhistle.wav
320,192,68963,1,0,0:0:0:0:
320,192,69128,128,0,69458:0:0:0:0:
64,192,69128,1,0,0:0:0:43:soft-hitclap.wav
192,192,69293,1,0,0:0:0:0:
64,192,69458,128,0,69952:0:0:0:0:
448,192,69458,128,0,70117:0:0:0:0:
192,192,69458,1,0,0:0:0:43:soft-hitwhistle.wav
320,192,69623,1,0,0:0:0:0:
192,192,69788,1,0,0:0:0:43:soft-hitclap.wav
192,192,69952,128,0,70117:0:0:0:0:
320,192,69952,1,0,0:0:0:0:
320,192,70117,128,0,70777:0:0:0:43:soft-hitwhistle.wav
64,192,70117,1,0,0:0:0:0:
192,192,70282,1,0,0:0:0:0:
64,192,70447,1,0,0:0:0:0:
448,192,70447,1,0,0:0:0:0:
192,192,70447,1,0,0:0:0:43:soft-hitclap.wav
448,192,70612,1,0,0:0:0:0:
64,192,70777,1,0,0:0:0:0:
192,192,70777,1,0,0:0:0:43:soft-hitwhistle.wav
448,192,70777,1,0,0:0:0:0:
448,192,71106,128,0,71271:0:0:0:0:
64,192,71106,1,0,0:0:0:0:
192,192,71271,128,0,71436:0:0:0:0:
320,192,71271,1,0,0:0:0:0:
64,192,71436,128,0,71601:0:0:0:0:
448,192,71436,1,0,0:0:0:0:
320,192,71601,128,0,71766:0:0:0:0:
192,192,71601,1,0,0:0:0:0:
448,192,71766,128,0,71930:0:0:0:0:
64,192,71766,1,0,0:0:0:0:
192,192,71930,128,0,72095:0:0:0:0:
320,192,71930,1,0,0:0:0:0:
448,192,72095,1,0,0:0:0:43:soft-hitclap.wav
64,192,72095,1,0,0:0:0:0:
320,192,72095,1,0,0:0:0:0:
192,192,72260,1,0,0:0:0:0:
320,192,72260,1,0,0:0:0:43:soft-hitclap.wav
448,192,72260,1,0,0:0:0:0:
64,192,72425,1,0,0:0:0:0:
192,192,72425,1,0,0:0:0:43:soft-hitclap.wav
320,192,72425,1,0,0:0:0:0:
192,192,72590,1,0,0:0:0:43:soft-hitclap.wav
320,192,72590,1,0,0:0:0:0:
448,192,72590,1,0,0:0:0:0:
192,192,72919,128,0,73084:0:0:0:0:
320,192,72919,1,0,0:0:0:0:
64,192,73084,128,0,73249:0:0:0:0:
448,192,73084,1,0,0:0:0:0:
320,192,73249,128,0,73414:0:0:0:0:
192,192,73249,1,0,0:0:0:0:
448,192,73414,128,0,73744:0:0:0:0:
64,192,73414,1,0,0:0:0:0:
64,192,73744,1,0,0:0:0:0:
192,192,73744,1,0,0:0:0:43:soft-hitclap.wav
320,192,73744,1,0,0:0:0:0:
64,192,74073,128,0,74238:0:0:0:0:
448,192,74073,1,0,0:0:0:0:
320,192,74238,128,0,74403:0:0:0:0:
192,192,74238,1,0,0:0:0:0:
192,192,74403,128,0,74568:0:0:0:0:
64,192,74403,1,0,0:0:0:43:soft-hitclap.wav
448,192,74403,1,0,0:0:0:0:
448,192,74568,128,0,74733:0:0:0:0:
320,192,74568,1,0,0:0:0:0:
64,192,74733,1,0,0:0:0:43:soft-hitclap.wav
192,192,74733,1,0,0:0:0:0:
320,192,74733,1,0,0:0:0:0:
64,192,74897,1,0,0:0:0:0:
192,192,74897,1,0,0:0:0:43:soft-hitclap.wav
320,192,74897,1,0,0:0:0:0:
192,192,75062,1,0,0:0:0:0:
320,192,75062,1,0,0:0:0:43:soft-hitclap.wav
448,192,75062,1,0,0:0:0:0:
64,192,75227,1,0,0:0:0:0:
192,192,75227,1,0,0:0:0:0:
320,192,75227,1,0,0:0:0:43:soft-hitclap.wav
64,192,75722,128,0,76051:0:0:0:0:
448,192,75722,128,0,76051:0:0:0:45:soft-hitclap.wav
320,192,75887,128,0,76051:0:0:0:0:
192,192,76051,1,0,0:0:0:0:
320,192,76216,1,0,0:0:0:0:
448,192,76216,1,0,0:0:0:0:
64,192,76381,1,0,0:0:0:0:
448,192,76381,1,0,0:0:0:0:
192,192,76381,1,0,0:0:0:43:soft-hitwhistle.wav
320,192,76546,1,0,0:0:0:0:
448,192,76628,1,0,0:0:0:0:
64,192,76711,1,0,0:0:0:43:soft-hitwhistle.wav
320,192,76711,1,0,0:0:0:0:
192,192,76711,1,0,0:0:0:0:
192,192,76876,1,0,0:0:0:0:
448,192,76876,1,0,0:0:0:0:
64,192,77040,1,0,0:0:0:43:soft-hitwhistle.wav
192,192,77040,1,0,0:0:0:0:
320,192,77040,1,0,0:0:0:0:
448,192,77205,1,0,0:0:0:0:
320,192,77205,1,0,0:0:0:0:
192,192,77370,1,0,0:0:0:43:soft-hitwhistle.wav
448,192,77370,1,0,0:0:0:0:
320,192,77370,1,0,0:0:0:0:
64,192,77535,1,0,0:0:0:0:
192,192,77535,1,0,0:0:0:0:
192,192,77700,1,0,0:0:0:43:soft-hitwhistle.wav
64,192,77700,1,0,0:0:0:0:
448,192,77700,1,0,0:0:0:0:
448,192,77865,1,0,0:0:0:0:
64,192,77947,1,0,0:0:0:0:
192,192,78029,1,0,0:0:0:0:
320,192,78029,1,0,0:0:0:43:soft-hitwhistle.wav
448,192,78029,1,0,0:0:0:0:
192,192,78194,1,0,0:0:0:0:
320,192,78194,1,0,0:0:0:0:
64,192,78359,1,0,0:0:0:0:
192,192,78359,1,0,0:0:0:0:
320,192,78359,1,0,0:0:0:43:soft-hitwhistle.wav
448,192,78441,1,0,0:0:0:0:
320,192,78524,1,0,0:0:0:50:soft-hitwhistle.wav
64,192,78524,1,0,0:0:0:0:
64,192,78689,1,0,0:0:0:0:
192,192,78689,1,0,0:0:0:43:soft-hitwhistle.wav
448,192,78689,1,0,0:0:0:0:
192,192,78854,1,0,0:0:0:0:
320,192,78854,1,0,0:0:0:0:
64,192,79018,1,0,0:0:0:0:
192,192,79018,1,0,0:0:0:43:soft-hitwhistle.wav
448,192,79018,1,0,0:0:0:0:
320,192,79183,1,0,0:0:0:0:
64,192,79266,1,0,0:0:0:0:
192,192,79348,1,0,0:0:0:43:soft-hitwhistle.wav
320,192,79348,1,0,0:0:0:0:
448,192,79348,1,0,0:0:0:0:
64,192,79513,1,0,0:0:0:0:
192,192,79513,1,0,0:0:0:0:
192,192,79678,1,0,0:0:0:43:soft-hitwhistle.wav
64,192,79678,1,0,0:0:0:0:
320,192,79678,1,0,0:0:0:0:
448,192,79843,1,0,0:0:0:0:
64,192,79843,1,0,0:0:0:0:
192,192,79925,1,0,0:0:0:0:
320,192,80007,1,0,0:0:0:43:soft-hitwhistle.wav
448,192,80007,1,0,0:0:0:0:
192,192,80090,1,0,0:0:0:43:soft-hitwhistle.wav
64,192,80172,1,0,0:0:0:43:soft-hitwhistle.wav
192,192,80255,1,0,0:0:0:43:soft-hitwhistle.wav
320,192,80337,1,0,0:0:0:43:soft-hitwhistle.wav
64,192,80337,1,0,0:0:0:0:
448,192,80419,1,0,0:0:0:43:soft-hitwhistle.wav
320,192,80502,1,0,0:0:0:43:soft-hitwhistle.wav
192,192,80584,1,0,0:0:0:43:soft-hitwhistle.wav
64,192,80667,1,0,0:0:0:43:soft-hitwhistle.wav
320,192,80667,1,0,0:0:0:0:
192,192,80749,1,0,0:0:0:43:soft-hitwhistle.wav
320,192,80832,1,0,0:0:0:43:soft-hitwhistle.wav
448,192,80832,1,0,0:0:0:0:
192,192,80914,1,0,0:0:0:43:soft-hitwhistle.wav
64,192,80996,1,0,0:0:0:43:soft-hitwhistle.wav
448,192,80996,1,0,0:0:0:0:
192,192,81079,1,0,0:0:0:43:soft-hitwhistle.wav
320,192,81161,1,0,0:0:0:43:soft-hitwhistle.wav
64,192,81161,1,0,0:0:0:0:
448,192,81244,1,0,0:0:0:43:soft-hitwhistle.wav
192,192,81326,1,0,0:0:0:0:
320,192,81326,1,0,0:0:0:43:soft-hitwhistle.wav
64,192,81491,1,0,0:0:0:0:
192,192,81491,1,0,0:0:0:0:
192,192,81656,1,0,0:0:0:43:soft-hitwhistle.wav
320,192,81656,1,0,0:0:0:0:
448,192,81656,1,0,0:0:0:0:
320,192,81821,1,0,0:0:0:0:
192,192,81821,1,0,0:0:0:0:
64,192,81985,1,0,0:0:0:0:
320,192,81985,1,0,0:0:0:43:soft-hitwhistle.wav
448,192,81985,1,0,0:0:0:0:
192,192,82150,1,0,0:0:0:0:
448,192,82150,1,0,0:0:0:0:
64,192,82315,1,0,0:0:0:0:
192,192,82315,1,0,0:0:0:43:soft-hitwhistle.wav
320,192,82315,1,0,0:0:0:0:
64,192,82480,1,0,0:0:0:0:
320,192,82480,1,0,0:0:0:0:
192,192,82645,1,0,0:0:0:43:soft-hitwhistle.wav
320,192,82645,1,0,0:0:0:0:
448,192,82645,1,0,0:0:0:0:
320,192,82810,1,0,0:0:0:0:
192,192,82810,1,0,0:0:0:0:
64,192,82974,1,0,0:0:0:0:
192,192,82974,1,0,0:0:0:43:soft-hitwhistle.wav
320,192,82974,1,0,0:0:0:0:
192,192,83139,1,0,0:0:0:0:
64,192,83139,1,0,0:0:0:0:
192,192,83304,1,0,0:0:0:43:soft-hitwhistle.wav
64,192,83304,1,0,0:0:0:0:
448,192,83304,1,0,0:0:0:0:
320,192,83469,1,0,0:0:0:0:
448,192,83469,1,0,0:0:0:0:
192,192,83634,1,0,0:0:0:43:soft-hitwhistle.wav
320,192,83634,1,0,0:0:0:0:
448,192,83634,1,0,0:0:0:0:
64,192,83799,1,0,0:0:0:0:
192,192,83799,1,0,0:0:0:43:soft-hitwhistle.wav
320,192,83799,1,0,0:0:0:0:
192,192,83963,1,0,0:0:0:43:soft-hitwhistle.wav
320,192,83963,1,0,0:0:0:0:
448,192,83963,1,0,0:0:0:0:
64,192,83963,1,0,0:0:0:0:
64,192,84293,128,0,85117:0:0:0:0:
192,192,84293,128,0,85117:0:0:0:43:soft-hitwhistle.wav
320,192,84293,128,0,85117:0:0:0:0:
448,192,84293,128,0,85117:0:0:0:0:
192,192,85282,1,0,0:0:0:25:soft-hitclap.wav
64,192,85282,1,0,0:0:0:0:
320,192,85365,1,0,0:0:0:25:soft-hitclap.wav
64,192,85447,1,0,0:0:0:25:soft-hitclap.wav
448,192,85529,1,0,0:0:0:25:soft-hitclap.wav
320,192,85612,1,0,0:0:0:25:soft-hitclap.wav
192,192,85612,1,0,0:0:0:0:
64,192,85694,1,0,0:0:0:25:soft-hitclap.wav
448,192,85777,1,0,0:0:0:25:soft-hitclap.wav
64,192,85859,1,0,0:0:0:25:soft-hitclap.wav
320,192,85941,1,0,0:0:0:0:
192,192,85941,1,0,0:0:0:25:soft-hitclap.wav
448,192,86024,1,0,0:0:0:25:soft-hitclap.wav
64,192,86106,1,0,0:0:0:0:
192,192,86106,1,0,0:0:0:25:soft-hitclap.wav
448,192,86189,1,0,0:0:0:25:soft-hitclap.wav
192,192,86271,1,0,0:0:0:25:soft-hitclap.wav
320,192,86271,1,0,0:0:0:0:
64,192,86354,1,0,0:0:0:25:soft-hitclap.wav
192,192,86436,1,0,0:0:0:25:soft-hitclap.wav
448,192,86436,1,0,0:0:0:0:
320,192,86518,1,0,0:0:0:25:soft-hitclap.wav
64,192,86601,1,0,0:0:0:0:
192,192,86766,1,0,0:0:0:0:
64,192,86930,128,0,87672:0:0:0:0:
448,192,86930,128,0,87919:0:0:0:0:
192,192,86930,1,0,0:0:0:0:
320,192,86930,1,0,0:0:0:0:
