osu file format v11

[General]
AudioFilename: M! OP - Help!! -Heaven side-.mp3
AudioLeadIn: 1000
PreviewTime: 55192
Countdown: 0
SampleSet: Normal
StackLeniency: 0.7
Mode: 0
LetterboxInBreaks: 0

[Editor]
Bookmarks: 70027,138598
DistanceSpacing: 0.9
BeatDivisor: 4
GridSize: 4

[Metadata]
Title:More-more LOVERS!!
TitleUnicode:More-more LOVERS!!
Artist:Aso Natsuko
ArtistUnicode:麻生夏子
Creator:B2IN
Version:Normal
Source:MM!
Tags:ReySHeL ending emuemu isurugi mio yuno arashiko
BeatmapID:214275
BeatmapSetID:70104

[Difficulty]
HPDrainRate:4
CircleSize:3
OverallDifficulty:3
ApproachRate:5
SliderMultiplier:1
SliderTickRate:1

[Events]
//Background and Video events
0,0,"fd.jpg"
//Break Periods
2,87170,96519
//Storyboard Layer 0 (Background)
//Storyboard Layer 1 (Fail)
//Storyboard Layer 2 (Pass)
//Storyboard Layer 3 (Foreground)
//Storyboard Sound Samples
//Background Colour Transformations
3,100,163,162,255

[TimingPoints]
1456,329.67032967033,4,1,1,55,1,0
15906,-100,4,2,0,55,0,0
16895,-100,4,2,1,55,0,0
17280,-100,4,1,1,55,0,0
18269,-100,4,1,2,55,0,0
18351,-100,4,1,1,55,0,0
18928,-100,4,1,2,55,0,0
19010,-100,4,1,1,55,0,0
20906,-100,4,1,2,55,0,0
20988,-100,4,1,1,55,0,0
21565,-100,4,1,2,55,0,0
21648,-100,4,1,1,55,0,0
22225,-100,4,2,1,55,0,0
22554,-100,4,1,1,55,0,0
23543,-100,4,1,2,55,0,0
23626,-100,4,1,1,55,0,0
24203,-100,4,1,2,55,0,0
24285,-100,4,1,1,55,0,0
26181,-100,4,1,2,55,0,0
26263,-100,4,1,1,55,0,0
26840,-100,4,1,2,55,0,0
26923,-100,4,1,1,55,0,0
27499,-100,4,2,1,55,0,0
27829,-100,4,1,1,55,0,0
28159,-100,4,1,2,55,0,0
28241,-100,4,1,1,55,0,0
29477,-100,4,1,2,55,0,0
29560,-100,4,1,1,55,0,0
30796,-100,4,1,2,55,0,0
30879,-100,4,1,1,55,0,0
33434,-100,4,1,2,55,0,0
33516,-100,4,1,1,55,0,0
34752,-100,4,1,2,55,0,0
34835,-100,4,1,1,55,0,0
38049,-100,4,1,1,55,0,0
38708,-100,4,1,2,55,0,0
38791,-100,4,1,1,55,0,0
40027,-100,4,1,2,55,0,0
40109,-100,4,1,1,55,0,0
48763,-100,4,1,1,55,0,0
55521,-100,4,1,1,55,0,1
59807,-100,4,1,2,55,0,1
59890,-100,4,1,1,55,0,1
60466,-100,4,1,1,55,0,0
60796,-100,4,1,1,55,0,1
65082,-100,4,1,2,55,0,1
65164,-100,4,1,1,55,0,1
66401,-100,4,1,2,55,0,1
66483,-100,4,1,1,55,0,1
67060,-100,4,1,2,55,0,1
67142,-100,4,1,1,55,0,1
71346,-100,4,1,1,55,0,0
85796,-100,4,1,1,55,0,0
86785,-100,4,2,1,55,0,0
97719,-100,4,1,1,55,0,0
98049,-100,4,1,2,55,0,0
98131,-100,4,1,1,55,0,0
99368,-100,4,1,2,55,0,0
99450,-100,4,1,1,55,0,0
100686,-100,4,1,2,55,0,0
100769,-100,4,1,1,55,0,0
103324,-100,4,1,2,55,0,0
103406,-100,4,1,1,55,0,0
104642,-100,4,1,2,55,0,0
104725,-100,4,1,1,55,0,0
108598,-100,4,1,2,55,0,0
108681,-100,4,1,1,55,0,0
109917,-100,4,1,2,55,0,0
109999,-100,4,1,1,55,0,0
118488,-100,4,2,1,55,0,0
118653,-100,4,1,1,55,0,0
124093,-100,4,1,1,55,0,1
128379,-100,4,1,2,55,0,1
128461,-100,4,1,1,55,0,1
129038,-100,4,1,1,55,0,0
129368,-100,4,1,1,55,0,1
133653,-100,4,1,2,55,0,1
133736,-100,4,1,1,55,0,1
134972,-100,4,1,2,55,0,1
135054,-100,4,1,1,55,0,1
135631,-100,4,1,2,55,0,1
135714,-100,4,1,1,55,0,1
139917,-100,4,1,1,55,0,0
145192,-100,4,1,1,60,0,1
145521,-100,4,1,2,60,0,1
145604,-100,4,1,1,60,0,1
148159,-100,4,1,2,60,0,1
148241,-100,4,1,1,60,0,1
150137,-100,4,2,1,60,0,1
150302,-100,4,1,1,60,0,1
150796,-100,4,1,2,60,0,1
150879,-100,4,1,1,60,0,1
153434,-100,4,1,2,60,0,1
153516,-100,4,1,1,60,0,1
154917,-100,4,1,1,55,0,0

[Colours]
Combo1 : 232,232,0
Combo2 : 147,38,255
Combo3 : 198,198,198
Combo4 : 255,15,135

[HitObjects]
304,312,1456,2,0,P|256:324|208:312,2,100,4|0|0,0:0|0:0|0:0,0:0:0
256,236,2445,1,0,0:0:0
168,236,2774,2,0,P|144:252|132:272,1,50,12|8,0:0|0:0,0:0:0
120,312,3104,2,0,P|109:329|85:345,1,50,12|8,0:0|0:0,0:0:0
124,124,4093,6,0,P|161:92|210:81,1,100,0|8,0:0|0:0,0:0:0
301,81,4752,2,0,P|350:92|388:124,1,100,0|8,0:0|0:0,0:0:0
356,208,5412,2,0,P|348:232|348:264,1,50,12|8,0:0|0:0,0:0:0
360,300,5741,2,0,P|358:324|350:348,1,50,12|8,0:0|0:0,0:0:0
236,156,6730,6,0,P|229:205|200:245,1,100,4|8,0:0|0:0,0:0:0
112,228,7390,2,0,P|62:233|21:260,1,100,0|8,0:0|0:0,0:0:0
92,316,8049,2,0,P|116:372,3,50,0|0|8|0,0:0|0:0|0:0|0:0,0:0:0
248,364,9038,1,8,0:0:0
324,316,9368,6,0,P|372:304|420:316,1,100,0|8,0:0|0:0,0:0:0
484,252,10027,2,0,P|488:196|484:140,1,100,0|8,0:0|0:0,0:0:0
421,88,10686,2,0,P|369:92,3,50,0|0|8|0,0:0|0:0|0:0|0:0,0:0:0
236,104,11675,1,8,0:0:0
256,192,12005,12,4,14642,0:0:0
167,217,15906,6,0,P|256:316|344:216,1,300,0|8,0:0|0:0,0:0:0
392,124,17280,6,0,P|344:112|296:124,1,100,4|8,0:0|0:0,0:0:0
208,116,17939,2,0,P|112:139|16:116,2,200
288,72,19587,1,8,0:0:0
356,132,19917,5,0,0:0:0
356,132,20247,1,8,0:0:0
380,220,20576,2,0,P|334:295|129:215,1,350
180,96,22225,1,8,0:0:0
268,96,22554,6,0,P|317:91|362:111,1,100,4|8,0:0|0:0,0:0:0
396,196,23214,2,0,P|297:204|207:166,2,200
448,120,24862,1,8,0:0:0
376,68,25192,5,0,0:0:0
376,68,25521,1,8,0:0:0
288,40,25851,2,0,P|136:88|96:268,1,350
148,380,27499,1,8,0:0:0
212,316,27829,6,0,P|356:264|356:372|504:316,1,300,4|10,0:0|0:0,0:0:0
504,228,29148,2,0,P|360:280|360:172|212:228,1,300,0|10,0:0|0:0,0:0:0
212,140,30466,2,0,P|356:88|356:196|504:140,1,300,0|10,0:0|0:0,0:0:0
440,76,31785,6,2,P|384:64|340:40,1,100,2|10,0:0|0:0,0:0:0
256,44,32445,2,2,P|200:56|162:75,1,100,2|10,0:0|0:0,0:0:0
108,148,33104,6,0,P|84:284|220:352,1,300,4|10,0:0|0:0,0:0:0
303,353,34423,2,0,P|428:284|404:148,1,300,0|10,0:0|0:0,0:0:0
256,192,35741,12,0,37554,0:0:0
64,308,38379,6,0,P|160:331|256:308,1,200,4|0,0:0|0:0,0:0:0
320,244,39368,1,8,0:0:0
344,156,39697,2,0,P|248:133|152:156,1,200
96,228,40686,1,8,0:0:0
140,240,40851,6,0,P|204:272|244:344,1,150,0|8,0:0|0:0,0:0:0
288,348,41510,2,0,P|360:356|416:308,1,150,0|8,0:0|0:0,0:0:0
408,264,42170,2,0,P|400:168|404:56,2,200,0|0|4,0:0|0:0|0:0,0:0:0
256,51,44807,5,4,0:0:0
184,108,45136,1,0,0:0:0
212,192,45466,1,0,0:0:0
300,192,45796,1,0,0:0:0
328,108,46126,1,4,0:0:0
256,332,47445,5,4,0:0:0
184,276,47774,1,0,0:0:0
212,192,48104,1,0,0:0:0
300,192,48434,1,0,0:0:0
328,276,48764,1,0,0:0:0
356,312,48928,6,0,P|397:338|447:341,1,100,4|8,0:0|0:0,0:0:0
496,264,49587,1,0,0:0:0
476,132,50082,2,0,P|392:156|392:156|340:76|248:108,1,250,0|0,0:0|0:0,0:0:0
156,312,51565,6,0,P|114:338|64:341,1,100,0|8,0:0|0:0,0:0:0
84,252,52224,1,0,0:0:0
40,124,52719,2,0,P|136:96|195:175|195:175|286:149,1,250
396,116,54038,6,0,P|424:212|344:271|344:271|370:362,1,250,12|0,0:0|0:0,0:0:0
184,342,55521,6,0,P|135:351|84:342,2,100,4|8|0,0:0|0:0|0:0,0:0:0
136,264,56510,1,8,0:0:0
44,264,56840,2,0,P|44:208,3,50,0|0|8|0,0:0|0:0|0:0|0:0,0:0:0
128,108,57829,1,8,0:0:0
208,64,58159,6,0,P|256:52|304:64,1,100,0|8,0:0|0:0,0:0:0
372,120,58818,2,0,P|420:132|468:120,1,100,0|8,0:0|0:0,0:0:0
420,44,59477,2,0,P|420:248,1,200,0|2,0:0|0:0,0:0:0
360,308,60466,1,10,2:0:0
272,280,60796,6,0,P|223:271|172:280,2,100,4|8|0,0:0|0:0|0:0,0:0:0
360,308,61785,1,8,0:0:0
428,248,62115,2,0,P|464:200,3,50,0|0|8|0,0:0|0:0|0:0|0:0,0:0:0
384,96,63104,1,8,0:0:0
304,56,63434,6,0,P|256:44|208:56,1,100,0|8,0:0|0:0,0:0:0
148,124,64093,2,0,P|100:136|52:124,1,100,0|8,0:0|0:0,0:0:0
100,48,64752,2,0,P|100:264,1,200
172,300,65741,1,8,0:0:0
256,264,66071,6,0,P|352:241|448:264,2,200,4|0|0,0:0|0:0|0:0,0:0:0
172,300,67719,1,8,0:0:0
84,276,68049,1,0,0:0:0
48,192,68379,1,8,0:0:0
88,112,68708,6,0,P|119:73|164:54,1,100,0|8,0:0|0:0,0:0:0
208,72,69203,2,0,P|279:89|351:72,1,150,0|8,0:0|0:0,0:0:0
442,71,70027,1,4,0:0:0
416,156,70357,1,8,0:0:0
442,241,70686,1,8,0:0:0
416,328,71016,1,8,0:0:0
332,360,71346,5,4,0:0:0
256,192,72664,2,0,P|256:132,3,50,12|8|12|8,0:0|0:0|0:0|0:0,0:0:0
164,272,74313,5,8,0:0:0
348,272,74972,1,8,0:0:0
428,236,75302,2,0,P|427:211|416:184,3,50,12|8|12|8,0:0|0:0|0:0|0:0,0:0:0
208,112,76620,6,0,P|100:148,1,100,4|8,0:0|0:0,0:0:0
49,207,77280,2,0,P|57:259|77:315,1,100,0|8,0:0|0:0,0:0:0
160,300,77939,2,0,P|208:268,3,50,0|0|8|0,0:0|0:0|0:0|0:0,0:0:0
324,332,78928,1,8,0:0:0
404,288,79258,6,0,P|432:244|436:192,1,100,0|8,0:0|0:0,0:0:0
348,180,79917,2,0,P|296:188|248:160,1,100,0|8,0:0|0:0,0:0:0
312,100,80576,2,0,P|320:48,3,50,0|0|8|0,0:0|0:0|0:0|0:0,0:0:0
184,64,81565,1,8,0:0:0
256,192,81895,12,4,84532,0:0:0
344,244,85796,6,8,P|256:344|168:244,1,300,0|8,0:0|0:0,0:0:0
120,280,97719,6,0,P|180:336|256:280|256:280|340:336|392:280,1,300,4|8,0:0|0:0,0:0:0
324,220,99038,2,0,P|276:204|256:92|256:92|236:204|188:220,1,300,0|8,0:0|0:0,0:0:0
236,296,100357,2,0,P|344:368|432:252,1,300,0|8,0:0|0:0,0:0:0
464,172,101675,6,2,P|412:168|368:196,1,100,2|10,0:0|0:0,0:0:0
280,196,102335,2,2,P|240:219|188:215,1,100,2|10,0:0|0:0,0:0:0
100,236,102994,6,0,P|80:160|128:92|128:92|208:84|244:8,1,300,4|8,0:0|0:0,0:0:0
312,68,104313,2,0,P|292:144|340:212|340:212|420:220|456:296,1,300,0|8,0:0|0:0,0:0:0
256,192,105631,12,0,107445,0:0:0
416,80,108269,6,0,P|320:57|224:80,1,200,4|0,0:0|0:0,0:0:0
160,144,109258,1,8,0:0:0
136,232,109587,2,0,P|232:255|328:232,1,200
388,164,110576,1,8,0:0:0
408,204,110741,6,0,P|408:280|356:336,1,150,0|8,0:0|0:0,0:0:0
320,348,111401,2,0,P|240:336|168:368,1,150,0|8,0:0|0:0,0:0:0
132,368,112060,2,0,P|64:292|56:192,2,200,0|0|4,0:0|0:0|0:0,0:0:0
376,104,114697,5,4,0:0:0
344,188,115027,1,0,0:0:0
256,212,115357,1,0,0:0:0
168,188,115686,1,0,0:0:0
136,104,116016,1,4,0:0:0
136,272,117335,5,4,0:0:0
168,188,117665,1,0,0:0:0
256,164,117995,1,0,0:0:0
344,188,118324,1,0,0:0:0
376,272,118654,1,0,0:0:0
380,316,118818,6,0,P|340:344|288:344,1,100,4|8,0:0|0:0,0:0:0
200,336,119477,1,0,0:0:0
80,276,119972,2,0,P|72:172|196:140,1,250
360,204,121456,6,0,P|412:192|448:160,1,100,0|8,0:0|0:0,0:0:0
408,80,122115,1,0,0:0:0
280,116,122609,2,0,P|252:228|336:324,1,250,12|0,0:0|0:0,0:0:0
468,200,124093,6,0,P|419:191|368:200,2,100,4|8|0,0:0|0:0|0:0,0:0:0
484,288,125082,1,8,0:0:0
396,308,125412,2,0,P|336:332,3,50,0|0|8|0,0:0|0:0|0:0|0:0,0:0:0
232,260,126401,1,8,0:0:0
152,296,126730,6,0,P|104:308|56:296,1,100,0|8,0:0|0:0,0:0:0
8,220,127390,2,0,P|56:208|104:220,1,100,0|8,0:0|0:0,0:0:0
188,188,128049,2,0,P|280:216|320:132,1,200,0|2,0:0|0:0,0:0:0
236,108,129038,1,10,2:0:0
144,108,129368,6,0,P|96:96|48:108,2,100,4|8|0,0:0|0:0|0:0,0:0:0
188,188,130357,1,8,0:0:0
268,228,130686,2,0,P|324:228,3,50,0|0|8|0,0:0|0:0|0:0|0:0,0:0:0
432,160,131675,1,8,0:0:0
368,96,132005,6,0,P|264:96,1,100,0|8,0:0|0:0,0:0:0
184,64,132664,2,0,P|80:64,1,100,0|8,0:0|0:0,0:0:0
20,127,133324,2,0,P|16:219|104:271,1,200
184,240,134313,1,8,0:0:0
252,180,134642,6,0,P|344:148|428:208,2,200,4|0|0,0:0|0:0|0:0,0:0:0
184,240,136291,1,8,0:0:0
220,320,136620,1,0,0:0:0
308,344,136950,1,8,0:0:0
396,328,137280,6,0,P|436:300|448:248,1,100,0|8,0:0|0:0,0:0:0
428,212,137774,2,0,P|381:156|384:78,1,150,0|8,0:0|0:0,0:0:0
319,18,138598,1,12,0:0:0
228,28,138928,1,8,0:0:0
164,92,139258,1,8,0:0:0
156,180,139587,1,8,0:0:0
196,260,139917,5,12,0:0:0
336,160,141236,6,0,P|392:160,3,50,12|8|12|8,0:0|0:0|0:0|0:0,0:0:0
348,272,142884,5,0,0:0:0
164,272,143543,1,0,0:0:0
84,236,143873,2,0,P|85:211|96:184,3,50,12|8|12|8,0:0|0:0|0:0|0:0,0:0:0
268,44,145192,6,0,P|344:72|380:184,1,200,4|0,0:0|0:0,0:0:0
340,260,146181,1,8,0:0:0
256,232,146510,2,0,P|208:220|160:232,1,100,0|8,0:0|0:0,0:0:0
60,84,147499,1,8,0:0:0
144,52,147829,6,0,P|244:28|240:80|348:52,1,200
424,88,148818,1,8,0:0:0
408,176,149148,2,0,P|400:228|400:288,1,100,0|8,0:0|0:0,0:0:0
224,316,150137,1,8,0:0:0
136,296,150466,6,0,P|80:236|112:124,1,200,4|0,0:0|0:0,0:0:0
172,68,151456,1,8,0:0:0
256,36,151785,2,0,P|304:24|352:36,1,100,0|8,0:0|0:0,0:0:0
440,192,152774,1,8,0:0:0
356,228,153103,6,0,P|256:252|260:200|152:228,1,200,0|0,0:0|0:0,0:0:0
72,256,154093,1,8,0:0:0
92,168,154423,2,0,P|96:112|88:56,1,100,12|12,0:0|0:0,0:0:0
72,28,154917,1,8,0:0:0
