osu file format v11

[General]
AudioFilename: M! OP - Help!! -Heaven side-.mp3
AudioLeadIn: 1000
PreviewTime: 55192
Countdown: 0
SampleSet: Normal
StackLeniency: 0.7
Mode: 0
LetterboxInBreaks: 0

[Editor]
Bookmarks: 44790,114680
DistanceSpacing: 1
BeatDivisor: 4
GridSize: 4

[Metadata]
Title:More-more LOVERS!!
TitleUnicode:More-more LOVERS!!
Artist:Aso Natsuko
ArtistUnicode:麻生夏子
Creator:B2IN
Version:Between
Source:MM!
Tags:ReySHeL ending emuemu isurugi mio yuno arashiko
BeatmapID:201707
BeatmapSetID:70104

[Difficulty]
HPDrainRate:7
CircleSize:4
OverallDifficulty:7
ApproachRate:9
SliderMultiplier:1.9
SliderTickRate:1

[Events]
//Background and Video events
0,0,"fd.jpg"
//Break Periods
2,87170,97119
//Storyboard Layer 0 (Background)
//Storyboard Layer 1 (Fail)
//Storyboard Layer 2 (Pass)
//Storyboard Layer 3 (Foreground)
//Storyboard Sound Samples
//Background Colour Transformations
3,100,163,162,255

[TimingPoints]
1456,329.67032967033,4,1,1,55,1,0
6401,-83.3333333333333,4,1,1,55,0,0
6730,-100,4,1,1,55,0,0
12335,-83.3333333333333,4,1,1,55,0,0
12664,-100,4,1,1,55,0,0
12994,-83.3333333333333,4,1,1,55,0,0
13324,-100,4,1,1,55,0,0
16950,-100,4,2,1,55,0,0
17280,-100,4,1,1,55,0,0
22225,-100,4,2,1,55,0,0
22554,-100,4,1,1,55,0,0
27499,-100,4,2,1,55,0,0
27829,-100,4,1,1,55,0,0
38049,-100,4,1,1,55,0,0
48598,-100,4,2,1,55,0,0
48763,-100,4,1,1,55,0,0
55192,-100,4,2,1,55,0,0
55521,-100,4,1,1,55,0,1
60466,-83.3333333333333,4,1,1,55,0,0
60796,-100,4,1,1,55,0,1
71346,-100,4,1,1,55,0,0
82225,-83.3333333333333,4,1,1,55,0,0
82554,-100,4,1,1,55,0,0
82884,-83.3333333333333,4,1,1,55,0,0
83214,-100,4,1,1,55,0,0
85796,-100,4,2,0,55,0,0
86785,-100,4,2,1,55,0,0
97719,-100,4,1,1,55,0,0
118488,-100,4,2,1,55,0,0
118653,-100,4,1,1,55,0,0
123763,-100,4,2,1,55,0,0
124093,-100,4,1,1,55,0,1
129038,-83.3333333333333,4,1,1,55,0,0
129368,-100,4,1,1,55,0,1
139917,-100,4,1,1,55,0,0
145192,-100,4,1,1,60,0,1
150137,-100,4,2,1,60,0,1
150302,-100,4,1,1,60,0,1
154917,-100,4,1,1,55,0,0

[Colours]
Combo1 : 232,232,0
Combo2 : 147,38,255
Combo3 : 198,198,198
Combo4 : 255,15,135

[HitObjects]
168,288,1456,2,0,P|256:320|344:288,1,190,12|0,0:0|0:0,0:0:0
256,192,1950,1,0,0:0:0
202,63,2115,2,0,P|168:152,1,95
309,63,2445,2,0,P|344:152,1,95,0|0,0:0|0:0,0:0:0
400,228,2774,5,12,0:0:0
312,300,2939,1,8,0:0:0
200,300,3104,1,12,0:0:0
112,228,3269,1,8,0:0:0
112,228,3598,6,0,P|100:180|112:136,1,95
192,92,3928,1,0,0:0:0
192,92,4093,2,0,P|215:178|192:276,1,190,0|8,0:0|0:0,0:0:0
100,108,4752,2,0,P|194:84|281:108,1,190,0|8,0:0|0:0,0:0:0
296,192,5247,1,0,0:0:0
408,148,5412,5,12,0:0:0
312,292,5576,1,8,0:0:0
160,204,5741,1,12,0:0:0
128,328,5906,1,8,0:0:0
248,372,6071,6,0,P|292:376|352:372,1,95,2|0,0:0|0:0,0:0:0
413,205,6401,2,2,P|353:201|297:205,1,113.999996520996,2|0,0:0|0:0,0:0:0
92,260,6730,6,0,P|72:152,1,95,4|0,0:0|0:0,0:0:0
204,52,7060,2,0,P|184:160,1,95,8|0,0:0|0:0,0:0:0
180,176,7307,1,0,0:0:0
180,176,7390,2,0,P|224:160|274:159,1,95
420,148,7719,1,8,0:0:0
352,212,7884,1,0,0:0:0
316,300,8049,5,0,0:0:0
196,300,8214,1,0,0:0:0
316,300,8379,1,8,0:0:0
196,300,8543,1,0,0:0:0
256,228,8708,2,0,P|256:128,1,95
256,36,9038,1,8,0:0:0
256,36,9120,1,0,0:0:0
256,36,9203,1,0,0:0:0
172,80,9368,6,0,P|64:96,1,95,2|0,0:0|0:0,0:0:0
99,267,9697,2,0,P|124:176,1,95,10|0,0:0|0:0,0:0:0
192,248,10027,1,0,0:0:0
256,320,10192,1,0,0:0:0
352,320,10357,2,0,P|384:256|452:224,1,142.5,8|0,0:0|0:0,0:0:0
472,220,10686,6,0,P|488:172,3,47.5
416,156,11016,2,0,P|432:108,3,47.5,8|0|0|0,0:0|0:0|0:0|0:0,0:0:0
364,84,11346,6,0,P|348:129,3,47.5
280,108,11676,2,0,P|264:153,3,47.5,8|0|0|0,0:0|0:0|0:0|0:0,0:0:0
244,196,12005,6,0,P|200:252|128:292,1,142.5,2|0,0:0|0:0,0:0:0
88,312,12335,2,0,P|168:304|260:328,1,170.999994781494,10|0,0:0|0:0,0:0:0
300,340,12664,6,0,P|344:284|416:244,1,142.5,2|0,0:0|0:0,0:0:0
456,224,12994,2,0,P|376:232|284:208,1,170.999994781494,10|0,0:0|0:0,0:0:0
256,176,13324,6,0,P|256:80,1,95,2|0,0:0|0:0,0:0:0
140,160,13653,1,8,0:0:0
15,236,13818,2,2,P|102:260|196:236,1,190,2|0,0:0|0:0,0:0:0
14,235,14313,1,10,0:0:0
148,52,14642,5,4,0:0:0
364,332,14972,1,4,0:0:0
171,224,15961,5,0,0:0:0
188,252,16043,1,0,0:0:0
212,276,16126,1,0,0:0:0
240,292,16208,1,0,0:0:0
272,292,16291,1,0,0:0:0
300,276,16373,1,0,0:0:0
324,252,16456,1,0,0:0:0
341,224,16538,1,0,0:0:0
360,196,16620,6,0,P|380:184|404:180,1,47.5
468,208,16785,2,0,P|491:201|510:187,1,47.5
460,136,16950,1,8,0:0:0
460,136,17280,5,0,0:0:0
348,164,17445,1,0,0:0:0
460,136,17609,2,0,P|460:41,1,95,8|0,0:0|0:0,0:0:0
436,52,17857,1,0,0:0:0
416,60,17939,2,0,P|372:72|316:68,1,95
151,133,18269,2,0,P|195:121|244:124,1,95,8|0,0:0|0:0,0:0:0
308,220,18598,6,0,P|264:232|215:229,1,95
140,288,18928,1,8,0:0:0
92,208,19093,1,0,0:0:0
151,133,19258,1,0,0:0:0
151,133,19587,1,8,0:0:0
464,192,19917,6,0,P|412:192|412:192|343:219|343:219|275:219,1,190,0|8,0:0|0:0,0:0:0
256,312,20412,1,0,0:0:0
176,264,20576,2,0,P|140:300|140:300|140:348,1,95
372,344,20906,2,0,P|372:300|372:300|336:264,1,95,8|0,0:0|0:0,0:0:0
328,164,21236,5,0,0:0:0
292,180,21318,1,0,0:0:0
256,188,21401,1,0,0:0:0
220,180,21483,1,0,0:0:0
184,164,21565,2,0,P|140:144,3,47.5,8|0|0|0,0:0|0:0|0:0|0:0,0:0:0
160,76,21895,2,0,P|204:96,3,47.5,0|0|0|0,0:0|0:0|0:0|0:0,0:0:0
256,116,22225,1,8,0:0:0
304,300,22554,6,0,P|392:248,1,95,4|0,0:0|0:0,0:0:0
208,300,22884,2,0,P|120:248,1,95,8|0,0:0|0:0,0:0:0
100,236,23131,1,0,0:0:0
76,220,23214,1,0,0:0:0
132,144,23379,1,0,0:0:0
256,260,23543,1,8,0:0:0
320,152,23708,1,0,0:0:0
404,108,23873,6,0,P|415:151|403:199,1,95
192,104,24203,1,8,0:0:0
320,152,24368,1,0,0:0:0
320,152,24450,1,0,0:0:0
320,152,24532,2,0,P|308:195|320:243,1,95,0|0,0:0|0:0,0:0:0
296,40,24862,1,8,0:0:0
392,196,25027,1,0,0:0:0
220,184,25192,6,0,P|140:260,1,95
236,288,25521,1,8,0:0:0
148,252,25686,1,0,0:0:0
144,256,25769,1,0,0:0:0
140,260,25851,2,0,P|60:336,1,95
31,120,26181,2,0,P|68:208,1,95,8|0,0:0|0:0,0:0:0
196,136,26510,5,0,0:0:0
152,248,26675,1,0,0:0:0
360,248,26840,1,0,0:0:0
316,136,27005,1,0,0:0:0
256,40,27499,5,8,0:0:0
436,180,27829,6,0,P|428:225|424:276,1,95,4|0,0:0|0:0,0:0:0
416,308,28076,1,0,0:0:0
396,336,28159,2,0,P|328:336|272:344,1,95,8|0,0:0|0:0,0:0:0
268,336,28406,1,0,0:0:0
236,328,28488,2,0,P|180:332|128:328,1,95
108,340,28736,1,0,0:0:0
76,328,28818,2,0,P|40:320|28:320,2,47.5,10|0|0,0:0|0:0|0:0,0:0:0
40,168,29148,6,0,P|84:176|136:176,1,95
168,184,29395,1,0,0:0:0
200,176,29477,2,0,P|224:172|248:156,3,47.5,8|0|0|0,0:0|0:0|0:0|0:0,0:0:0
276,148,29807,2,0,P|320:140|372:140,1,95
404,148,30054,1,0,0:0:0
436,160,30137,2,0,P|472:196,2,47.5,10|0|10,0:0|0:0|0:0,0:0:0
356,212,30466,6,0,P|388:248|428:280,1,95
352,340,30796,2,0,P|320:304|280:272,1,95,8|0,0:0|0:0,0:0:0
192,252,31126,1,0,0:0:0
152,236,31208,1,0,0:0:0
116,216,31291,1,0,0:0:0
88,184,31373,1,0,0:0:0
64,148,31456,2,0,P|44:96|40:48,1,95,10|0,0:0|0:0,0:0:0
224,120,31785,6,2,P|288:128|288:128|352:108|352:108|424:116,1,190,2|10,0:0|0:0,0:0:0
408,332,32445,2,2,P|349:338|349:338|285:318|285:318|221:326,1,190,2|10,0:0|0:0,0:0:0
224,120,33104,6,0,P|120:136,1,95,4|0,0:0|0:0,0:0:0
72,268,33434,2,0,P|176:252,1,95,8|0,0:0|0:0,0:0:0
200,260,33681,1,0,0:0:0
232,256,33763,2,0,P|316:188,1,95
352,92,34093,1,10,0:0:0
352,92,34175,1,0,0:0:0
352,92,34258,1,0,0:0:0
412,192,34423,6,0,P|428:304,1,95
304,360,34752,2,0,P|317:265,1,95,8|0,0:0|0:0,0:0:0
308,232,34999,1,0,0:0:0
304,200,35082,2,0,P|290:105,1,95
148,176,35412,1,10,0:0:0
148,176,35494,1,0,0:0:0
148,176,35576,1,10,0:0:0
256,192,35741,12,0,37554,0:0:0
24,148,38049,5,2,0:0:0
24,148,38379,2,0,P|112:116|200:148,1,190,4|8,0:0|0:0,0:0:0
140,220,38873,1,0,0:0:0
140,220,38956,1,0,0:0:0
140,220,39038,2,0,P|128:263|140:311,1,95,0|0,0:0|0:0,0:0:0
224,356,39368,2,0,P|235:312|223:264,1,95,8|0,0:0|0:0,0:0:0
316,244,39697,2,0,P|404:276|492:244,1,190,0|8,0:0|0:0,0:0:0
432,168,40191,1,0,0:0:0
432,168,40274,1,0,0:0:0
432,168,40357,1,0,0:0:0
340,72,40521,5,0,0:0:0
256,148,40686,1,8,0:0:0
168,72,40851,2,0,P|256:32|256:32|340:72,1,190
396,172,41346,1,8,0:0:0
256,244,41510,1,0,0:0:0
256,244,41593,1,0,0:0:0
256,244,41675,2,0,P|172:200,1,95
352,156,42005,1,8,0:0:0
304,328,42170,6,0,P|352:276|352:276|352:152,1,190
288,88,42664,1,8,0:0:0
112,296,42829,2,0,P|231:296|231:296|283:248,1,190,0|8,0:0|0:0,0:0:0
224,88,43324,1,8,0:0:0
224,88,43488,1,4,0:0:0
252,180,43653,6,0,P|296:272|296:272|384:272,2,190,0|8|0,0:0|0:0|0:0,0:0:0
65,152,44477,2,0,P|42:190|41:240,1,95,0|8,0:0|0:0,0:0:0
105,306,44807,2,0,P|154:221|156:132,1,190,4|0,0:0|0:0,0:0:0
252,180,45302,1,8,0:0:0
316,248,45466,2,0,P|364:260|408:248,1,95,0|0,0:0|0:0,0:0:0
452,164,45796,2,0,P|404:152|360:164,2,95,0|8|4,0:0|0:0|0:0,0:0:0
408,248,46291,6,0,P|320:280|232:248,2,190,0|8|0,0:0|0:0|0:0,0:0:0
452,164,47115,1,0,0:0:0
452,164,47280,1,8,0:0:0
396,88,47445,5,4,0:0:0
116,88,47774,1,0,0:0:0
364,196,48104,1,0,0:0:0
64,232,48434,5,0,0:0:0
152,268,48598,1,8,0:0:0
176,360,48763,1,0,0:0:0
268,344,48928,2,0,P|356:308|452:316,1,190,4|8,0:0|0:0,0:0:0
364,196,49423,1,0,0:0:0
364,196,49505,1,0,0:0:0
364,196,49587,2,0,P|364:140|368:100,1,95
244,116,49917,1,8,0:0:0
164,196,50082,1,0,0:0:0
164,196,50412,6,0,P|152:244|164:288,1,95,0|8,0:0|0:0,0:0:0
244,336,50741,1,0,0:0:0
280,320,50824,1,0,0:0:0
316,308,50906,2,0,P|360:300|416:308,1,95,0|8,0:0|0:0,0:0:0
492,352,51236,2,0,P|500:308|492:252,1,95,8|0,0:0|0:0,0:0:0
412,156,51565,6,0,P|324:188|236:156,1,190,0|8,0:0|0:0,0:0:0
180,232,52060,1,0,0:0:0
180,232,52142,1,0,0:0:0
180,232,52225,2,0,P|192:280|180:324,1,95
96,280,52554,1,8,0:0:0
268,312,52719,6,0,P|348:304|348:304|396:328|454:327,1,190
372,224,53214,2,0,P|416:240|463:244,1,95,8|0,0:0|0:0,0:0:0
420,140,53543,1,0,0:0:0
276,216,53708,1,0,0:0:0
420,140,53873,1,8,0:0:0
324,136,54038,6,0,P|128:128,1,190,12|0,0:0|0:0,0:0:0
48,216,54532,2,0,P|244:224,1,190
68,44,55192,1,8,0:0:0
324,136,55521,6,0,P|261:203|256:297,1,190,4|8,0:0|0:0,0:0:0
188,364,56016,1,0,0:0:0
104,324,56181,2,0,P|60:312|12:324,1,95
188,364,56510,2,0,P|231:375|279:363,1,95,8|0,0:0|0:0,0:0:0
356,304,56840,5,0,0:0:0
288,156,57005,1,0,0:0:0
424,108,57170,1,8,0:0:0
316,52,57335,1,0,0:0:0
196,76,57499,5,0,0:0:0
196,76,57664,2,0,P|88:56,1,95,0|8,0:0|0:0,0:0:0
44,132,57994,1,0,0:0:0
124,184,58159,2,0,P|152:304,1,95
328,332,58488,1,8,0:0:0
280,216,58653,1,0,0:0:0
268,228,58736,1,0,0:0:0
256,240,58818,2,0,P|235:333,1,95
440,292,59148,2,0,P|349:264,1,95,8|0,0:0|0:0,0:0:0
72,292,59477,6,0,P|162:264,1,95
184,124,59807,2,0,P|93:151,1,95,8|0,0:0|0:0,0:0:0
356,256,60137,6,0,P|368:208|356:164,1,95,2|0,0:0|0:0,0:0:0
184,124,60466,2,0,P|170:175|184:233,1,113.999996520996,10|0,2:0|0:0,0:0:0
300,324,60796,6,0,P|356:256|456:236,1,190,4|8,0:0|0:0,0:0:0
496,152,61291,1,0,0:0:0
400,144,61456,2,0,P|348:134|314:102,1,95
112,144,61785,2,0,P|163:134|197:102,1,95,8|0,0:0|0:0,0:0:0
256,180,62115,1,0,0:0:0
256,276,62280,1,0,0:0:0
256,180,62445,1,8,0:0:0
256,276,62609,1,0,0:0:0
436,319,62774,5,0,0:0:0
351,176,62939,2,0,P|340:220|352:268,1,95,0|8,0:0|0:0,0:0:0
328,360,63269,1,0,0:0:0
435,318,63434,2,0,P|459:222|436:136,1,190,0|8,0:0|0:0,0:0:0
256,180,63928,1,0,0:0:0
256,276,64093,2,0,P|328:360,1,95
176,348,64423,2,0,P|104:264,1,95,8|0,0:0|0:0,0:0:0
136,152,64752,5,0,0:0:0
160,124,64835,1,0,0:0:0
188,100,64917,1,0,0:0:0
220,80,64999,1,0,0:0:0
256,68,65082,1,8,0:0:0
292,76,65164,1,0,0:0:0
324,96,65246,1,0,0:0:0
352,120,65328,1,0,0:0:0
376,148,65411,1,8,0:0:0
256,180,65576,5,8,0:0:0
256,180,65741,1,8,0:0:0
256,276,65906,1,8,0:0:0
256,276,66071,2,0,P|152:300,1,95,12|0,0:0|0:0,0:0:0
276,376,66401,2,0,P|380:352,1,95,8|0,0:0|0:0,0:0:0
460,192,66730,2,0,P|412:180|368:192,1,95
164,276,67060,2,0,P|212:288|256:277,1,95,8|0,0:0|0:0,0:0:0
200,88,67390,5,0,0:0:0
208,184,67554,1,0,0:0:0
208,184,67637,1,0,0:0:0
208,184,67719,2,0,P|296:116,1,95,8|0,0:0|0:0,0:0:0
320,264,68049,1,0,0:0:0
272,348,68214,1,0,0:0:0
272,348,68296,1,0,0:0:0
272,348,68379,2,0,P|164:340,1,95,8|0,0:0|0:0,0:0:0
96,288,68708,6,0,P|168:232|188:140,1,190,0|8,0:0|0:0,0:0:0
324,140,69203,2,0,P|344:232|416:288,1,190
416,288,69697,1,8,0:0:0
460,104,70027,5,12,0:0:0
52,104,70357,1,8,0:0:0
256,52,70686,5,8,0:0:0
256,52,70851,1,8,0:0:0
148,164,71016,1,8,0:0:0
256,244,71181,1,0,0:0:0
364,164,71346,1,12,0:0:0
256,112,72664,5,12,0:0:0
336,192,72829,1,8,0:0:0
256,272,72994,1,12,0:0:0
176,192,73159,1,8,0:0:0
232,216,73488,5,0,0:0:0
136,280,73653,1,0,0:0:0
232,216,73818,1,0,0:0:0
136,280,73983,2,0,P|104:192|136:104,1,190,0|8,0:0|0:0,0:0:0
376,279,74642,2,0,P|408:192|376:104,1,190,0|8,0:0|0:0,0:0:0
256,168,75137,1,0,0:0:0
207,332,75302,5,12,0:0:0
168,216,75466,1,8,0:0:0
305,332,75631,1,12,0:0:0
344,216,75795,1,8,0:0:0
180,41,75961,6,0,P|168:84|180:132,1,95,2|0,0:0|0:0,0:0:0
332,132,76291,2,0,P|344:84|332:41,1,95,2|0,0:0|0:0,0:0:0
284,216,76620,6,0,P|352:304,1,95,4|0,0:0|0:0,0:0:0
200,300,76950,2,0,P|88:293,1,95,8|0,0:0|0:0,0:0:0
76,292,77197,1,0,0:0:0
48,292,77280,2,0,P|32:240|28:192,1,95
120,80,77609,2,0,P|136:132|140:180,1,95,8|0,0:0|0:0,0:0:0
196,272,77939,5,0,0:0:0
316,272,78104,1,0,0:0:0
196,272,78269,1,8,0:0:0
316,272,78433,1,0,0:0:0
256,196,78598,2,0,P|256:96,1,95
308,20,78928,1,8,0:0:0
308,20,79010,1,0,0:0:0
308,20,79093,1,0,0:0:0
376,84,79258,6,0,P|464:132,1,95,2|0,0:0|0:0,0:0:0
491,257,79587,2,0,P|408:212,1,95,10|0,0:0|0:0,0:0:0
256,196,79917,1,0,0:0:0
316,272,80082,1,0,0:0:0
408,288,80247,2,0,P|464:244|469:170,1,142.5,8|0,0:0|0:0,0:0:0
464,148,80576,6,0,P|416:132,3,47.5
360,172,80906,2,0,P|312:156,3,47.5,8|0|0|0,0:0|0:0|0:0|0:0,0:0:0
300,88,81236,2,0,P|252:72,3,47.5
196,112,81565,2,0,P|148:96,3,47.5,8|0|0|0,0:0|0:0|0:0|0:0,0:0:0
112,124,81895,6,0,P|172:160|216:216,1,142.5,2|0,0:0|0:0,0:0:0
236,268,82225,2,0,P|156:276|64:252,1,170.999994781494,10|0,0:0|0:0,0:0:0
20,252,82554,6,0,P|64:308|136:348,1,142.5,2|0,0:0|0:0,0:0:0
172,344,82884,2,0,P|259:322|339:330,1,170.999994781494,10|0,0:0|0:0,0:0:0
380,304,83214,6,0,P|380:208,1,95,2|0,0:0|0:0,0:0:0
336,124,83543,1,8,0:0:0
268,192,83708,2,2,P|174:216|87:192,1,190,2|0,0:0|0:0,0:0:0
52,60,84203,1,10,0:0:0
308,112,84532,5,4,0:0:0
120,328,84862,1,4,0:0:0
256,192,85796,5,8,0:0:0
256,212,86126,1,8,0:0:0
256,232,86456,1,8,0:0:0
256,252,86785,1,8,0:0:0
135,228,97719,6,0,P|171:257|212:283,1,95,4|0,0:0|0:0,0:0:0
232,312,97966,1,0,0:0:0
264,316,98049,2,0,P|311:317|358:326,1,95,8|0,0:0|0:0,0:0:0
388,340,98296,1,0,0:0:0
420,352,98379,2,0,P|453:316|482:267,1,95
492,248,98626,1,0,0:0:0
480,216,98708,2,0,P|468:168,2,47.5,10|0|0,0:0|0:0|0:0,0:0:0
324,224,99038,6,0,P|283:242|232:254,1,95
204,272,99285,1,0,0:0:0
172,276,99367,2,0,P|147:275|121:263,3,47.5,8|0|0|0,0:0|0:0|0:0|0:0,0:0:0
104,240,99697,2,0,P|68:208|25:183,1,95
12,156,99944,1,0,0:0:0
8,124,100027,2,0,P|36:80,2,47.5,10|0|10,0:0|0:0|0:0,0:0:0
164,88,100357,6,0,P|184:132|184:184,1,95
326,178,100686,2,0,P|328:132|348:88,1,95,8|0,0:0|0:0,0:0:0
408,228,101016,1,0,0:0:0
396,260,101098,1,0,0:0:0
372,284,101181,1,0,0:0:0
344,300,101263,1,0,0:0:0
312,304,101346,2,0,P|212:304,1,95,10|0,0:0|0:0,0:0:0
16,276,101675,6,2,P|76:297|76:297|124:344|124:344|192:370,1,190,2|10,0:0|0:0,0:0:0
275,170,102335,2,2,P|225:137|225:137|159:126|159:126|105:90,1,190,2|10,0:0|0:0,0:0:0
100,192,102994,6,0,P|84:304,1,95,4|0,0:0|0:0,0:0:0
208,360,103323,2,0,P|195:265,1,95,8|0,0:0|0:0,0:0:0
204,232,103570,1,0,0:0:0
208,200,103653,2,0,P|222:105,1,95
364,176,103983,1,10,0:0:0
364,176,104065,1,0,0:0:0
364,176,104147,1,0,0:0:0
234,345,104313,6,0,P|334:314,1,95,0|0,0:0|0:0,0:0:0
364,176,104643,2,0,P|263:206,1,95,8|0,0:0|0:0,0:0:0
240,204,104890,1,0,0:0:0
208,200,104972,2,0,P|100:190,1,95
168,324,105302,1,10,0:0:0
168,324,105384,1,0,0:0:0
168,324,105467,1,2,0:0:0
256,192,105631,12,0,107445,0:0:0
488,236,107939,5,2,0:0:0
488,236,108269,2,0,P|400:268|312:236,1,190,4|8,0:0|0:0,0:0:0
228,276,108763,1,0,0:0:0
228,276,108846,1,0,0:0:0
228,276,108928,2,0,P|240:319|228:367,1,95,0|0,0:0|0:0,0:0:0
148,316,109258,2,0,P|137:272|149:224,1,95,8|0,0:0|0:0,0:0:0
236,192,109587,2,0,P|148:224|60:192,1,190,0|8,0:0|0:0,0:0:0
40,100,110081,1,0,0:0:0
40,100,110164,1,0,0:0:0
40,100,110247,1,0,0:0:0
120,192,110412,5,0,0:0:0
256,88,110576,1,8,0:0:0
320,160,110741,2,0,P|256:219|192:161,1,190
256,88,111236,1,8,0:0:0
384,232,111400,1,0,0:0:0
384,232,111483,1,0,0:0:0
384,232,111565,2,0,P|384:336,1,95
256,288,111895,1,8,0:0:0
296,160,112060,6,0,P|383:128|471:160,1,190,0|0,0:0|0:0,0:0:0
400,272,112554,1,8,0:0:0
304,272,112719,2,0,P|216:304|128:272,1,190,0|8,0:0|0:0,0:0:0
88,192,113214,1,8,0:0:0
88,192,113379,1,4,0:0:0
184,204,113543,6,0,P|196:112|156:24,2,190,0|8|0,0:0|0:0|0:0,0:0:0
108,116,114368,2,0,P|11:127,1,95,0|8,0:0|0:0,0:0:0
280,192,114697,2,0,P|344:192|344:192|404:216|404:216|472:216,1,190,4|0,0:0|0:0,0:0:0
404,324,115192,1,8,0:0:0
304,340,115357,2,0,P|256:348|208:340,1,95
208,244,115686,2,0,P|256:236|304:244,2,95,0|8|4,0:0|0:0|0:0,0:0:0
144,316,116181,6,0,P|78:281|78:201|146:165,2,190,0|8|0,0:0|0:0|0:0,0:0:0
256,244,117005,1,0,0:0:0
256,244,117170,1,8,0:0:0
256,85,117335,5,4,0:0:0
100,192,117664,1,0,0:0:0
412,192,117994,1,0,0:0:0
144,304,118324,5,0,0:0:0
240,300,118488,1,8,0:0:0
324,344,118653,1,0,0:0:0
416,316,118818,2,0,P|484:268|492:160,1,190,4|8,0:0|0:0,0:0:0
408,72,119313,1,0,0:0:0
408,72,119395,1,0,0:0:0
408,72,119477,2,0,P|372:108|360:152,1,95
392,240,119807,1,8,0:0:0
256,200,119972,1,0,0:0:0
256,200,120302,6,0,P|244:248|256:292,1,95,0|8,0:0|0:0,0:0:0
320,364,120631,1,0,0:0:0
356,348,120714,1,0,0:0:0
392,336,120796,2,0,P|436:328|492:336,1,95,0|8,0:0|0:0,0:0:0
472,240,121126,2,0,P|480:196|472:140,1,95,8|0,0:0|0:0,0:0:0
400,36,121456,6,0,P|344:104|232:92,1,190,0|8,0:0|0:0,0:0:0
220,192,121950,1,0,0:0:0
220,192,122032,1,0,0:0:0
220,192,122115,2,0,P|212:244|216:296,1,95
284,352,122445,1,8,0:0:0
375,328,122609,6,0,P|382:234|368:140,1,190,12|0,0:0|0:0,0:0:0
144,140,123104,2,0,P|129:234|136:328,1,190,0|0,0:0|0:0,0:0:0
348,236,123763,1,8,0:0:0
168,52,124093,6,0,P|256:84|344:52,1,190,4|8,0:0|0:0,0:0:0
368,140,124587,1,0,0:0:0
452,180,124752,2,0,P|460:228|452:276,1,95
368,232,125082,2,0,P|360:184|367:138,1,95,8|0,0:0|0:0,0:0:0
368,328,125412,5,0,0:0:0
296,264,125576,1,0,0:0:0
144,328,125741,1,8,0:0:0
216,264,125905,1,0,0:0:0
256,176,126071,5,0,0:0:0
256,176,126236,2,0,P|256:68,1,95,0|8,0:0|0:0,0:0:0
364,128,126565,1,0,0:0:0
408,212,126730,6,0,P|504:252,1,95
256,316,127060,1,8,0:0:0
352,360,127225,1,0,0:0:0
352,360,127307,1,0,0:0:0
352,360,127390,2,0,P|360:312|352:266,1,95,0|0,0:0|0:0,0:0:0
159,266,127719,2,0,P|152:312|160:360,1,95,8|0,0:0|0:0,0:0:0
299,183,128049,6,0,P|256:172|208:184,1,95
212,88,128379,2,0,P|255:99|303:87,1,95,8|0,0:0|0:0,0:0:0
424,240,128708,6,0,P|384:268|324:272,1,95,2|0,0:0|0:0,0:0:0
100,156,129038,2,0,P|160:160|212:196,1,113.999996520996,10|0,2:0|0:0,0:0:0
300,324,129368,6,0,P|336:243|427:198,1,190,4|8,0:0|0:0,0:0:0
496,140,129863,1,0,0:0:0
404,112,130028,2,0,P|352:102|318:70,1,95
108,112,130357,2,0,P|160:102|194:70,1,95,8|0,0:0|0:0,0:0:0
256,144,130687,1,0,0:0:0
256,240,130852,1,0,0:0:0
256,144,131017,1,8,0:0:0
256,240,131181,1,0,0:0:0
76,319,131346,5,0,0:0:0
161,176,131511,2,0,P|172:220|160:268,1,95,0|8,0:0|0:0,0:0:0
184,360,131841,1,0,0:0:0
77,318,132006,2,0,P|53:222|76:136,1,190,0|8,0:0|0:0,0:0:0
256,180,132500,1,0,0:0:0
352,176,132664,2,0,P|368:220|412:248,1,95
160,176,132994,2,0,P|144:220|100:248,1,95,8|0,0:0|0:0,0:0:0
64,152,133324,5,0,0:0:0
88,116,133406,1,0,0:0:0
120,88,133488,1,0,0:0:0
160,72,133571,1,0,0:0:0
204,68,133653,1,8,0:0:0
248,68,133736,1,0,0:0:0
292,68,133818,1,0,0:0:0
336,68,133901,1,0,0:0:0
380,68,133983,1,8,0:0:0
464,160,134148,5,8,0:0:0
464,160,134313,1,8,0:0:0
424,248,134477,1,8,0:0:0
424,248,134642,2,0,P|328:248,1,95,12|0,0:0|0:0,0:0:0
193,336,134972,2,0,P|288:336,1,95,8|0,0:0|0:0,0:0:0
328,248,135302,2,0,P|233:248,1,95,0|0,0:0|0:0,0:0:0
100,336,135631,2,0,P|195:336,1,95,8|0,0:0|0:0,0:0:0
256,192,135961,5,0,0:0:0
184,248,136126,1,0,0:0:0
184,248,136208,1,0,0:0:0
184,248,136291,2,0,P|136:256|90:248,1,95,8|0,0:0|0:0,0:0:0
256,192,136620,1,0,0:0:0
328,248,136785,1,0,0:0:0
328,248,136867,1,0,0:0:0
328,248,136950,2,0,P|376:256|422:248,1,95,8|0,0:0|0:0,0:0:0
480,172,137280,6,0,P|395:136|352:52,1,190,0|8,0:0|0:0,0:0:0
159,52,137774,2,0,P|116:136|32:172,1,190,0|0,0:0|0:0,0:0:0
31,172,138269,1,8,0:0:0
108,344,138598,5,12,0:0:0
404,344,138928,1,8,0:0:0
256,228,139258,5,8,0:0:0
256,228,139423,1,8,0:0:0
156,280,139587,1,8,0:0:0
256,336,139752,1,0,0:0:0
356,280,139917,1,12,0:0:0
400,52,141236,5,12,0:0:0
312,124,141401,1,8,0:0:0
200,124,141566,1,12,0:0:0
112,52,141731,1,8,0:0:0
256,208,142060,5,0,0:0:0
344,284,142225,1,0,0:0:0
256,208,142390,1,0,0:0:0
344,284,142554,2,0,P|425:237|457:149,1,190,0|8,0:0|0:0,0:0:0
168,284,143214,2,0,P|86:237|54:149,1,190,0|8,0:0|0:0,0:0:0
188,80,143708,1,0,0:0:0
324,116,143873,5,12,0:0:0
192,228,144037,1,8,0:0:0
340,256,144202,1,12,0:0:0
200,372,144367,1,8,0:0:0
352,376,144532,6,0,P|456:348,1,95,2|0,0:0|0:0,0:0:0
432,232,144862,2,0,P|328:260,1,95,10|0,2:0|0:0,0:0:0
112,295,145192,6,0,P|204:288|256:212,1,190,4|8,0:0|0:0,0:0:0
340,256,145686,1,0,0:0:0
340,256,145851,2,0,P|344:352,1,95
432,232,146181,2,0,P|428:136,1,95,8|0,0:0|0:0,0:0:0
356,76,146510,5,0,0:0:0
356,76,146675,1,0,0:0:0
268,112,146840,2,0,P|220:124|156:132,1,95,8|0,0:0|0:0,0:0:0
124,52,147170,1,0,0:0:0
60,124,147335,1,8,0:0:0
72,216,147499,1,8,0:0:0
156,264,147664,1,8,0:0:0
252,252,147829,6,0,P|340:212|440:216,1,190,0|8,0:0|0:0,0:0:0
480,296,148324,1,0,0:0:0
400,344,148488,1,0,0:0:0
400,344,148653,1,0,0:0:0
304,340,148818,2,0,P|252:348|200:328,1,95,8|0,0:0|0:0,0:0:0
80,172,149148,5,0,0:0:0
172,200,149313,1,0,0:0:0
112,272,149477,2,0,P|92:368,1,95,8|0,0:0|0:0,0:0:0
248,288,149807,2,0,P|288:260|348:232,2,95,0|0|8,0:0|0:0|0:0,0:0:0
364,320,150302,5,0,0:0:0
364,320,150384,1,0,0:0:0
364,320,150466,2,0,P|415:249|375:158,1,190,4|8,0:0|0:0,0:0:0
284,164,150961,1,0,0:0:0
284,164,151126,2,0,P|188:164,1,95
49,80,151456,2,0,P|144:80,1,95,8|0,0:0|0:0,0:0:0
236,52,151785,5,0,0:0:0
236,52,151950,1,0,0:0:0
180,128,152115,2,0,P|168:171|180:219,2,95,8|0|0,0:0|0:0|0:0,0:0:0
236,52,152609,1,8,0:0:0
332,44,152774,1,8,0:0:0
404,108,152939,1,8,0:0:0
440,196,153104,6,0,P|352:232|312:320,1,190,0|8,0:0|0:0,0:0:0
248,244,153598,1,0,0:0:0
168,296,153763,2,0,P|64:324,1,95
32,180,154093,2,0,P|112:232,1,95,8|0,0:0|0:0,0:0:0
204,212,154423,5,12,0:0:0
128,116,154587,1,8,0:0:0
296,76,154752,1,12,0:0:0
188,16,154917,1,8,0:0:0
